  0
SECTION
  2
HEADER
  9
$ACADVER
  1
AC1015
  9
$ACADMAINTVER
 70
     6
  9
$DWGCODEPAGE
  3
ANSI_1252
  9
$INSBASE
 10
0.0
 20
0.0
 30
0.0
  9
$EXTMIN
 10
3386.810114181059
 20
556.7033695669696
 30
0.0
  9
$EXTMAX
 10
3806.81211418106
 20
854.7739964613324
 30
0.0
  9
$LIMMIN
 10
0.0
 20
0.0
  9
$LIMMAX
 10
420.0
 20
297.0
  9
$ORTHOMODE
 70
     0
  9
$REGENMODE
 70
     1
  9
$FILLMODE
 70
     1
  9
$QTEXTMODE
 70
     0
  9
$MIRRTEXT
 70
     1
  9
$LTSCALE
 40
0.254
  9
$ATTMODE
 70
     1
  9
$TEXTSIZE
 40
3.5
  9
$TRACEWID
 40
1.0
  9
$TEXTSTYLE
  7
STANDARD
  9
$CLAYER
  8
DEFPOINTS
  9
$CELTYPE
  6
BYLAYER
  9
$CECOLOR
 62
   256
  9
$CELTSCALE
 40
1.0
  9
$DISPSILH
 70
     0
  9
$DIMSCALE
 40
1.0
  9
$DIMASZ
 40
3.5
  9
$DIMEXO
 40
0.625
  9
$DIMDLI
 40
10.0
  9
$DIMRND
 40
0.01
  9
$DIMDLE
 40
0.0
  9
$DIMEXE
 40
1.25
  9
$DIMTP
 40
0.0
  9
$DIMTM
 40
0.0
  9
$DIMTXT
 40
3.5
  9
$DIMCEN
 40
2.5
  9
$DIMTSZ
 40
0.0
  9
$DIMTOL
 70
     0
  9
$DIMLIM
 70
     0
  9
$DIMTIH
 70
     0
  9
$DIMTOH
 70
     0
  9
$DIMSE1
 70
     0
  9
$DIMSE2
 70
     0
  9
$DIMTAD
 70
     1
  9
$DIMZIN
 70
     8
  9
$DIMBLK
  1

  9
$DIMASO
 70
     1
  9
$DIMSHO
 70
     1
  9
$DIMPOST
  1

  9
$DIMAPOST
  1

  9
$DIMALT
 70
     0
  9
$DIMALTD
 70
     2
  9
$DIMALTF
 40
0.03937
  9
$DIMLFAC
 40
1.0
  9
$DIMTOFL
 70
     1
  9
$DIMTVP
 40
0.0
  9
$DIMTIX
 70
     0
  9
$DIMSOXD
 70
     0
  9
$DIMSAH
 70
     0
  9
$DIMBLK1
  1

  9
$DIMBLK2
  1

  9
$DIMSTYLE
  2
STANDARD
  9
$DIMCLRD
 70
     0
  9
$DIMCLRE
 70
     0
  9
$DIMCLRT
 70
     1
  9
$DIMTFAC
 40
0.7142857142857143
  9
$DIMGAP
 40
1.0
  9
$DIMJUST
 70
     0
  9
$DIMSD1
 70
     0
  9
$DIMSD2
 70
     0
  9
$DIMTOLJ
 70
     1
  9
$DIMTZIN
 70
     8
  9
$DIMALTZ
 70
     0
  9
$DIMALTTZ
 70
     0
  9
$DIMUPT
 70
     0
  9
$DIMDEC
 70
     2
  9
$DIMTDEC
 70
     2
  9
$DIMALTU
 70
     2
  9
$DIMALTTD
 70
     2
  9
$DIMTXSTY
  7
STANDARD
  9
$DIMAUNIT
 70
     0
  9
$DIMADEC
 70
     2
  9
$DIMALTRND
 40
0.0
  9
$DIMAZIN
 70
     0
  9
$DIMDSEP
 70
    46
  9
$DIMATFIT
 70
     3
  9
$DIMFRAC
 70
     0
  9
$DIMLDRBLK
  1

  9
$DIMLUNIT
 70
     2
  9
$DIMLWD
 70
    -2
  9
$DIMLWE
 70
    -2
  9
$DIMTMOVE
 70
     0
  9
$LUNITS
 70
     2
  9
$LUPREC
 70
     6
  9
$SKETCHINC
 40
1.0
  9
$FILLETRAD
 40
0.0
  9
$AUNITS
 70
     0
  9
$AUPREC
 70
     2
  9
$MENU
  1
acad
  9
$ELEVATION
 40
0.0
  9
$PELEVATION
 40
0.0
  9
$THICKNESS
 40
0.0
  9
$LIMCHECK
 70
     0
  9
$CHAMFERA
 40
0.0
  9
$CHAMFERB
 40
0.0
  9
$CHAMFERC
 40
0.0
  9
$CHAMFERD
 40
0.0
  9
$SKPOLY
 70
     0
  9
$TDCREATE
 40
2457847.450474109
  9
$TDUCREATE
 40
2457847.408807442
  9
$TDUPDATE
 40
2458148.711066609
  9
$TDUUPDATE
 40
2458148.669399942
  9
$TDINDWG
 40
16.0237321065
  9
$TDUSRTIMER
 40
2458148.669159838
  9
$USRTIMER
 70
     1
  9
$ANGBASE
 50
0.0
  9
$ANGDIR
 70
     0
  9
$PDMODE
 70
     2
  9
$PDSIZE
 40
-1.75
  9
$PLINEWID
 40
0.0
  9
$SPLFRAME
 70
     0
  9
$SPLINETYPE
 70
     6
  9
$SPLINESEGS
 70
     8
  9
$HANDSEED
  5
3047
  9
$SURFTAB1
 70
     6
  9
$SURFTAB2
 70
     6
  9
$SURFTYPE
 70
     6
  9
$SURFU
 70
     6
  9
$SURFV
 70
     6
  9
$UCSBASE
  2

  9
$UCSNAME
  2

  9
$UCSORG
 10
0.0
 20
0.0
 30
0.0
  9
$UCSXDIR
 10
1.0
 20
0.0
 30
0.0
  9
$UCSYDIR
 10
0.0
 20
1.0
 30
0.0
  9
$UCSORTHOREF
  2

  9
$UCSORTHOVIEW
 70
     0
  9
$UCSORGTOP
 10
0.0
 20
0.0
 30
0.0
  9
$UCSORGBOTTOM
 10
0.0
 20
0.0
 30
0.0
  9
$UCSORGLEFT
 10
0.0
 20
0.0
 30
0.0
  9
$UCSORGRIGHT
 10
0.0
 20
0.0
 30
0.0
  9
$UCSORGFRONT
 10
0.0
 20
0.0
 30
0.0
  9
$UCSORGBACK
 10
0.0
 20
0.0
 30
0.0
  9
$PUCSBASE
  2

  9
$PUCSNAME
  2

  9
$PUCSORG
 10
0.0
 20
0.0
 30
0.0
  9
$PUCSXDIR
 10
1.0
 20
0.0
 30
0.0
  9
$PUCSYDIR
 10
0.0
 20
1.0
 30
0.0
  9
$PUCSORTHOREF
  2

  9
$PUCSORTHOVIEW
 70
     0
  9
$PUCSORGTOP
 10
0.0
 20
0.0
 30
0.0
  9
$PUCSORGBOTTOM
 10
0.0
 20
0.0
 30
0.0
  9
$PUCSORGLEFT
 10
0.0
 20
0.0
 30
0.0
  9
$PUCSORGRIGHT
 10
0.0
 20
0.0
 30
0.0
  9
$PUCSORGFRONT
 10
0.0
 20
0.0
 30
0.0
  9
$PUCSORGBACK
 10
0.0
 20
0.0
 30
0.0
  9
$USERI1
 70
     0
  9
$USERI2
 70
     0
  9
$USERI3
 70
     0
  9
$USERI4
 70
     0
  9
$USERI5
 70
     0
  9
$USERR1
 40
0.0
  9
$USERR2
 40
0.0
  9
$USERR3
 40
0.0
  9
$USERR4
 40
0.0
  9
$USERR5
 40
0.0
  9
$WORLDVIEW
 70
     1
  9
$SHADEDGE
 70
     3
  9
$SHADEDIF
 70
    70
  9
$TILEMODE
 70
     1
  9
$MAXACTVP
 70
    16
  9
$PINSBASE
 10
0.0
 20
0.0
 30
0.0
  9
$PLIMCHECK
 70
     0
  9
$PEXTMIN
 10
-7.499709308616957
 20
-19.99923340761075
 30
0.0
  9
$PEXTMAX
 10
412.5022906913832
 20
277.0007665923893
 30
0.0
  9
$PLIMMIN
 10
-7.498161866676696
 20
-20.00815667445789
  9
$PLIMMAX
 10
412.5018381333233
 20
276.9918433255421
  9
$UNITMODE
 70
     0
  9
$VISRETAIN
 70
     0
  9
$PLINEGEN
 70
     0
  9
$PSLTSCALE
 70
     1
  9
$TREEDEPTH
 70
  3020
  9
$CMLSTYLE
  2
STANDARD
  9
$CMLJUST
 70
     0
  9
$CMLSCALE
 40
1.0
  9
$PROXYGRAPHICS
 70
     1
  9
$MEASUREMENT
 70
     1
  9
$CELWEIGHT
370
    -1
  9
$ENDCAPS
280
     0
  9
$JOINSTYLE
280
     0
  9
$LWDISPLAY
290
     0
  9
$INSUNITS
 70
     0
  9
$HYPERLINKBASE
  1

  9
$STYLESHEET
  1

  9
$XEDIT
290
     1
  9
$CEPSNTYPE
380
     0
  9
$PSTYLEMODE
290
     1
  9
$FINGERPRINTGUID
  2
{D484F278-1976-486D-9240-6B0057B502E1}
  9
$VERSIONGUID
  2
{5A1BFE6F-E045-463D-8FA4-E7DAA62139DF}
  9
$EXTNAMES
290
     1
  9
$PSVPSCALE
 40
0.0
  9
$OLESTARTUP
290
     0
  0
ENDSEC
  0
SECTION
  2
CLASSES
  0
CLASS
  1
ACDBDICTIONARYWDFLT
  2
AcDbDictionaryWithDefault
  3
ObjectDBX Classes
 90
        0
280
     0
281
     0
  0
CLASS
  1
ACDBPLACEHOLDER
  2
AcDbPlaceHolder
  3
ObjectDBX Classes
 90
        0
280
     0
281
     0
  0
CLASS
  1
LAYOUT
  2
AcDbLayout
  3
ObjectDBX Classes
 90
        0
280
     0
281
     0
  0
CLASS
  1
TABLESTYLE
  2
AcDbTableStyle
  3
ObjectDBX Classes
 90
     4095
280
     0
281
     0
  0
CLASS
  1
DICTIONARYVAR
  2
AcDbDictionaryVar
  3
ObjectDBX Classes
 90
        0
280
     0
281
     0
  0
CLASS
  1
MATERIAL
  2
AcDbMaterial
  3
ObjectDBX Classes
 90
     1153
280
     0
281
     0
  0
CLASS
  1
VISUALSTYLE
  2
AcDbVisualStyle
  3
ObjectDBX Classes
 90
     4095
280
     0
281
     0
  0
CLASS
  1
SCALE
  2
AcDbScale
  3
ObjectDBX Classes
 90
     1153
280
     0
281
     0
  0
CLASS
  1
MLEADERSTYLE
  2
AcDbMLeaderStyle
  3
ACDB_MLEADERSTYLE_CLASS
 90
     4095
280
     0
281
     0
  0
CLASS
  1
ACDBSECTIONVIEWSTYLE
  2
AcDbSectionViewStyle
  3
ObjectDBX Classes
 90
     1025
280
     0
281
     0
  0
CLASS
  1
ACDBDETAILVIEWSTYLE
  2
AcDbDetailViewStyle
  3
ObjectDBX Classes
 90
     1025
280
     0
281
     0
  0
CLASS
  1
SORTENTSTABLE
  2
AcDbSortentsTable
  3
ObjectDBX Classes
 90
        0
280
     0
281
     0
  0
CLASS
  1
CELLSTYLEMAP
  2
AcDbCellStyleMap
  3
ObjectDBX Classes
 90
     1152
280
     0
281
     0
  0
CLASS
  1
ACDB_BLKREFOBJECTCONTEXTDATA_CLASS
  2
AcDbBlkRefObjectContextData
  3
ObjectDBX Classes
 90
     1153
280
     0
281
     0
  0
CLASS
  1
ACAD_EVALUATION_GRAPH
  2
AcDbEvalGraph
  3
ObjectDBX Classes
 90
     1153
280
     0
281
     0
  0
CLASS
  1
ACAECUSTOBJ
  2
AcAeEditorObj
  3
AcAeEditorObj
 90
     1024
280
     1
281
     0
  0
CLASS
  1
ACDB_DYNAMICBLOCKPURGEPREVENTER_VERSION
  2
AcDbDynamicBlockPurgePreventer
  3
ObjectDBX Classes
 90
     1153
280
     0
281
     0
  0
CLASS
  1
MULTILEADER
  2
AcDbMLeader
  3
ACDB_MLEADER_CLASS
 90
     1025
280
     0
281
     1
  0
CLASS
  1
SUN
  2
AcDbSun
  3
SCENEOE
 90
     1153
280
     0
281
     0
  0
CLASS
  1
RASTERVARIABLES
  2
AcDbRasterVariables
  3
ISM
 90
        0
280
     0
281
     0
  0
ENDSEC
  0
SECTION
  2
TABLES
  0
TABLE
  2
VPORT
  5
9
330
0
100
AcDbSymbolTable
 70
     1
  0
VPORT
  5
F1
330
9
100
AcDbSymbolTableRecord
100
AcDbViewportTableRecord
  2
*Active
 70
     0
 10
0.0
 20
0.0
 11
1.0
 21
1.0
 12
3596.81111418106
 22
706.2739964613324
 13
0.0
 23
0.0
 14
10.0
 24
10.0
 15
10.0
 25
10.0
 16
0.0
 26
0.0
 36
1.0
 17
0.0
 27
0.0
 37
0.0
 40
302.94
 41
2.093421052631579
 42
50.0
 43
0.0
 44
0.0
 50
0.0
 51
0.0
 71
    16
 72
  2000
 73
     1
 74
     1
 75
     0
 76
     0
 77
     0
 78
     0
281
     0
 65
     1
110
0.0
120
0.0
130
0.0
111
1.0
121
0.0
131
0.0
112
0.0
122
1.0
132
0.0
 79
     0
146
0.0
1001
ACAD_NAV_VCDISPLAY
1070
     3
  0
ENDTAB
  0
TABLE
  2
LTYPE
  5
6
330
0
100
AcDbSymbolTable
 70
     4
  0
LTYPE
  5
13
330
6
100
AcDbSymbolTableRecord
100
AcDbLinetypeTableRecord
  2
BYBLOCK
 70
     0
  3

 72
    65
 73
     0
 40
0.0
  0
LTYPE
  5
14
330
6
100
AcDbSymbolTableRecord
100
AcDbLinetypeTableRecord
  2
BYLAYER
 70
     0
  3

 72
    65
 73
     0
 40
0.0
  0
LTYPE
  5
15
330
6
100
AcDbSymbolTableRecord
100
AcDbLinetypeTableRecord
  2
CONTINUOUS
 70
     0
  3
Solid line
 72
    65
 73
     0
 40
0.0
  0
LTYPE
  5
1D
330
6
100
AcDbSymbolTableRecord
100
AcDbLinetypeTableRecord
  2
TRATTEGGIATA
 70
     0
  3
__ __ __ __ __ __ __ __ __ __ __ __ __ __ __ __
 72
    65
 73
     2
 40
19.05
 49
12.7
 74
     0
 49
-6.35
 74
     0
  0
LTYPE
  5
1E
330
6
100
AcDbSymbolTableRecord
100
AcDbLinetypeTableRecord
  2
LINEA-LINEETTA
 70
     0
  3
____ _ ____ _ ____ _ ____ _ ____ _ ____ _ ____ 
 72
    65
 73
     4
 40
50.8
 49
31.75
 74
     0
 49
-6.35
 74
     0
 49
6.35
 74
     0
 49
-6.35
 74
     0
  0
LTYPE
  5
1F
330
6
100
AcDbSymbolTableRecord
100
AcDbLinetypeTableRecord
  2
LINEA-LINEETTE2
 70
     0
  3
___ _ _ ___ _ _ ___ _ _ ___ _ _ ___ _ _ ___ _ _
 72
    65
 73
     6
 40
31.75
 49
15.875
 74
     0
 49
-3.175
 74
     0
 49
3.175
 74
     0
 49
-3.175
 74
     0
 49
3.175
 74
     0
 49
-3.175
 74
     0
  0
ENDTAB
  0
TABLE
  2
LAYER
  5
3
102
{ACAD_XDICTIONARY
360
147
102
}
330
0
100
AcDbSymbolTable
 70
    24
  0
LAYER
  5
10
102
{ACAD_XDICTIONARY
360
A65
102
}
330
3
100
AcDbSymbolTableRecord
100
AcDbLayerTableRecord
  2
0
 70
     0
 62
    12
  6
CONTINUOUS
370
    -3
390
5C
  0
LAYER
  5
24
102
{ACAD_XDICTIONARY
360
A67
102
}
330
3
100
AcDbSymbolTableRecord
100
AcDbLayerTableRecord
  2
G1-
 70
     0
 62
     1
  6
CONTINUOUS
370
    -3
390
5C
  0
LAYER
  5
25
102
{ACAD_XDICTIONARY
360
A69
102
}
330
3
100
AcDbSymbolTableRecord
100
AcDbLayerTableRecord
  2
F1-
 70
     0
 62
     2
  6
CONTINUOUS
370
    -3
390
5C
  0
LAYER
  5
26
102
{ACAD_XDICTIONARY
360
A6B
102
}
330
3
100
AcDbSymbolTableRecord
100
AcDbLayerTableRecord
  2
TG-
 70
     0
 62
    52
  6
CONTINUOUS
370
    -3
390
5C
  0
LAYER
  5
27
102
{ACAD_XDICTIONARY
360
A6D
102
}
330
3
100
AcDbSymbolTableRecord
100
AcDbLayerTableRecord
  2
TF-
 70
     0
 62
     9
  6
TRATTEGGIATA
370
    -3
390
5C
  0
LAYER
  5
28
102
{ACAD_XDICTIONARY
360
A6F
102
}
330
3
100
AcDbSymbolTableRecord
100
AcDbLayerTableRecord
  2
MG-
 70
     0
 62
     5
  6
LINEA-LINEETTA
370
    -3
390
5C
  0
LAYER
  5
29
102
{ACAD_XDICTIONARY
360
A71
102
}
330
3
100
AcDbSymbolTableRecord
100
AcDbLayerTableRecord
  2
MF-
 70
     0
 62
     3
  6
LINEA-LINEETTA
370
    -3
390
5C
  0
LAYER
  5
2A
102
{ACAD_XDICTIONARY
360
A73
102
}
330
3
100
AcDbSymbolTableRecord
100
AcDbLayerTableRecord
  2
DT-
 70
     0
 62
     8
  6
LINEA-LINEETTE2
370
    -3
390
5C
  0
LAYER
  5
2B
102
{ACAD_XDICTIONARY
360
A75
102
}
330
3
100
AcDbSymbolTableRecord
100
AcDbLayerTableRecord
  2
G2-
 70
     0
 62
    92
  6
CONTINUOUS
370
    -3
390
5C
  0
LAYER
  5
2C
102
{ACAD_XDICTIONARY
360
A77
102
}
330
3
100
AcDbSymbolTableRecord
100
AcDbLayerTableRecord
  2
G4-
 70
     0
 62
     4
  6
CONTINUOUS
370
    -3
390
5C
  0
LAYER
  5
2D
102
{ACAD_XDICTIONARY
360
A79
102
}
330
3
100
AcDbSymbolTableRecord
100
AcDbLayerTableRecord
  2
G3-
 70
     0
 62
   132
  6
CONTINUOUS
370
    -3
390
5C
  0
LAYER
  5
2E
102
{ACAD_XDICTIONARY
360
A7B
102
}
330
3
100
AcDbSymbolTableRecord
100
AcDbLayerTableRecord
  2
G5-
 70
     0
 62
   212
  6
CONTINUOUS
370
    -3
390
5C
  0
LAYER
  5
2F
102
{ACAD_XDICTIONARY
360
A7D
102
}
330
3
100
AcDbSymbolTableRecord
100
AcDbLayerTableRecord
  2
NO-
 70
     0
 62
     6
  6
CONTINUOUS
370
    -3
390
5C
  0
LAYER
  5
30
102
{ACAD_XDICTIONARY
360
A7F
102
}
330
3
100
AcDbSymbolTableRecord
100
AcDbLayerTableRecord
  2
QU-
 70
     0
 62
     7
  6
CONTINUOUS
370
    -3
390
5C
  0
LAYER
  5
31
102
{ACAD_XDICTIONARY
360
A81
102
}
330
3
100
AcDbSymbolTableRecord
100
AcDbLayerTableRecord
  2
FO-
 70
     0
 62
    12
  6
CONTINUOUS
370
    -3
390
5C
  0
LAYER
  5
32
102
{ACAD_XDICTIONARY
360
A83
102
}
330
3
100
AcDbSymbolTableRecord
100
AcDbLayerTableRecord
  2
MA-
 70
     0
 62
     7
  6
CONTINUOUS
370
    -3
390
5C
  0
LAYER
  5
33
330
3
100
AcDbSymbolTableRecord
100
AcDbLayerTableRecord
  2
DEFPOINTS
 70
     0
 62
    12
  6
CONTINUOUS
290
     0
370
    -3
390
5C
  0
LAYER
  5
34
102
{ACAD_XDICTIONARY
360
A85
102
}
330
3
100
AcDbSymbolTableRecord
100
AcDbLayerTableRecord
  2
SI-
 70
     0
 62
    12
  6
CONTINUOUS
370
    -3
390
5C
  0
LAYER
  5
35
102
{ACAD_XDICTIONARY
360
A87
102
}
330
3
100
AcDbSymbolTableRecord
100
AcDbLayerTableRecord
  2
G6-
 70
     0
 62
   171
  6
CONTINUOUS
370
    -3
390
5C
  0
LAYER
  5
345
102
{ACAD_XDICTIONARY
360
A89
102
}
330
3
100
AcDbSymbolTableRecord
100
AcDbLayerTableRecord
  2
7
 70
     0
 62
     1
  6
CONTINUOUS
370
     0
390
5C
  0
LAYER
  5
1BA5
330
3
100
AcDbSymbolTableRecord
100
AcDbLayerTableRecord
  2
AM_6
 70
     0
 62
     6
  6
CONTINUOUS
370
    -3
390
5C
  0
LAYER
  5
1BA6
330
3
100
AcDbSymbolTableRecord
100
AcDbLayerTableRecord
  2
AM_0
 70
     0
 62
     7
  6
CONTINUOUS
370
    15
390
5C
  0
LAYER
  5
1BA7
330
3
100
AcDbSymbolTableRecord
100
AcDbLayerTableRecord
  2
linee
 70
     0
 62
     7
  6
CONTINUOUS
370
    35
390
5C
1001
AcAecLayerStandard
1000

1000

1001
AcCmTransparency
1071
        0
  0
LAYER
  5
283C
330
3
100
AcDbSymbolTableRecord
100
AcDbLayerTableRecord
  2
AM_8
 70
     0
 62
     9
  6
CONTINUOUS
370
    -3
390
5C
  0
ENDTAB
  0
TABLE
  2
STYLE
  5
4
330
0
100
AcDbSymbolTable
 70
     3
  0
STYLE
  5
11
330
4
100
AcDbSymbolTableRecord
100
AcDbTextStyleTableRecord
  2
STANDARD
 70
     0
 40
0.0
 41
1.0
 50
0.0
 71
     0
 42
3.5
  3
arial.ttf
  4

1001
ACAD
1000
Arial
1071
       34
  0
STYLE
  5
1BA8
330
4
100
AcDbSymbolTableRecord
100
AcDbTextStyleTableRecord
  2
SLDTEXTSTYLE0
 70
     0
 40
0.0
 41
0.75
 50
0.0
 71
     0
 42
0.2
  3
TXT
  4

  0
STYLE
  5
1BA9
330
4
100
AcDbSymbolTableRecord
100
AcDbTextStyleTableRecord
  2
SLDTEXTSTYLE1
 70
     0
 40
0.0
 41
0.96
 50
0.0
 71
     0
 42
0.2
  3
ISOCP
  4

  0
ENDTAB
  0
TABLE
  2
VIEW
  5
7
330
0
100
AcDbSymbolTable
 70
     0
  0
ENDTAB
  0
TABLE
  2
UCS
  5
8
330
0
100
AcDbSymbolTable
 70
     0
  0
ENDTAB
  0
TABLE
  2
APPID
  5
A
330
0
100
AcDbSymbolTable
 70
    22
  0
APPID
  5
12
330
A
100
AcDbSymbolTableRecord
100
AcDbRegAppTableRecord
  2
ACAD
 70
     0
  0
APPID
  5
52
330
A
100
AcDbSymbolTableRecord
100
AcDbRegAppTableRecord
  2
CONTENTTABDATA
 70
     0
  0
APPID
  5
53
330
A
100
AcDbSymbolTableRecord
100
AcDbRegAppTableRecord
  2
CONTENTCURRENTTAB
 70
     0
  0
APPID
  5
A1
330
A
100
AcDbSymbolTableRecord
100
AcDbRegAppTableRecord
  2
ACAD_DSTYLE_DIMTEXT_FILL
 70
     0
  0
APPID
  5
143
330
A
100
AcDbSymbolTableRecord
100
AcDbRegAppTableRecord
  2
AcadAnnoPO
 70
     0
  0
APPID
  5
14D
330
A
100
AcDbSymbolTableRecord
100
AcDbRegAppTableRecord
  2
ACAD_NAV_VCDISPLAY
 70
     0
  0
APPID
  5
15C
330
A
100
AcDbSymbolTableRecord
100
AcDbRegAppTableRecord
  2
ACAD_DSTYLE_DIMJAG
 70
     0
  0
APPID
  5
15D
330
A
100
AcDbSymbolTableRecord
100
AcDbRegAppTableRecord
  2
ACAD_DSTYLE_DIMTALN
 70
     0
  0
APPID
  5
346
330
A
100
AcDbSymbolTableRecord
100
AcDbRegAppTableRecord
  2
AcDbDynamicBlockGUID
 70
     0
  0
APPID
  5
B6A
330
A
100
AcDbSymbolTableRecord
100
AcDbRegAppTableRecord
  2
AcadAnnotative
 70
     0
  0
APPID
  5
B8F
330
A
100
AcDbSymbolTableRecord
100
AcDbRegAppTableRecord
  2
ACAUTHENVIRON
 70
     0
  0
APPID
  5
BCF
330
A
100
AcDbSymbolTableRecord
100
AcDbRegAppTableRecord
  2
ACAD_DSTYLE_DIMRADIAL_EXTENSION
 70
     0
  0
APPID
  5
D42
330
A
100
AcDbSymbolTableRecord
100
AcDbRegAppTableRecord
  2
AcDbDynamicBlockTrueName
 70
     0
  0
APPID
  5
D44
330
A
100
AcDbSymbolTableRecord
100
AcDbRegAppTableRecord
  2
ACAD_EXEMPT_FROM_CAD_STANDARDS
 70
     0
  0
APPID
  5
DB2
330
A
100
AcDbSymbolTableRecord
100
AcDbRegAppTableRecord
  2
AcadAnnoMonitorAlertIconDisabled
 70
     0
  0
APPID
  5
14E7
330
A
100
AcDbSymbolTableRecord
100
AcDbRegAppTableRecord
  2
GradientColor1ACI
 70
     0
  0
APPID
  5
14E8
330
A
100
AcDbSymbolTableRecord
100
AcDbRegAppTableRecord
  2
GradientColor2ACI
 70
     0
  0
APPID
  5
1BAB
330
A
100
AcDbSymbolTableRecord
100
AcDbRegAppTableRecord
  2
ACAD_PSEXT
 70
     0
  0
APPID
  5
1BAC
330
A
100
AcDbSymbolTableRecord
100
AcDbRegAppTableRecord
  2
AcAecLayerStandard
 70
     0
  0
APPID
  5
1BAD
330
A
100
AcDbSymbolTableRecord
100
AcDbRegAppTableRecord
  2
AcCmTransparency
 70
     0
  0
APPID
  5
26ED
330
A
100
AcDbSymbolTableRecord
100
AcDbRegAppTableRecord
  2
AcadAnnotativeDecomposition
 70
     0
  0
APPID
  5
2738
330
A
100
AcDbSymbolTableRecord
100
AcDbRegAppTableRecord
  2
ACAD_MLEADERVER
 70
     0
  0
ENDTAB
  0
TABLE
  2
DIMSTYLE
  5
B
330
0
100
AcDbSymbolTable
 70
     2
100
AcDbDimStyleTable
  0
DIMSTYLE
105
3A
330
B
100
AcDbSymbolTableRecord
100
AcDbDimStyleTableRecord
  2
STANDARD
 70
     0
178
     0
340
11
  0
DIMSTYLE
105
1BAA
330
B
100
AcDbSymbolTableRecord
100
AcDbDimStyleTableRecord
  2
ISO-25
 70
     0
 41
2.5
 42
0.625
 43
3.75
 44
1.25
 73
     0
 74
     0
 77
     1
 78
     8
140
2.5
141
2.5
143
0.03937007874016
147
0.625
171
     3
172
     1
178
     0
271
     2
272
     2
274
     3
278
    44
283
     0
284
     8
340
11
  0
ENDTAB
  0
TABLE
  2
BLOCK_RECORD
  5
2
330
0
100
AcDbSymbolTable
 70
    56
  0
BLOCK_RECORD
  5
19
102
{ACAD_XDICTIONARY
360
D4D
102
}
330
2
100
AcDbSymbolTableRecord
100
AcDbBlockTableRecord
  2
*MODEL_SPACE
340
5F
  0
BLOCK_RECORD
  5
16
330
2
100
AcDbSymbolTableRecord
100
AcDbBlockTableRecord
  2
*PAPER_SPACE
340
60
  0
BLOCK_RECORD
  5
188
102
{ACAD_XDICTIONARY
360
189
102
}
330
2
100
AcDbSymbolTableRecord
100
AcDbBlockTableRecord
  2
884
340
0
310
2800000020000000200000000100080000000000000400000000000000000000000000000000000000000000000080000080000000808000800000008000800080800000C0C0C000C0DCC000F0CAA6000020400000206000002080000020A0000020C0000020E00000400000004020000040400000406000004080000040A0
310
000040C0000040E00000600000006020000060400000606000006080000060A0000060C0000060E00000800000008020000080400000806000008080000080A0000080C0000080E00000A0000000A0200000A0400000A0600000A0800000A0A00000A0C00000A0E00000C0000000C0200000C0400000C0600000C0800000C0
310
A00000C0C00000C0E00000E0000000E0200000E0400000E0600000E0800000E0A00000E0C00000E0E00040000000400020004000400040006000400080004000A0004000C0004000E00040200000402020004020400040206000402080004020A0004020C0004020E000404000004040200040404000404060004040800040
310
40A0004040C0004040E00040600000406020004060400040606000406080004060A0004060C0004060E00040800000408020004080400040806000408080004080A0004080C0004080E00040A0000040A0200040A0400040A0600040A0800040A0A00040A0C00040A0E00040C0000040C0200040C0400040C0600040C08000
310
40C0A00040C0C00040C0E00040E0000040E0200040E0400040E0600040E0800040E0A00040E0C00040E0E00080000000800020008000400080006000800080008000A0008000C0008000E00080200000802020008020400080206000802080008020A0008020C0008020E00080400000804020008040400080406000804080
310
008040A0008040C0008040E00080600000806020008060400080606000806080008060A0008060C0008060E00080800000808020008080400080806000808080008080A0008080C0008080E00080A0000080A0200080A0400080A0600080A0800080A0A00080A0C00080A0E00080C0000080C0200080C0400080C0600080C0
310
800080C0A00080C0C00080C0E00080E0000080E0200080E0400080E0600080E0800080E0A00080E0C00080E0E000C0000000C0002000C0004000C0006000C0008000C000A000C000C000C000E000C0200000C0202000C0204000C0206000C0208000C020A000C020C000C020E000C0400000C0402000C0404000C0406000C0
310
408000C040A000C040C000C040E000C0600000C0602000C0604000C0606000C0608000C060A000C060C000C060E000C0800000C0802000C0804000C0806000C0808000C080A000C080C000C080E000C0A00000C0A02000C0A04000C0A06000C0A08000C0A0A000C0A0C000C0A0E000C0C00000C0C02000C0C04000C0C06000
310
C0C08000C0C0A000F0FBFF00A4A0A000808080000000FF0000FF000000FFFF00FF000000FF00FF00FFFF0000FFFFFF0049494949494949494949494949494949494949494949494949494949494949494949494949494949494949494949494949494949494949494949494949494949494949494949494949494949494949
310
49494949494949494949494949494949494949494949494949494949494949494949494949494949494949494949494949494949494949494949494949494949494949494949494949494949494949494949494949494949494949494949494949494949494949494949494949494949494949494949494949494949494949
310
49494949494949494949494949494949494949494949494949494949494949494949494949494949494949494949494949494949494949494949494949494949494949494949494949494949494949494949494949494949494949494949494949494949494949494949494949494949494949494949494949494949494949
310
494949494949494949494949494949494949494949494949494949494949494949494949494949494949494949494949494949494949494949494949494949494949494949494949494949494949494949F9494949FEFEFEFEFEFEFEFEFEFEFEFEFEFEFEFEFEFEFEFEFEFEFEFEFEFEFEF9494949FE49494949494949494949
310
4949494949494949494949494949494949F9494949FEFEFEFEFEFEFEFEFEFEFEFEFEFEFEFEFEFEFEFEFEFEFEFEFEFEFEFEF9494949FEFEFEFEFEFEFEFEFEFEFEFEFEFEFEFEFEFEFEFEFEFEFEFEFEFEFEFEF9F94949FE49494949494949494949494949494949494949494949494949494949F9494949FEFEFEFEFEFEFEFEFE
310
FEFEFEFEFEFEFEFEFEFEFEFEFEFEFEFEFEFEF949494949494949494949494949494949494949494949494949494949494949F949494949494949494949494949494949494949494949494949494949494949494949494949494949494949494949494949494949494949494949494949494949494949494949494949494949
310
49494949494949494949494949494949494949494949494949494949494949494949494949494949494949494949494949494949494949494949494949494949494949494949494949494949494949494949494949494949494949494949494949494949494949494949494949494949494949494949494949494949494949
310
49494949494949494949494949494949494949494949494949494949494949494949494949494949494949494949494949494949494949494949494949494949494949494949494949494949494949494949494949494949494949494949494949494949494949494949494949494949494949494949494949494949494949
310
4949494949494949494949494949494949494949494949494949494949494949494949494949494949494949494949494949494949494949
1001
AcDbDynamicBlockGUID
1000
{1B061748-CAE1-4089-81A9-962AE150C250}
  0
BLOCK_RECORD
  5
1A2
102
{ACAD_XDICTIONARY
360
1A3
102
}
330
2
100
AcDbSymbolTableRecord
100
AcDbBlockTableRecord
  2
perno
340
0
310
2800000020000000200000000100080000000000000400000000000000000000000000000000000000000000000080000080000000808000800000008000800080800000C0C0C000C0DCC000F0CAA6000020400000206000002080000020A0000020C0000020E00000400000004020000040400000406000004080000040A0
310
000040C0000040E00000600000006020000060400000606000006080000060A0000060C0000060E00000800000008020000080400000806000008080000080A0000080C0000080E00000A0000000A0200000A0400000A0600000A0800000A0A00000A0C00000A0E00000C0000000C0200000C0400000C0600000C0800000C0
310
A00000C0C00000C0E00000E0000000E0200000E0400000E0600000E0800000E0A00000E0C00000E0E00040000000400020004000400040006000400080004000A0004000C0004000E00040200000402020004020400040206000402080004020A0004020C0004020E000404000004040200040404000404060004040800040
310
40A0004040C0004040E00040600000406020004060400040606000406080004060A0004060C0004060E00040800000408020004080400040806000408080004080A0004080C0004080E00040A0000040A0200040A0400040A0600040A0800040A0A00040A0C00040A0E00040C0000040C0200040C0400040C0600040C08000
310
40C0A00040C0C00040C0E00040E0000040E0200040E0400040E0600040E0800040E0A00040E0C00040E0E00080000000800020008000400080006000800080008000A0008000C0008000E00080200000802020008020400080206000802080008020A0008020C0008020E00080400000804020008040400080406000804080
310
008040A0008040C0008040E00080600000806020008060400080606000806080008060A0008060C0008060E00080800000808020008080400080806000808080008080A0008080C0008080E00080A0000080A0200080A0400080A0600080A0800080A0A00080A0C00080A0E00080C0000080C0200080C0400080C0600080C0
310
800080C0A00080C0C00080C0E00080E0000080E0200080E0400080E0600080E0800080E0A00080E0C00080E0E000C0000000C0002000C0004000C0006000C0008000C000A000C000C000C000E000C0200000C0202000C0204000C0206000C0208000C020A000C020C000C020E000C0400000C0402000C0404000C0406000C0
310
408000C040A000C040C000C040E000C0600000C0602000C0604000C0606000C0608000C060A000C060C000C060E000C0800000C0802000C0804000C0806000C0808000C080A000C080C000C080E000C0A00000C0A02000C0A04000C0A06000C0A08000C0A0A000C0A0C000C0A0E000C0C00000C0C02000C0C04000C0C06000
310
C0C08000C0C0A000F0FBFF00A4A0A000808080000000FF0000FF000000FFFF00FF000000FF00FF00FFFF0000FFFFFF0049494949494949494949494949494949494949494949494949494949494949494949494949494949494949494949494949494949494949494949494949494949494949494949494949494949494949
310
FA49494949494949494949494949494949494949494949494949494949494949FA49494949494949494949494949494949494949494949494949494949494949FA49494949494949494949494949494949494949494949494949494949494949FA494949494949494949494949494949494949494949494949494949494949
310
49FA4949494949494949494949494949494949494949494949494949494949E4E4FAE4E4E4494949494949494949494949494949494949494949494949E4E44949FA494949E4E4E44949494949494949494949494949494949494949E449494949FA494949494949E4494949494949494949494949494949494949E4494949
310
4949FA49494949494949E449494949494949494949494949494949E4F9494949E4E4E4E4E4E44949494949E4E44949494949494949494949494949E4494949E44949FA494949E4494949494949E4494949494949494949494949E449494949E44949FA494949E449494949494949E44949494949494949494949E4494949E4
310
494949FA49494949E4494949494949E44949494949494949494949E4494949E4494949FA49494949E4494949494949E44949494949FAFAFAFAFAFAFAFAFAE4FAFAFAFAFAFAFAFAFAFAE4FAFAFAFAFAFAFAFAFA4949494949494949E4494949E4494949FA49494949E4494949494949E44949494949494949494949E4494949
310
49E44949FA49494949E4494949494949E4494949494949494949494949E4494949E44949FA494949E4494949494949E449494949494949494949494949E449494949E4E4E4E4E4E449494949494949E449494949494949494949494949E4494949494949FA494949494949494949E4494949494949494949494949494949E4
310
4949494949FA49494949494949E4E44949494949494949494949494949494949E4E4494949FA4949494949E4E4494949494949494949494949494949494949494949E4E4E4E4E4E4E4E4E44949494949494949494949494949494949494949494949494949FA49494949494949494949494949494949494949494949494949
310
494949494949FA49494949494949494949494949494949494949494949494949494949494949FA49494949494949494949494949494949494949494949494949494949494949FA49494949494949494949494949494949494949494949494949494949494949FA494949494949494949494949494949494949494949494949
310
4949494949494949494949494949494949494949494949494949494949494949494949494949494949494949494949494949494949494949
1001
AcDbDynamicBlockGUID
1000
{B4287258-4071-4AAB-9879-AE4C44910091}
  0
BLOCK_RECORD
  5
207
330
2
100
AcDbSymbolTableRecord
100
AcDbBlockTableRecord
  2
profilo
340
0
310
2800000020000000200000000100080000000000000400000000000000000000000000000000000000000000000080000080000000808000800000008000800080800000C0C0C000C0DCC000F0CAA6000020400000206000002080000020A0000020C0000020E00000400000004020000040400000406000004080000040A0
310
000040C0000040E00000600000006020000060400000606000006080000060A0000060C0000060E00000800000008020000080400000806000008080000080A0000080C0000080E00000A0000000A0200000A0400000A0600000A0800000A0A00000A0C00000A0E00000C0000000C0200000C0400000C0600000C0800000C0
310
A00000C0C00000C0E00000E0000000E0200000E0400000E0600000E0800000E0A00000E0C00000E0E00040000000400020004000400040006000400080004000A0004000C0004000E00040200000402020004020400040206000402080004020A0004020C0004020E000404000004040200040404000404060004040800040
310
40A0004040C0004040E00040600000406020004060400040606000406080004060A0004060C0004060E00040800000408020004080400040806000408080004080A0004080C0004080E00040A0000040A0200040A0400040A0600040A0800040A0A00040A0C00040A0E00040C0000040C0200040C0400040C0600040C08000
310
40C0A00040C0C00040C0E00040E0000040E0200040E0400040E0600040E0800040E0A00040E0C00040E0E00080000000800020008000400080006000800080008000A0008000C0008000E00080200000802020008020400080206000802080008020A0008020C0008020E00080400000804020008040400080406000804080
310
008040A0008040C0008040E00080600000806020008060400080606000806080008060A0008060C0008060E00080800000808020008080400080806000808080008080A0008080C0008080E00080A0000080A0200080A0400080A0600080A0800080A0A00080A0C00080A0E00080C0000080C0200080C0400080C0600080C0
310
800080C0A00080C0C00080C0E00080E0000080E0200080E0400080E0600080E0800080E0A00080E0C00080E0E000C0000000C0002000C0004000C0006000C0008000C000A000C000C000C000E000C0200000C0202000C0204000C0206000C0208000C020A000C020C000C020E000C0400000C0402000C0404000C0406000C0
310
408000C040A000C040C000C040E000C0600000C0602000C0604000C0606000C0608000C060A000C060C000C060E000C0800000C0802000C0804000C0806000C0808000C080A000C080C000C080E000C0A00000C0A02000C0A04000C0A06000C0A08000C0A0A000C0A0C000C0A0E000C0C00000C0C02000C0C04000C0C06000
310
C0C08000C0C0A000F0FBFF00A4A0A000808080000000FF0000FF000000FFFF00FF000000FF00FF00FFFF0000FFFFFF0049494949494949494949494949494949494949494949494949494949494949494949494949494949494949494949494949494949494949494949494949494949494949494949494949494949494949
310
4949494949494949494949494949494949494949494949494949494949494949494949494949494949494949494949494949F9F9F94949494949494949494949494949494949494949494949494949494949F94949F9F9F94949494949494949494949494949494949494949494949494949F9F9F9F949F9F9F9F949494949
310
4949494949494949494949494949494949494949F9F9F9F9F949F9F9F9F9F9494949494949494949494949494949494949494949F9F9F9F949F94949F9F9F9F9F9F9494949494949494949494949494949494949F9F9F949F9F9F94949F94949F9F9F9F9F9494949494949494949494949494949F94949494949F9F9F94949
310
4949F9F9F949F9F9F9494949494949494949494949F94949494949F949F949494949F9F949F9F9F9F9F9F9F9494949494949494949F949494949F9F9F9F9F9F949F9F949494949F9F9F9F9F9F9F9F9494949494949F94949F9F949F9494949F9F9F9F9F9F94949F9F949F9F9F9F9F9F9F9F9494949F949F949F949F9494949
310
49F9F9F9F9F9F9F9F9F9F9F9F9F9F9F9F9F9F9494949F9F949F9F9F94949494949494949494949F9F9F9F9F9F9F9F9F9F9F9F9494949F949F949F9F9F949494949494949494949494949494949494949494949494949F9F9F949F9F9F949494949494949494949494949494949494949494949494949F9494949F9F9494949
310
4949494949494949494949494949494949494949494949F9494949F9F94949494949494949494949494949494949494949494949494949F9494949F9F94949494949494949494949494949494949494949494949494949F9F9F949F9F94949494949494949494949494949494949494949494949494949F9F949F9F9F9F949
310
49F9F9494949494949494949494949494949494949494949F9F9F9F949F9F9F9F9F9F9F9F9F9F9F949494949494949494949494949494949F9F9F949F9F949F9F9F949F9F9F9F9F94949494949494949494949494949494949F9F9F9F9F9F949F9F9F949F9F9F9F94949494949494949494949494949494949F9F94949F9F9
310
F9F9F9F9F9494949494949494949494949494949494949494949F9F9F9F949494949494949494949494949494949494949494949494949494949494949494949494949494949494949494949494949494949494949494949494949494949494949494949494949494949494949494949494949494949494949494949494949
310
4949494949494949494949494949494949494949494949494949494949494949494949494949494949494949494949494949494949494949
1001
AcDbDynamicBlockGUID
1000
{6774AFCF-ADBA-4386-BFD1-73661A4F39EC}
  0
BLOCK_RECORD
  5
32C
330
2
100
AcDbSymbolTableRecord
100
AcDbBlockTableRecord
  2
profilo_tappo
340
0
310
2800000020000000200000000100080000000000000400000000000000000000000000000000000000000000000080000080000000808000800000008000800080800000C0C0C000C0DCC000F0CAA6000020400000206000002080000020A0000020C0000020E00000400000004020000040400000406000004080000040A0
310
000040C0000040E00000600000006020000060400000606000006080000060A0000060C0000060E00000800000008020000080400000806000008080000080A0000080C0000080E00000A0000000A0200000A0400000A0600000A0800000A0A00000A0C00000A0E00000C0000000C0200000C0400000C0600000C0800000C0
310
A00000C0C00000C0E00000E0000000E0200000E0400000E0600000E0800000E0A00000E0C00000E0E00040000000400020004000400040006000400080004000A0004000C0004000E00040200000402020004020400040206000402080004020A0004020C0004020E000404000004040200040404000404060004040800040
310
40A0004040C0004040E00040600000406020004060400040606000406080004060A0004060C0004060E00040800000408020004080400040806000408080004080A0004080C0004080E00040A0000040A0200040A0400040A0600040A0800040A0A00040A0C00040A0E00040C0000040C0200040C0400040C0600040C08000
310
40C0A00040C0C00040C0E00040E0000040E0200040E0400040E0600040E0800040E0A00040E0C00040E0E00080000000800020008000400080006000800080008000A0008000C0008000E00080200000802020008020400080206000802080008020A0008020C0008020E00080400000804020008040400080406000804080
310
008040A0008040C0008040E00080600000806020008060400080606000806080008060A0008060C0008060E00080800000808020008080400080806000808080008080A0008080C0008080E00080A0000080A0200080A0400080A0600080A0800080A0A00080A0C00080A0E00080C0000080C0200080C0400080C0600080C0
310
800080C0A00080C0C00080C0E00080E0000080E0200080E0400080E0600080E0800080E0A00080E0C00080E0E000C0000000C0002000C0004000C0006000C0008000C000A000C000C000C000E000C0200000C0202000C0204000C0206000C0208000C020A000C020C000C020E000C0400000C0402000C0404000C0406000C0
310
408000C040A000C040C000C040E000C0600000C0602000C0604000C0606000C0608000C060A000C060C000C060E000C0800000C0802000C0804000C0806000C0808000C080A000C080C000C080E000C0A00000C0A02000C0A04000C0A06000C0A08000C0A0A000C0A0C000C0A0E000C0C00000C0C02000C0C04000C0C06000
310
C0C08000C0C0A000F0FBFF00A4A0A000808080000000FF0000FF000000FFFF00FF000000FF00FF00FFFF0000FFFFFF0049494949494949494949494949494949494949494949494949494949494949494949494949494949494949494949494949492849494949494949494949494949494949494949494949494949494949
310
49492828494949494949494949494949494949494949494949494949494949494949282849494949494949494949494949494949494949494949494949494928492849284949494949494949494949494949494949494949494949494949282828284928494949494949494949494949494949494949494949494949494928
310
49494949284949494949494949494949494949494949494949494949494949284949494928494949494949494949494949494949494949494949494949494949282828282849494949494949494949494949494949494949494949494949494949494928284949494949494949494949494949494949494949494949494949
310
49494949282849494949494949494949494949494949494949494949494949494949494928284949494949494949494949494949494949494949494949494949494949492828494949494949494949494949494949494949494949494949494949494949282849494949494949494949494949494949494949494949494949
310
49494949492828494949494949494949494949494949494949494949494949494949494949282849494949494949494949494949494949494949494949494949494949494928492849494949494949494949494949494949494949494949494949494949492849284949494949494949494949494949494949494949494949
310
49494949494928492849494949494949494949494949494949494949494949494949494949492849284949494949494949494949494949494949494949494949494949494949284928494949494949494949494949494949494949494949494949494949494928492849494949494949494949494949494949494949494949
310
49494949494949284928494949494949494949494949494949494949494949494949494949494928492849494949494949494949494949494949494949494949494949494949492849284949494949494949494949494949494949494949494949494949494949284928494949494949494949494949494949494949494949
310
49494928282828282849284949494949494949494949494949494949494949494949492849494949494928494949494949494949494949494949494949494949494949284949494949492849494949494949494949494949494949494949494949494949282849492828284949494949494949494949494949494949494949
310
4949494949494928282849494949494949494949494949494949494949494949494949494949494949494949494949494949494949494949
  0
BLOCK_RECORD
  5
ADB
330
2
100
AcDbSymbolTableRecord
100
AcDbBlockTableRecord
  2
*D16
340
0
  0
BLOCK_RECORD
  5
AE7
330
2
100
AcDbSymbolTableRecord
100
AcDbBlockTableRecord
  2
*D17
340
0
  0
BLOCK_RECORD
  5
AF3
330
2
100
AcDbSymbolTableRecord
100
AcDbBlockTableRecord
  2
A$C374A0DAF
340
0
  0
BLOCK_RECORD
  5
B69
102
{ACAD_XDICTIONARY
360
273B
102
}
330
2
100
AcDbSymbolTableRecord
100
AcDbBlockTableRecord
  2
tappo
340
0
310
2800000020000000200000000100080000000000000400000000000000000000000000000000000000000000000080000080000000808000800000008000800080800000C0C0C000C0DCC000F0CAA6000020400000206000002080000020A0000020C0000020E00000400000004020000040400000406000004080000040A0
310
000040C0000040E00000600000006020000060400000606000006080000060A0000060C0000060E00000800000008020000080400000806000008080000080A0000080C0000080E00000A0000000A0200000A0400000A0600000A0800000A0A00000A0C00000A0E00000C0000000C0200000C0400000C0600000C0800000C0
310
A00000C0C00000C0E00000E0000000E0200000E0400000E0600000E0800000E0A00000E0C00000E0E00040000000400020004000400040006000400080004000A0004000C0004000E00040200000402020004020400040206000402080004020A0004020C0004020E000404000004040200040404000404060004040800040
310
40A0004040C0004040E00040600000406020004060400040606000406080004060A0004060C0004060E00040800000408020004080400040806000408080004080A0004080C0004080E00040A0000040A0200040A0400040A0600040A0800040A0A00040A0C00040A0E00040C0000040C0200040C0400040C0600040C08000
310
40C0A00040C0C00040C0E00040E0000040E0200040E0400040E0600040E0800040E0A00040E0C00040E0E00080000000800020008000400080006000800080008000A0008000C0008000E00080200000802020008020400080206000802080008020A0008020C0008020E00080400000804020008040400080406000804080
310
008040A0008040C0008040E00080600000806020008060400080606000806080008060A0008060C0008060E00080800000808020008080400080806000808080008080A0008080C0008080E00080A0000080A0200080A0400080A0600080A0800080A0A00080A0C00080A0E00080C0000080C0200080C0400080C0600080C0
310
800080C0A00080C0C00080C0E00080E0000080E0200080E0400080E0600080E0800080E0A00080E0C00080E0E000C0000000C0002000C0004000C0006000C0008000C000A000C000C000C000E000C0200000C0202000C0204000C0206000C0208000C020A000C020C000C020E000C0400000C0402000C0404000C0406000C0
310
408000C040A000C040C000C040E000C0600000C0602000C0604000C0606000C0608000C060A000C060C000C060E000C0800000C0802000C0804000C0806000C0808000C080A000C080C000C080E000C0A00000C0A02000C0A04000C0A06000C0A08000C0A0A000C0A0C000C0A0E000C0C00000C0C02000C0C04000C0C06000
310
C0C08000C0C0A000F0FBFF00A4A0A000808080000000FF0000FF000000FFFF00FF000000FF00FF00FFFF0000FFFFFF0049494949494949494949494949494949494949494949494949494949494949494949494949494949494949494949494949494949494949494949494949494949494949494949494949494949494949
310
49494949494949494949494949494949494949494949494949494949494949494949494949494949494949494949494949490D0D0D49494949494949494949494949494949494949494949494949494949490D49490D0D0D49494949494949494949494949494949494949494949494949490D49494949490D0D0D49494949
310
494949494949494949494949494949494949490D49494949494949490D0D0D49494949494949494949494949494949494949490D49494949494949494949490D0D0D49494949494949494949494949494949490D49494949494949494949494949490D0D0D49494949494949494949494949490D4949494949494949494949
310
4949494949490D0D0D49494949494949494949490D49494949494949494949494949494949494949490D0D0D49494949494949490D49494949494949494949494949494949494949494949490D0D0D49494949490D49494949494949494949494949494949494949494949494949490D0D0D49490D49494949494949494949
310
4949494949494949494949494949494949490D49490D494949494949494949494949494949494949494949494949494949490D49490D4949494949494949494949494949490D0D0D0D0D0D0D0D0D0D0D0D0D0D49490D4949494949494949494949494949490D4949494949494949494949494949490D494949494949494949
310
4949494949490D4949494949494949494949494949490D4949494949494949494949494949490D4949494949494949494949494949490D4949494949494949494949494949490D4949494949494949494949494949490D4949494949494949494949494949490D4949494949494949494949494949490D4949494949494949
310
494949494949490D4949494949494949494949494949490D4949494949494949494949494949490D4949494949494949494949494949490D4949494949494949494949494949490D4949494949494949494949494949490D49494949494949494949490D0D0D0D0D4949494949494949494949494949490D49494949490D0D
310
0D0D0D0D49494949494949494949494949494949494949490D0D0D0D0D0D49494949494949494949494949494949494949494949494949494949494949494949494949494949494949494949494949494949494949494949494949494949494949494949494949494949494949494949494949494949494949494949494949
310
4949494949494949494949494949494949494949494949494949494949494949494949494949494949494949494949494949494949494949
1001
AcadAnnotative
1000
AnnotativeData
1002
{
1070
     1
1070
     1
1002
}
  0
BLOCK_RECORD
  5
1B2E
330
2
100
AcDbSymbolTableRecord
100
AcDbBlockTableRecord
  2
Cartiglio_LOGLI
340
0
102
{BLKREFS
331
1C75
331
3021
102
}
  0
BLOCK_RECORD
  5
1B80
330
2
100
AcDbSymbolTableRecord
100
AcDbBlockTableRecord
  2
SW_NOTE_0
340
0
102
{BLKREFS
331
1B65
102
}
1001
AcDbDynamicBlockGUID
1000
{E477D3B6-8204-4B30-8B2E-F3720012AEB5}
  0
BLOCK_RECORD
  5
1B86
330
2
100
AcDbSymbolTableRecord
100
AcDbBlockTableRecord
  2
SW_NOTE_1
340
0
102
{BLKREFS
331
1B6A
102
}
1001
AcDbDynamicBlockGUID
1000
{D48FFB42-9C71-4917-831E-715CC5C37FAA}
  0
BLOCK_RECORD
  5
1B8C
330
2
100
AcDbSymbolTableRecord
100
AcDbBlockTableRecord
  2
logo_lm_pieno
340
0
102
{BLKREFS
331
1B7E
102
}
1001
AcDbDynamicBlockGUID
1000
{18DF9455-EA51-4F8B-8207-9DCCCCD8060D}
  0
ENDTAB
  0
ENDSEC
  0
SECTION
  2
BLOCKS
  0
BLOCK
  5
38
330
19
100
AcDbEntity
  8
0
100
AcDbBlockBegin
  2
*MODEL_SPACE
 70
     0
 10
0.0
 20
0.0
 30
0.0
  3
*MODEL_SPACE
  1
*MODEL_SPACE
  0
ENDBLK
  5
39
330
19
100
AcDbEntity
  8
0
100
AcDbBlockEnd
  0
BLOCK
  5
36
330
16
100
AcDbEntity
 67
     1
  8
0
100
AcDbBlockBegin
  2
*PAPER_SPACE
 70
     0
 10
0.0
 20
0.0
 30
0.0
  3
*PAPER_SPACE
  1
*PAPER_SPACE
  0
ENDBLK
  5
37
330
16
100
AcDbEntity
 67
     1
  8
0
100
AcDbBlockEnd
  0
BLOCK
  5
18B
330
188
100
AcDbEntity
  8
0
100
AcDbBlockBegin
  2
884
 70
     0
 10
0.0
 20
0.0
 30
0.0
  3
884
  1
884
  0
LINE
  5
18C
330
188
100
AcDbEntity
  8
G4-
100
AcDbLine
 10
2210.514524894295
 20
1087.326675004138
 30
0.0
 11
2210.514524894296
 21
1092.326675004138
 31
0.0
  0
LINE
  5
18D
330
188
100
AcDbEntity
  8
G4-
100
AcDbLine
 10
2212.014524894296
 20
1085.826675004138
 30
0.0
 11
2210.514524894295
 21
1087.326675004138
 31
0.0
  0
LINE
  5
18E
330
188
100
AcDbEntity
  8
G4-
100
AcDbLine
 10
3209.014524894296
 20
1093.826675004138
 30
0.0
 11
2212.014524894296
 21
1093.826675004138
 31
0.0
  0
LINE
  5
18F
330
188
100
AcDbEntity
  8
G4-
100
AcDbLine
 10
2210.514524894296
 20
1092.326675004138
 30
0.0
 11
2212.014524894296
 21
1093.826675004138
 31
0.0
  0
LINE
  5
190
330
188
100
AcDbEntity
  8
G4-
100
AcDbLine
 10
3209.014524894297
 20
1085.826675004138
 30
0.0
 11
2212.014524894296
 21
1085.826675004138
 31
0.0
  0
LINE
  5
191
330
188
100
AcDbEntity
  8
G4-
100
AcDbLine
 10
3209.014524894296
 20
1095.346675004138
 30
0.0
 11
2212.014524894296
 21
1095.346675004138
 31
0.0
  0
LINE
  5
192
330
188
100
AcDbEntity
  8
G4-
100
AcDbLine
 10
3209.014524894294
 20
1103.346675004141
 30
0.0
 11
2212.014524894295
 21
1103.346675004138
 31
0.0
  0
LINE
  5
193
330
188
100
AcDbEntity
  8
G4-
100
AcDbLine
 10
2210.514524894295
 20
1096.846675004138
 30
0.0
 11
2210.514524894296
 21
1101.846675004138
 31
0.0
  0
LINE
  5
194
330
188
100
AcDbEntity
  8
G4-
100
AcDbLine
 10
2212.014524894296
 20
1095.346675004138
 30
0.0
 11
2210.514524894295
 21
1096.846675004138
 31
0.0
  0
LINE
  5
195
330
188
100
AcDbEntity
  8
G4-
100
AcDbLine
 10
2210.514524894296
 20
1101.846675004138
 30
0.0
 11
2212.014524894296
 21
1103.346675004138
 31
0.0
  0
LINE
  5
196
330
188
100
AcDbEntity
  8
G4-
100
AcDbLine
 10
2212.014524894296
 20
1095.346675004138
 30
0.0
 11
2212.014524894296
 21
1093.826675004138
 31
0.0
  0
LINE
  5
197
330
188
100
AcDbEntity
  8
G4-
100
AcDbLine
 10
3210.514524894296
 20
1087.326675004138
 30
0.0
 11
3210.514524894296
 21
1092.326675004138
 31
0.0
  0
LINE
  5
198
330
188
100
AcDbEntity
  8
G4-
100
AcDbLine
 10
3209.014524894296
 20
1085.826675004138
 30
0.0
 11
3210.514524894296
 21
1087.326675004138
 31
0.0
  0
LINE
  5
199
330
188
100
AcDbEntity
  8
G4-
100
AcDbLine
 10
3210.514524894296
 20
1092.326675004138
 30
0.0
 11
3209.014524894296
 21
1093.826675004138
 31
0.0
  0
LINE
  5
19A
330
188
100
AcDbEntity
  8
G4-
100
AcDbLine
 10
3210.514524894296
 20
1096.846675004138
 30
0.0
 11
3210.514524894296
 21
1101.846675004138
 31
0.0
  0
LINE
  5
19B
330
188
100
AcDbEntity
  8
G4-
100
AcDbLine
 10
3209.014524894296
 20
1095.346675004138
 30
0.0
 11
3210.514524894296
 21
1096.846675004138
 31
0.0
  0
LINE
  5
19C
330
188
100
AcDbEntity
  8
G4-
100
AcDbLine
 10
3210.514524894296
 20
1101.846675004138
 30
0.0
 11
3209.014524894295
 21
1103.346675004138
 31
0.0
  0
LINE
  5
19D
330
188
100
AcDbEntity
  8
G4-
100
AcDbLine
 10
3209.014524894296
 20
1095.346675004138
 30
0.0
 11
3209.014524894296
 21
1093.826675004138
 31
0.0
  0
LINE
  5
19E
330
188
100
AcDbEntity
  8
F1-
100
AcDbLine
 10
2219.164472194872
 20
1106.901675004214
 30
0.0
 11
2219.164472194872
 21
1103.346675004138
 31
0.0
  0
LINE
  5
19F
330
188
100
AcDbEntity
  8
F1-
100
AcDbLine
 10
2213.164472194872
 20
1106.901675004214
 30
0.0
 11
2213.164472194872
 21
1103.346675004139
 31
0.0
  0
LINE
  5
1A0
330
188
100
AcDbEntity
  8
F1-
100
AcDbLine
 10
2213.164472194872
 20
1106.901675004214
 30
0.0
 11
2219.164472194872
 21
1106.901675004201
 31
0.0
  0
ENDBLK
  5
1A1
330
188
100
AcDbEntity
  8
0
100
AcDbBlockEnd
  0
BLOCK
  5
1A5
330
1A2
100
AcDbEntity
  8
0
100
AcDbBlockBegin
  2
perno
 70
     0
 10
0.0
 20
0.0
 30
0.0
  3
perno
  1
perno
  0
ARC
  5
1A6
330
1A2
100
AcDbEntity
  8
0
100
AcDbCircle
 10
3984.254473281
 20
768.583605938657
 30
0.0
 40
8.0
100
AcDbArc
 50
89.99999999999675
 51
306.707492441864
  0
LINE
  5
1A7
330
1A2
100
AcDbEntity
  8
0
100
AcDbLine
 10
3989.03631318729
 20
762.1700260404568
 30
0.0
 11
3994.254844257211
 21
766.0608608812842
 31
0.0
  0
LINE
  5
1A8
330
1A2
100
AcDbEntity
  8
MF-
100
AcDbLine
 10
3984.254473281
 20
756.1611555856052
 30
0.0
 11
3984.254473281
 21
781.0060562917088
 31
0.0
  0
ARC
  5
1A9
330
1A2
100
AcDbEntity
  8
0
100
AcDbCircle
 10
3985.391376322043
 20
766.9491754782179
 30
0.0
 40
9.701278205565123
100
AcDbArc
 50
5.327711627825064
 51
96.73001802055435
  0
LINE
  5
1AA
330
1A2
100
AcDbEntity
  8
MF-
100
AcDbLine
 10
3971.405657059716
 20
768.583605938657
 30
0.0
 11
3997.103289502283
 21
768.583605938657
 31
0.0
  0
LWPOLYLINE
  5
1AB
330
1A2
100
AcDbEntity
  8
0
100
AcDbPolyline
 90
        6
 70
     1
 43
0.0
 10
3981.945072204241
 20
772.583605938657
 10
3979.635671127482
 20
768.583605938657
 10
3981.945072204241
 20
764.583605938657
 10
3986.563874357758
 20
764.583605938657
 10
3988.873275434516
 20
768.583605938657
 10
3986.563874357758
 20
772.583605938657
  0
ARC
  5
1AC
330
1A2
100
AcDbEntity
  8
0
100
AcDbCircle
 10
3993.059384280638
 20
767.6642558558344
 30
0.0
 40
2.0
100
AcDbArc
 50
306.7074924418766
 51
5.327711627825637
  0
ENDBLK
  5
1AD
330
1A2
100
AcDbEntity
  8
0
100
AcDbBlockEnd
  0
BLOCK
  5
208
330
207
100
AcDbEntity
  8
0
100
AcDbBlockBegin
  2
profilo
 70
     0
 10
0.0
 20
0.0
 30
0.0
  3
profilo
  1
profilo
  0
ARC
  5
1A2D
330
207
100
AcDbEntity
  8
7
  6
Continuous
 62
     1
370
     0
100
AcDbCircle
 10
17.43617799999993
 20
30.44222499999978
 30
0.0
 40
5.0
100
AcDbArc
 50
180.0
 51
204.1275179999863
  0
LINE
  5
1A2E
330
207
100
AcDbEntity
  8
7
  6
Continuous
 62
     1
370
     0
100
AcDbLine
 10
14.02929899999981
 20
25.81674199999998
 30
0.0
 11
12.87298799999917
 21
28.39838099999997
 31
0.0
  0
ARC
  5
1A2F
330
207
100
AcDbEntity
  8
7
  6
Continuous
 62
     1
370
     0
100
AcDbCircle
 10
14.25745899999856
 20
25.91893399999981
 30
0.0
 40
0.25
100
AcDbArc
 50
204.1275179999863
 51
270.0
  0
ARC
  5
1A30
330
207
100
AcDbEntity
  8
7
  6
Continuous
 62
     1
370
     0
100
AcDbCircle
 10
14.43617799999993
 20
54.92733999999973
 30
0.0
 40
2.0
100
AcDbArc
 50
90.0
 51
180.0
  0
LINE
  5
1A31
330
207
100
AcDbEntity
  8
7
  6
Continuous
 62
     1
370
     0
100
AcDbLine
 10
17.35039199999846
 20
56.92733999999973
 30
0.0
 11
23.43513999999959
 21
56.92733999999973
 31
0.0
  0
ARC
  5
1A32
330
207
100
AcDbEntity
  8
7
  6
Continuous
 62
     1
370
     0
100
AcDbCircle
 10
17.35039199999846
 20
56.42733999999973
 30
0.0
 40
0.5
100
AcDbArc
 50
90.0
 51
180.0
  0
LINE
  5
1A33
330
207
100
AcDbEntity
  8
7
  6
Continuous
 62
     1
370
     0
100
AcDbLine
 10
34.2835989999985
 20
23.84878299999991
 30
0.0
 11
27.41639599999871
 21
19.09237799999983
 31
0.0
  0
ARC
  5
1A34
330
207
100
AcDbEntity
  8
7
  6
Continuous
 62
     1
370
     0
100
AcDbCircle
 10
23.43513999999959
 20
55.92733999999973
 30
0.0
 40
1.0
100
AcDbArc
 50
87.99999999999605
 51
90.0
  0
LINE
  5
1A35
330
207
100
AcDbEntity
  8
7
  6
Continuous
 62
     1
370
     0
100
AcDbLine
 10
23.47004000000015
 20
56.92673100000002
 30
0.0
 11
27.59998199999973
 21
56.78251
 31
0.0
  0
LINE
  5
1A36
330
207
100
AcDbEntity
  8
7
  6
Continuous
 62
     1
370
     0
100
AcDbLine
 10
30.90748399999939
 20
56.66700999999966
 30
0.0
 11
42.19108799999958
 21
56.27297799999997
 31
0.0
  0
LINE
  5
1A37
330
207
100
AcDbEntity
  8
7
  6
Continuous
 62
     1
370
     0
100
AcDbLine
 10
70.85334499999954
 20
28.22475199999963
 30
0.0
 11
34.25881699999991
 21
25.43009699999993
 31
0.0
  0
ARC
  5
1A38
330
207
100
AcDbEntity
  8
7
  6
Continuous
 62
     1
370
     0
100
AcDbCircle
 10
71.23407599999882
 20
23.23926899999969
 30
0.0
 40
5.0
100
AcDbArc
 50
87.99999999999605
 51
94.36709400001298
  0
LINE
  5
1A39
330
207
100
AcDbEntity
  8
7
  6
Continuous
 62
     1
370
     0
100
AcDbLine
 10
42.19108799999958
 20
56.27297799999997
 30
0.0
 11
42.24343799999951
 21
57.77206399999977
 31
0.0
  0
LINE
  5
1A3A
330
207
100
AcDbEntity
  8
7
  6
Continuous
 62
     1
370
     0
100
AcDbLine
 10
42.24343799999951
 20
57.77206399999977
 30
0.0
 11
41.49389399999927
 21
57.79823799999986
 31
0.0
  0
LINE
  5
1A3B
330
207
100
AcDbEntity
  8
7
  6
Continuous
 62
     1
370
     0
100
AcDbLine
 10
86.22144200000002
 20
27.71894599999996
 30
0.0
 11
71.40857399999913
 21
28.23622299999988
 31
0.0
  0
LINE
  5
1A3C
330
207
100
AcDbEntity
  8
7
  6
Continuous
 62
     1
370
     0
100
AcDbLine
 10
41.49389399999927
 20
57.79823799999986
 30
0.0
 11
41.56369300000006
 21
59.79701999999997
 31
0.0
  0
LINE
  5
1A3D
330
207
100
AcDbEntity
  8
7
  6
Continuous
 62
     1
370
     0
100
AcDbLine
 10
86.16909299999861
 20
26.2198599999997
 30
0.0
 11
86.22144200000002
 21
27.71894599999996
 31
0.0
  0
ARC
  5
1A3E
330
207
100
AcDbEntity
  8
7
  6
Continuous
 62
     1
370
     0
100
AcDbCircle
 10
42.56308399999944
 20
59.76212099999975
 30
0.0
 40
1.000000000000043
100
AcDbArc
 50
87.99999999999605
 51
177.999999999996
  0
LINE
  5
1A3F
330
207
100
AcDbEntity
  8
7
  6
Continuous
 62
     1
370
     0
100
AcDbLine
 10
85.41954899999837
 20
26.24603399999978
 30
0.0
 11
86.16909299999861
 21
26.2198599999997
 31
0.0
  0
LINE
  5
1A40
330
207
100
AcDbEntity
  8
7
  6
Continuous
 62
     1
370
     0
100
AcDbLine
 10
42.597984
 20
60.7615109999997
 30
0.0
 11
45.09646099999918
 21
60.67426299999988
 31
0.0
  0
LINE
  5
1A41
330
207
100
AcDbEntity
  8
7
  6
Continuous
 62
     1
370
     0
100
AcDbLine
 10
85.3497499999994
 20
24.247253
 30
0.0
 11
85.41954899999837
 21
26.24603399999978
 31
0.0
  0
ARC
  5
1A42
330
207
100
AcDbEntity
  8
7
  6
Continuous
 62
     1
370
     0
100
AcDbCircle
 10
45.06156099999862
 20
59.67487200000005
 30
0.0
 40
1.000000000000106
100
AcDbArc
 50
357.9999999999961
 51
87.99999999999605
  0
ARC
  5
1A43
330
207
100
AcDbEntity
  8
7
  6
Continuous
 62
     1
370
     0
100
AcDbCircle
 10
86.34914099999878
 20
24.21235299999989
 30
0.0
 40
0.9999999999999782
100
AcDbArc
 50
177.999999999996
 51
267.9999999999961
  0
LINE
  5
1A44
330
207
100
AcDbEntity
  8
7
  6
Continuous
 62
     1
370
     0
100
AcDbLine
 10
46.06095199999982
 20
59.63997199999994
 30
0.0
 11
45.99115299999903
 21
57.64119099999971
 31
0.0
  0
LINE
  5
1A45
330
207
100
AcDbEntity
  8
7
  6
Continuous
 62
     1
370
     0
100
AcDbLine
 10
88.81271899999956
 20
23.12571399999979
 30
0.0
 11
86.31424199999856
 21
23.21296299999995
 31
0.0
  0
LINE
  5
1A46
330
207
100
AcDbEntity
  8
7
  6
Continuous
 62
     1
370
     0
100
AcDbLine
 10
45.99115299999903
 20
57.64119099999971
 30
0.0
 11
45.24160999999913
 21
57.66736499999979
 31
0.0
  0
ARC
  5
1A47
330
207
100
AcDbEntity
  8
7
  6
Continuous
 62
     1
370
     0
100
AcDbCircle
 10
88.84761799999978
 20
24.12510500000008
 30
0.0
 40
0.9999999999998648
100
AcDbArc
 50
267.9999999999961
 51
357.9999999999961
  0
LINE
  5
1A48
330
207
100
AcDbEntity
  8
7
  6
Continuous
 62
     1
370
     0
100
AcDbLine
 10
45.24160999999913
 20
57.66736499999979
 30
0.0
 11
45.18926099999953
 21
56.16827899999998
 31
0.0
  0
LINE
  5
1A49
330
207
100
AcDbEntity
  8
7
  6
Continuous
 62
     1
370
     0
100
AcDbLine
 10
89.91680799999995
 20
26.08898700000009
 30
0.0
 11
89.84700899999916
 21
24.09020499999997
 31
0.0
  0
LINE
  5
1A4A
330
207
100
AcDbEntity
  8
7
  6
Continuous
 62
     1
370
     0
100
AcDbLine
 10
45.18926099999953
 20
56.16827899999998
 30
0.0
 11
46.93825800000013
 21
56.10720300000003
 31
0.0
  0
LINE
  5
1A4B
330
207
100
AcDbEntity
  8
7
  6
Continuous
 62
     1
370
     0
100
AcDbLine
 10
89.16726500000004
 20
26.11516099999972
 30
0.0
 11
89.91680799999995
 21
26.08898700000009
 31
0.0
  0
ARC
  5
1A4C
330
207
100
AcDbEntity
  8
7
  6
Continuous
 62
     1
370
     0
100
AcDbCircle
 10
46.97315799999888
 20
57.10659399999986
 30
0.0
 40
1.000000000000006
100
AcDbArc
 50
267.9999999999961
 51
358.0024339999881
  0
LINE
  5
1A4D
330
207
100
AcDbEntity
  8
7
  6
Continuous
 62
     1
370
     0
100
AcDbLine
 10
89.21961399999964
 20
27.61424799999986
 30
0.0
 11
89.16726500000004
 21
26.11516099999972
 31
0.0
  0
LINE
  5
1A4E
330
207
100
AcDbEntity
  8
7
  6
Continuous
 62
     1
370
     0
100
AcDbLine
 10
47.97254999999859
 20
57.07173699999976
 30
0.0
 11
48.09925799999837
 21
60.70459099999971
 31
0.0
  0
LINE
  5
1A4F
330
207
100
AcDbEntity
  8
7
  6
Continuous
 62
     1
370
     0
100
AcDbLine
 10
91.46824399999969
 20
27.53572399999985
 30
0.0
 11
89.21961399999964
 21
27.61424799999986
 31
0.0
  0
ARC
  5
1A50
330
207
100
AcDbEntity
  8
7
  6
Continuous
 62
     1
370
     0
100
AcDbCircle
 10
45.60077699999965
 20
60.79173399999991
 30
0.0
 40
2.500000000000067
100
AcDbArc
 50
358.0024339999881
 51
80.98349800000022
  0
ARC
  5
1A51
330
207
100
AcDbEntity
  8
7
  6
Continuous
 62
     1
370
     0
100
AcDbCircle
 10
91.4507939999985
 20
27.03602799999999
 30
0.0
 40
0.500000000000034
100
AcDbArc
 50
357.9999999999961
 51
87.99999999999605
  0
LINE
  5
1A52
330
207
100
AcDbEntity
  8
7
  6
Continuous
 62
     1
370
     0
100
AcDbLine
 10
45.99257399999988
 20
63.26084199999968
 30
0.0
 11
-0.3432820000016363
 21
70.61340100000007
 31
0.0
  0
LINE
  5
1A53
330
207
100
AcDbEntity
  8
7
  6
Continuous
 62
     1
370
     0
100
AcDbLine
 10
91.85427899999922
 20
24.26347599999963
 30
0.0
 11
91.95048899999892
 21
27.01857900000005
 31
0.0
  0
ARC
  5
1A54
330
207
100
AcDbEntity
  8
7
  6
Continuous
 62
     1
370
     0
100
AcDbCircle
 10
-0.5
 20
69.62575799999968
 30
0.0
 40
0.999999999999949
100
AcDbArc
 50
80.98349800000022
 51
180.0
  0
ARC
  5
1A55
330
207
100
AcDbEntity
  8
7
  6
Continuous
 62
     1
370
     0
100
AcDbCircle
 10
89.35580200000004
 20
24.35072499999978
 30
0.0
 40
2.500000000007566
100
AcDbArc
 50
288.2248589999875
 51
357.9999999999961
  0
LINE
  5
1A56
330
207
100
AcDbEntity
  8
7
  6
Continuous
 62
     1
370
     0
100
AcDbLine
 10
-1.5
 20
69.62575799999968
 30
0.0
 11
-1.5
 21
67.59583399999974
 31
0.0
  0
LINE
  5
1A57
330
207
100
AcDbEntity
  8
7
  6
Continuous
 62
     1
370
     0
100
AcDbLine
 10
-3.786837000001469
 20
-8.949837000000116
 30
0.0
 11
90.13767000000007
 21
21.976134
 31
0.0
  0
LINE
  5
1A58
330
207
100
AcDbEntity
  8
7
  6
Continuous
 62
     1
370
     0
100
AcDbLine
 10
-1.5
 20
67.59583399999974
 30
0.0
 11
0.0
 21
67.59583399999974
 31
0.0
  0
ARC
  5
1A59
330
207
100
AcDbEntity
  8
7
  6
Continuous
 62
     1
370
     0
100
AcDbCircle
 10
-4.099584999999934
 20
-8.0
 30
0.0
 40
1.0
100
AcDbArc
 50
270.0
 51
288.2248589999875
  0
LINE
  5
1A5A
330
207
100
AcDbEntity
  8
7
  6
Continuous
 62
     1
370
     0
100
AcDbLine
 10
0.0
 20
67.59583399999974
 30
0.0
 11
0.0
 21
68.34583399999974
 31
0.0
  0
LINE
  5
1A5B
330
207
100
AcDbEntity
  8
7
  6
Continuous
 62
     1
370
     0
100
AcDbLine
 10
-7.5
 20
-9.0
 30
0.0
 11
-4.099584999999934
 21
-9.0
 31
0.0
  0
LINE
  5
1A5C
330
207
100
AcDbEntity
  8
7
  6
Continuous
 62
     1
370
     0
100
AcDbLine
 10
0.0
 20
68.34583399999974
 30
0.0
 11
2.0
 21
68.34583399999974
 31
0.0
  0
LINE
  5
1A5D
330
207
100
AcDbEntity
  8
7
  6
Continuous
 62
     1
370
     0
100
AcDbLine
 10
-7.5
 20
-4.0
 30
0.0
 11
-7.5
 21
-9.0
 31
0.0
  0
ARC
  5
1A5E
330
207
100
AcDbEntity
  8
7
  6
Continuous
 62
     1
370
     0
100
AcDbCircle
 10
2.0
 20
67.34583399999974
 30
0.0
 40
1.000000000000114
100
AcDbArc
 50
0.0
 51
90.0
  0
LINE
  5
1A5F
330
207
100
AcDbEntity
  8
7
  6
Continuous
 62
     1
370
     0
100
AcDbLine
 10
-7.0
 20
-4.0
 30
0.0
 11
-7.5
 21
-4.0
 31
0.0
  0
LINE
  5
1A60
330
207
100
AcDbEntity
  8
7
  6
Continuous
 62
     1
370
     0
100
AcDbLine
 10
3.0
 20
67.34583399999974
 30
0.0
 11
3.0
 21
64.84583399999974
 31
0.0
  0
LINE
  5
1A61
330
207
100
AcDbEntity
  8
7
  6
Continuous
 62
     1
370
     0
100
AcDbLine
 10
-7.0
 20
60.0
 30
0.0
 11
-7.0
 21
-4.0
 31
0.0
  0
ARC
  5
1A62
330
207
100
AcDbEntity
  8
7
  6
Continuous
 62
     1
370
     0
100
AcDbCircle
 10
2.0
 20
64.84583399999974
 30
0.0
 40
1.000000000000114
100
AcDbArc
 50
270.0
 51
0.0
  0
ARC
  5
1A63
330
207
100
AcDbEntity
  8
7
  6
Continuous
 62
     1
370
     0
100
AcDbCircle
 10
-6.0
 20
60.0
 30
0.0
 40
1.0
100
AcDbArc
 50
90.0
 51
180.0
  0
LINE
  5
1A64
330
207
100
AcDbEntity
  8
7
  6
Continuous
 62
     1
370
     0
100
AcDbLine
 10
2.0
 20
63.84583399999974
 30
0.0
 11
0.0
 21
63.84583399999974
 31
0.0
  0
LINE
  5
1A65
330
207
100
AcDbEntity
  8
7
  6
Continuous
 62
     1
370
     0
100
AcDbLine
 10
-3.5
 20
61.0
 30
0.0
 11
-6.0
 21
61.0
 31
0.0
  0
LINE
  5
1A66
330
207
100
AcDbEntity
  8
7
  6
Continuous
 62
     1
370
     0
100
AcDbLine
 10
0.0
 20
63.84583399999974
 30
0.0
 11
0.0
 21
64.59583399999974
 31
0.0
  0
ARC
  5
1A67
330
207
100
AcDbEntity
  8
7
  6
Continuous
 62
     1
370
     0
100
AcDbCircle
 10
-3.5
 20
63.0
 30
0.0
 40
2.0
100
AcDbArc
 50
270.0
 51
0.0
  0
LINE
  5
1A68
330
207
100
AcDbEntity
  8
7
  6
Continuous
 62
     1
370
     0
100
AcDbLine
 10
0.0
 20
64.59583399999974
 30
0.0
 11
-1.5
 21
64.59583399999974
 31
0.0
  0
LINE
  5
1A69
330
207
100
AcDbEntity
  8
7
  6
Continuous
 62
     1
370
     0
100
AcDbLine
 10
-1.5
 20
64.59583399999974
 30
0.0
 11
-1.5
 21
63.0
 31
0.0
  0
ARC
  5
1A6A
330
207
100
AcDbEntity
  8
7
  6
Continuous
 62
     1
370
     0
100
AcDbCircle
 10
38.54749699999957
 20
59.38558599999988
 30
0.0
 40
1.0
100
AcDbArc
 50
266.0496680000322
 51
357.9999999999961
  0
LINE
  5
1A6B
330
207
100
AcDbEntity
  8
7
  6
Continuous
 62
     1
370
     0
100
AcDbLine
 10
38.47860499999842
 20
58.38796199999979
 30
0.0
 11
18.73441499999899
 21
59.75141200000007
 31
0.0
  0
LINE
  5
1A6C
330
207
100
AcDbEntity
  8
7
  6
Continuous
 62
     1
370
     0
100
AcDbLine
 10
39.61696699999993
 20
61.35749699999997
 30
0.0
 11
39.54688799999894
 21
59.35068699999965
 31
0.0
  0
ARC
  5
1A6D
330
207
100
AcDbEntity
  8
7
  6
Continuous
 62
     1
370
     0
100
AcDbCircle
 10
38.61757699999907
 20
61.39239599999974
 30
0.0
 40
1.0
100
AcDbArc
 50
357.9999999999961
 51
83.74932799995189
  0
ARC
  5
1A6E
330
207
100
AcDbEntity
  8
7
  6
Continuous
 62
     1
370
     0
100
AcDbCircle
 10
18.80330700000013
 20
60.74903599999971
 30
0.0
 40
1.0
100
AcDbArc
 50
118.5344289999932
 51
266.0496680000322
  0
LINE
  5
1A6F
330
207
100
AcDbEntity
  8
7
  6
Continuous
 62
     1
370
     0
100
AcDbLine
 10
18.32561999999962
 20
61.627567
 30
0.0
 11
22.63262699999905
 21
63.96943199999987
 31
0.0
  0
ARC
  5
1A70
330
207
100
AcDbEntity
  8
7
  6
Continuous
 62
     1
370
     0
100
AcDbCircle
 10
23.11031399999956
 20
63.09090199999991
 30
0.0
 40
1.0
100
AcDbArc
 50
83.74932799995189
 51
118.5344289999932
  0
LINE
  5
1A71
330
207
100
AcDbEntity
  8
7
  6
Continuous
 62
     1
370
     0
100
AcDbLine
 10
8.389828999999736
 20
59.43314499999997
 30
0.0
 11
-2.498967000001358
 21
52.91765199999963
 31
0.0
  0
ARC
  5
1A72
330
207
100
AcDbEntity
  8
7
  6
Continuous
 62
     1
370
     0
100
AcDbCircle
 10
8.261461999998573
 20
59.64767200000006
 30
0.0
 40
0.25
100
AcDbArc
 50
300.8948960000208
 51
28.53442900004095
  0
ARC
  5
1A73
330
207
100
AcDbEntity
  8
7
  6
Continuous
 62
     1
370
     0
100
AcDbCircle
 10
-3.012432000001354
 20
53.77576299999964
 30
0.0
 40
0.9999999999999658
100
AcDbArc
 50
180.0
 51
300.8948960000208
  0
LINE
  5
1A74
330
207
100
AcDbEntity
  8
7
  6
Continuous
 62
     1
370
     0
100
AcDbLine
 10
15.14855299999908
 20
63.13674199999969
 30
0.0
 11
12.32214599999861
 21
61.59992799999964
 31
0.0
  0
ARC
  5
1A75
330
207
100
AcDbEntity
  8
7
  6
Continuous
 62
     1
370
     0
100
AcDbCircle
 10
12.20272399999885
 20
61.81956099999979
 30
0.0
 40
0.25
100
AcDbArc
 50
208.534429000041
 51
298.5344289999932
  0
ARC
  5
1A76
330
207
100
AcDbEntity
  8
7
  6
Continuous
 62
     1
370
     0
100
AcDbCircle
 10
14.67086599999857
 20
64.0152720000001
 30
0.0
 40
1.0
100
AcDbArc
 50
298.5344289999932
 51
83.74932799995189
  0
LINE
  5
1A77
330
207
100
AcDbEntity
  8
7
  6
Continuous
 62
     1
370
     0
100
AcDbLine
 10
-4.012432000001354
 20
53.77576299999964
 30
0.0
 11
-4.012432000001354
 21
55.26885399999992
 31
0.0
  0
LINE
  5
1A78
330
207
100
AcDbEntity
  8
7
  6
Continuous
 62
     1
370
     0
100
AcDbLine
 10
-4.012432000001354
 20
55.26885399999992
 30
0.0
 11
-4.0
 21
55.27406799999972
 31
0.0
  0
LINE
  5
1A79
330
207
100
AcDbEntity
  8
7
  6
Continuous
 62
     1
370
     0
100
AcDbLine
 10
-4.0
 20
55.27406799999972
 30
0.0
 11
-4.0
 21
55.59376500000008
 31
0.0
  0
LINE
  5
1A7A
330
207
100
AcDbEntity
  8
7
  6
Continuous
 62
     1
370
     0
100
AcDbLine
 10
23.21919199999866
 20
64.08495700000003
 30
0.0
 11
38.72645499999999
 21
62.38645199999974
 31
0.0
  0
ARC
  5
1A7B
330
207
100
AcDbEntity
  8
7
  6
Continuous
 62
     1
370
     0
100
AcDbCircle
 10
-3.0
 20
55.59376500000008
 30
0.0
 40
0.9999999999999568
100
AcDbArc
 50
124.6314960000094
 51
180.0
  0
LINE
  5
1A7C
330
207
100
AcDbEntity
  8
7
  6
Continuous
 62
     1
370
     0
100
AcDbLine
 10
-3.568297000001621
 20
56.41658999999981
 30
0.0
 11
6.445369999999457
 21
63.33268300000009
 31
0.0
  0
LINE
  5
1A7D
330
207
100
AcDbEntity
  8
7
  6
Continuous
 62
     1
370
     0
100
AcDbLine
 10
-2.45789700000023
 20
35.3232909999997
 30
0.0
 11
-3.525897000001351
 21
35.96234699999968
 31
0.0
  0
ARC
  5
1A7E
330
207
100
AcDbEntity
  8
7
  6
Continuous
 62
     1
370
     0
100
AcDbCircle
 10
-3.012432000001354
 20
36.82045699999981
 30
0.0
 40
1.0
100
AcDbArc
 50
180.0
 51
239.1051039999792
  0
LINE
  5
1A7F
330
207
100
AcDbEntity
  8
7
  6
Continuous
 62
     1
370
     0
100
AcDbLine
 10
0.487567999998646
 20
35.3232909999997
 30
0.0
 11
-2.45789700000023
 21
35.3232909999997
 31
0.0
  0
LINE
  5
1A80
330
207
100
AcDbEntity
  8
7
  6
Continuous
 62
     1
370
     0
100
AcDbLine
 10
-4.012432000001354
 20
36.82045699999981
 30
0.0
 11
-4.012432000001354
 21
47.82612500000005
 31
0.0
  0
ARC
  5
1A81
330
207
100
AcDbEntity
  8
7
  6
Continuous
 62
     1
370
     0
100
AcDbCircle
 10
0.487567999998646
 20
34.8232909999997
 30
0.0
 40
0.5
100
AcDbArc
 50
0.0
 51
90.0
  0
ARC
  5
1A82
330
207
100
AcDbEntity
  8
7
  6
Continuous
 62
     1
370
     0
100
AcDbCircle
 10
-3.012432000001354
 20
47.82612500000005
 30
0.0
 40
1.0
100
AcDbArc
 50
120.8948960000208
 51
180.0
  0
LINE
  5
1A83
330
207
100
AcDbEntity
  8
7
  6
Continuous
 62
     1
370
     0
100
AcDbLine
 10
0.987567999998646
 20
33.93692799999963
 30
0.0
 11
0.987567999998646
 21
34.8232909999997
 31
0.0
  0
LINE
  5
1A84
330
207
100
AcDbEntity
  8
7
  6
Continuous
 62
     1
370
     0
100
AcDbLine
 10
-3.525897000001351
 20
48.68423600000006
 30
0.0
 11
-2.45789700000023
 21
49.3232909999997
 31
0.0
  0
ARC
  5
1A85
330
207
100
AcDbEntity
  8
7
  6
Continuous
 62
     1
370
     0
100
AcDbCircle
 10
1.987567999998646
 20
33.93692799999963
 30
0.0
 40
1.0
100
AcDbArc
 50
180.0
 51
223.4070919999992
  0
LINE
  5
1A86
330
207
100
AcDbEntity
  8
7
  6
Continuous
 62
     1
370
     0
100
AcDbLine
 10
-2.45789700000023
 20
49.3232909999997
 30
0.0
 11
0.487567999998646
 21
49.3232909999997
 31
0.0
  0
LINE
  5
1A87
330
207
100
AcDbEntity
  8
7
  6
Continuous
 62
     1
370
     0
100
AcDbLine
 10
6.483198999998422
 20
27.72888199999989
 30
0.0
 11
1.261077981629302
 21
33.24975098262367
 31
0.0
  0
ARC
  5
1A88
330
207
100
AcDbEntity
  8
7
  6
Continuous
 62
     1
370
     0
100
AcDbCircle
 10
0.487567999998646
 20
49.8232909999997
 30
0.0
 40
0.5
100
AcDbArc
 50
270.0
 51
0.0
  0
ARC
  5
1A89
330
207
100
AcDbEntity
  8
7
  6
Continuous
 62
     1
370
     0
100
AcDbCircle
 10
7.936177999999927
 20
29.10323699999981
 30
0.0
 40
2.0
100
AcDbArc
 50
223.4070919999992
 51
0.0
  0
LINE
  5
1A8A
330
207
100
AcDbEntity
  8
7
  6
Continuous
 62
     1
370
     0
100
AcDbLine
 10
0.987567999998646
 20
49.8232909999997
 30
0.0
 11
0.987567999998646
 21
50.31795899999997
 31
0.0
  0
LINE
  5
1A8B
330
207
100
AcDbEntity
  8
7
  6
Continuous
 62
     1
370
     0
100
AcDbLine
 10
9.936177999999927
 20
52.71205800000007
 30
0.0
 11
9.936177999999927
 21
29.10323699999981
 31
0.0
  0
ARC
  5
1A8C
330
207
100
AcDbEntity
  8
7
  6
Continuous
 62
     1
370
     0
100
AcDbCircle
 10
1.987567999998646
 20
50.31795899999997
 30
0.0
 40
1.0
100
AcDbArc
 50
120.8948960000208
 51
180.0
  0
ARC
  5
1A8D
330
207
100
AcDbEntity
  8
7
  6
Continuous
 62
     1
370
     0
100
AcDbCircle
 10
7.936177999999927
 20
52.71205800000007
 30
0.0
 40
2.0
100
AcDbArc
 50
0.0
 51
120.8948960000208
  0
LINE
  5
1A8E
330
207
100
AcDbEntity
  8
7
  6
Continuous
 62
     1
370
     0
100
AcDbLine
 10
1.474102999998649
 20
51.17606899999964
 30
0.0
 11
6.909247999999934
 21
54.42827899999975
 31
0.0
  0
ARC
  5
1A8F
330
207
100
AcDbEntity
  8
7
  6
Continuous
 62
     1
370
     0
100
AcDbCircle
 10
7.992960999999923
 20
-0.3354990000002545
 30
0.0
 40
1.0
100
AcDbArc
 50
177.5964640000062
 51
287.3839769999601
  0
ARC
  5
1A90
330
207
100
AcDbEntity
  8
7
  6
Continuous
 62
     1
370
     0
100
AcDbCircle
 10
0.0
 20
0.0
 30
0.0
 40
7.0
100
AcDbArc
 50
357.5964640000062
 51
9.458659999988221
  0
LINE
  5
1A91
330
207
100
AcDbEntity
  8
7
  6
Continuous
 62
     1
370
     0
100
AcDbLine
 10
26.04915799999981
 20
4.269562999999835
 30
0.0
 11
8.29173499999888
 21
-1.289823000000069
 31
0.0
  0
ARC
  5
1A92
330
207
100
AcDbEntity
  8
7
  6
Continuous
 62
     1
370
     0
100
AcDbCircle
 10
7.891234999999142
 20
1.314687000000049
 30
0.0
 40
1.0
100
AcDbArc
 50
123.1236009999978
 51
189.4586599999882
  0
ARC
  5
1A93
330
207
100
AcDbEntity
  8
7
  6
Continuous
 62
     1
370
     0
100
AcDbCircle
 10
25.75038399999903
 20
5.22388699999965
 30
0.0
 40
1.000000000000002
100
AcDbArc
 50
287.3839769999601
 51
43.1992129999998
  0
LINE
  5
1A94
330
207
100
AcDbEntity
  8
7
  6
Continuous
 62
     1
370
     0
100
AcDbLine
 10
7.344787999998516
 20
2.152180999999928
 30
0.0
 11
20.69507599999997
 21
10.86296300000004
 31
0.0
  0
LINE
  5
1A95
330
207
100
AcDbEntity
  8
7
  6
Continuous
 62
     1
370
     0
100
AcDbLine
 10
21.97050099999979
 20
10.71000599999979
 30
0.0
 11
26.47936200000004
 21
5.908423999999741
 31
0.0
  0
ARC
  5
1A96
330
207
100
AcDbEntity
  8
7
  6
Continuous
 62
     1
370
     0
100
AcDbCircle
 10
21.24152299999878
 20
10.0254689999997
 30
0.0
 40
1.000000000000002
100
AcDbArc
 50
43.1992129999998
 51
123.1236009999978
  0
ARC
  5
1A97
330
207
100
AcDbEntity
  8
7
  6
Continuous
 62
     1
370
     0
100
AcDbCircle
 10
5.162318999999115
 20
6.111501999999746
 30
0.0
 40
1.0
100
AcDbArc
 50
229.812584000037
 51
304.7074920000484
  0
ARC
  5
1A98
330
207
100
AcDbEntity
  8
7
  6
Continuous
 62
     1
370
     0
100
AcDbCircle
 10
0.0
 20
0.0
 30
0.0
 40
7.0
100
AcDbArc
 50
49.81258400003695
 51
112.0243129999505
  0
LINE
  5
1A99
330
207
100
AcDbEntity
  8
7
  6
Continuous
 62
     1
370
     0
100
AcDbLine
 10
16.30122200000005
 20
12.61015700000007
 30
0.0
 11
5.731705999998667
 21
5.289432000000033
 31
0.0
  0
ARC
  5
1A9A
330
207
100
AcDbEntity
  8
7
  6
Continuous
 62
     1
370
     0
100
AcDbCircle
 10
-3.0
 20
7.416197999999895
 30
0.0
 40
1.0
100
AcDbArc
 50
180.0
 51
292.0243129999505
  0
ARC
  5
1A9B
330
207
100
AcDbEntity
  8
7
  6
Continuous
 62
     1
370
     0
100
AcDbCircle
 10
15.73183499999868
 20
13.43222699999978
 30
0.0
 40
1.0
100
AcDbArc
 50
304.7074920000484
 51
50.24038500003217
  0
LINE
  5
1A9C
330
207
100
AcDbEntity
  8
7
  6
Continuous
 62
     1
370
     0
100
AcDbLine
 10
-4.0
 20
7.416197999999895
 30
0.0
 11
-4.0
 21
29.0166479999998
 31
0.0
  0
LINE
  5
1A9D
330
207
100
AcDbEntity
  8
7
  6
Continuous
 62
     1
370
     0
100
AcDbLine
 10
-2.36043200000131
 20
29.78538299999991
 30
0.0
 11
16.37140299999919
 21
14.20096199999989
 31
0.0
  0
ARC
  5
1A9E
330
207
100
AcDbEntity
  8
7
  6
Continuous
 62
     1
370
     0
100
AcDbCircle
 10
-3.0
 20
29.0166479999998
 30
0.0
 40
1.0
100
AcDbArc
 50
50.24038500003217
 51
180.0
  0
LINE
  5
1A9F
330
207
100
AcDbEntity
  8
7
  6
Continuous
 62
     1
370
     0
100
AcDbLine
 10
39.97970600000008
 20
8.630854
 30
0.0
 11
30.81970199999887
 21
5.763095999999678
 31
0.0
  0
ARC
  5
1AA0
330
207
100
AcDbEntity
  8
7
  6
Continuous
 62
     1
370
     0
100
AcDbCircle
 10
30.52092799999991
 20
6.717419999999947
 30
0.0
 40
1.000000000000002
100
AcDbArc
 50
223.1992129999998
 51
287.3839769999601
  0
ARC
  5
1AA1
330
207
100
AcDbEntity
  8
7
  6
Continuous
 62
     1
370
     0
100
AcDbCircle
 10
39.6809319999993
 20
9.585177999999814
 30
0.0
 40
1.000000000000388
100
AcDbArc
 50
287.3839769999601
 51
18.22485899997929
  0
LINE
  5
1AA2
330
207
100
AcDbEntity
  8
7
  6
Continuous
 62
     1
370
     0
100
AcDbLine
 10
29.79194999999891
 20
6.032882999999856
 30
0.0
 11
24.3402989999995
 21
11.83846099999982
 31
0.0
  0
LINE
  5
1AA3
330
207
100
AcDbEntity
  8
7
  6
Continuous
 62
     1
370
     0
100
AcDbLine
 10
37.25051799999892
 20
20.16399999999976
 30
0.0
 11
40.63076799999908
 21
9.89792499999976
 31
0.0
  0
ARC
  5
1AA4
330
207
100
AcDbEntity
  8
7
  6
Continuous
 62
     1
370
     0
100
AcDbCircle
 10
25.06927699999869
 20
12.52299799999992
 30
0.0
 40
1.000000000000044
100
AcDbArc
 50
123.1236009999978
 51
223.1992129999998
  0
ARC
  5
1AA5
330
207
100
AcDbEntity
  8
7
  6
Continuous
 62
     1
370
     0
100
AcDbCircle
 10
36.30068199999914
 20
19.85125299999982
 30
0.0
 40
1.000000000000024
100
AcDbArc
 50
18.22485899997929
 51
123.1236009999978
  0
LINE
  5
1AA6
330
207
100
AcDbEntity
  8
7
  6
Continuous
 62
     1
370
     0
100
AcDbLine
 10
24.52282999999989
 20
13.36049199999979
 30
0.0
 11
35.75423499999852
 21
20.68874599999981
 31
0.0
  0
ARC
  5
1AA7
330
207
100
AcDbEntity
  8
7
  6
Continuous
 62
     1
370
     0
100
AcDbCircle
 10
0.0
 20
0.0
 30
0.0
 40
4.0
100
AcDbArc
 50
45.5846909999734
 51
134.4153090000266
  0
ARC
  5
1AA8
330
207
100
AcDbEntity
  8
7
  6
Continuous
 62
     1
370
     0
100
AcDbCircle
 10
0.0
 20
0.0
 30
0.0
 40
4.0
100
AcDbArc
 50
225.5846909999734
 51
314.4153090000266
  0
LINE
  5
1AA9
330
207
100
AcDbEntity
  8
7
  6
Continuous
 62
     1
370
     0
100
AcDbLine
 10
40.29588499999954
 20
22.89332599999989
 30
0.0
 11
56.92618399999992
 21
24.04827699999987
 31
0.0
  0
ARC
  5
1AAA
330
207
100
AcDbEntity
  8
7
  6
Continuous
 62
     1
370
     0
100
AcDbCircle
 10
56.99546599999849
 20
23.05067999999983
 30
0.0
 40
1.000000000000042
100
AcDbArc
 50
343.2073380000105
 51
93.972732000051
  0
ARC
  5
1AAB
330
207
100
AcDbEntity
  8
7
  6
Continuous
 62
     1
370
     0
100
AcDbCircle
 10
40.36516699999993
 20
21.89572899999985
 30
0.0
 40
1.000000000000334
100
AcDbArc
 50
93.972732000051
 51
198.2248589999793
  0
LINE
  5
1AAC
330
207
100
AcDbEntity
  8
7
  6
Continuous
 62
     1
370
     0
100
AcDbLine
 10
57.95282199999929
 20
22.76177000000007
 30
0.0
 11
55.271784999999
 21
13.87763499999983
 31
0.0
  0
LINE
  5
1AAD
330
207
100
AcDbEntity
  8
7
  6
Continuous
 62
     1
370
     0
100
AcDbLine
 10
43.0260159999998
 20
10.6170589999997
 30
0.0
 11
39.41532999999981
 21
21.5829819999999
 31
0.0
  0
ARC
  5
1AAE
330
207
100
AcDbEntity
  8
7
  6
Continuous
 62
     1
370
     0
100
AcDbCircle
 10
54.31442900000002
 20
14.1665439999997
 30
0.0
 40
0.9999999999999878
100
AcDbArc
 50
287.3839769999601
 51
343.2073380000105
  0
ARC
  5
1AAF
330
207
100
AcDbEntity
  8
7
  6
Continuous
 62
     1
370
     0
100
AcDbCircle
 10
43.97585199999958
 20
10.92980599999964
 30
0.0
 40
0.9999999999999036
100
AcDbArc
 50
198.2248589999793
 51
287.3839769999601
  0
LINE
  5
1AB0
330
207
100
AcDbEntity
  8
7
  6
Continuous
 62
     1
370
     0
100
AcDbLine
 10
54.61320299999898
 20
13.21221999999989
 30
0.0
 11
44.27462599999853
 21
9.975481999999829
 31
0.0
  0
LINE
  5
1AB1
330
207
100
AcDbEntity
  8
7
  6
Continuous
 62
     1
370
     0
100
AcDbLine
 10
61.1937969999999
 20
24.34465599999976
 30
0.0
 11
69.72878799999853
 21
24.9373999999998
 31
0.0
  0
ARC
  5
1AB2
330
207
100
AcDbEntity
  8
7
  6
Continuous
 62
     1
370
     0
100
AcDbCircle
 10
69.7461089999997
 20
24.68799999999965
 30
0.0
 40
0.25
100
AcDbArc
 50
18.22485899997929
 51
93.972732000051
  0
LINE
  5
1AB3
330
207
100
AcDbEntity
  8
7
  6
Continuous
 62
     1
370
     0
100
AcDbLine
 10
74.36053199999878
 20
25.25906799999984
 30
0.0
 11
81.79686599999877
 21
25.77550999999994
 31
0.0
  0
ARC
  5
1AB4
330
207
100
AcDbEntity
  8
7
  6
Continuous
 62
     1
370
     0
100
AcDbCircle
 10
74.37785299999996
 20
25.00966799999969
 30
0.0
 40
0.25
100
AcDbArc
 50
93.972732000051
 51
198.2248589999793
  0
ARC
  5
1AB5
330
207
100
AcDbEntity
  8
7
  6
Continuous
 62
     1
370
     0
100
AcDbCircle
 10
81.86614799999916
 20
24.7779129999999
 30
0.0
 40
1.000000000000023
100
AcDbArc
 50
357.9999999999961
 51
93.972732000051
  0
ARC
  5
1AB6
330
207
100
AcDbEntity
  8
7
  6
Continuous
 62
     1
370
     0
100
AcDbCircle
 10
61.26307799999995
 20
23.34705899999972
 30
0.0
 40
1.000000000000082
100
AcDbArc
 50
93.972732000051
 51
163.2073380000105
  0
LINE
  5
1AB7
330
207
100
AcDbEntity
  8
7
  6
Continuous
 62
     1
370
     0
100
AcDbLine
 10
82.86553899999853
 20
24.74301399999968
 30
0.0
 11
82.79543199999898
 21
22.73542099999986
 31
0.0
  0
LINE
  5
1AB8
330
207
100
AcDbEntity
  8
7
  6
Continuous
 62
     1
370
     0
100
AcDbLine
 10
57.97117900000012
 20
15.90000999999984
 30
0.0
 11
60.30572199999915
 21
23.63596800000005
 31
0.0
  0
ARC
  5
1AB9
330
207
100
AcDbEntity
  8
7
  6
Continuous
 62
     1
370
     0
100
AcDbCircle
 10
81.7960409999996
 20
22.77032000000008
 30
0.0
 40
0.9999999999999736
100
AcDbArc
 50
287.3839769999601
 51
357.9999999999961
  0
ARC
  5
1ABA
330
207
100
AcDbEntity
  8
7
  6
Continuous
 62
     1
370
     0
100
AcDbCircle
 10
58.92853599999944
 20
15.61110099999996
 30
0.0
 40
0.9999999999999878
100
AcDbArc
 50
163.2073380000105
 51
287.3839769999601
  0
LINE
  5
1ABB
330
207
100
AcDbEntity
  8
7
  6
Continuous
 62
     1
370
     0
100
AcDbLine
 10
82.09481499999856
 20
21.81599599999981
 30
0.0
 11
78.17133499999909
 21
20.58765700000004
 31
0.0
  0
LINE
  5
1ABC
330
207
100
AcDbEntity
  8
7
  6
Continuous
 62
     1
370
     0
100
AcDbLine
 10
78.11132799999905
 20
20.56887000000006
 30
0.0
 11
76.04879900000014
 21
19.92314599999963
 31
0.0
  0
ARC
  5
1ABD
330
207
100
AcDbEntity
  8
7
  6
Continuous
 62
     1
370
     0
100
AcDbCircle
 10
75.97410599999967
 20
20.1617269999997
 30
0.0
 40
0.25
100
AcDbArc
 50
198.2248589999793
 51
287.3839769999601
  0
LINE
  5
1ABE
330
207
100
AcDbEntity
  8
7
  6
Continuous
 62
     1
370
     0
100
AcDbLine
 10
71.75387899999987
 20
18.57851899999969
 30
0.0
 11
59.2273099999984
 21
14.65677699999969
 31
0.0
  0
ARC
  5
1ABF
330
207
100
AcDbEntity
  8
7
  6
Continuous
 62
     1
370
     0
100
AcDbCircle
 10
71.67918499999905
 20
18.81709999999975
 30
0.0
 40
0.25
100
AcDbArc
 50
287.3839769999601
 51
18.22485899997929
  0
ARC
  5
1AC0
330
207
100
AcDbEntity
  8
7
  6
Continuous
 62
     1
370
     0
100
AcDbCircle
 10
77.39445599999999
 20
22.96388499999966
 30
0.0
 40
2.500000000000047
100
AcDbArc
 50
286.663412000053
 51
288.1045410000197
  0
LINE
  5
1AC1
330
207
100
AcDbEntity
  8
7
  6
Continuous
 62
     1
370
     0
100
AcDbLine
 10
14.77974499999982
 20
65.00932699999976
 30
0.0
 11
10.08656399999927
 21
65.27021299999979
 31
0.0
  0
ARC
  5
1AC2
330
207
100
AcDbEntity
  8
7
  6
Continuous
 62
     1
370
     0
100
AcDbCircle
 10
22.86129999999866
 20
25.66893399999981
 30
0.0
 40
7.999999999999999
100
AcDbArc
 50
181.7365019999965
 51
304.7074920000484
  0
ARC
  5
1AC3
330
207
100
AcDbEntity
  8
7
  6
Continuous
 62
     1
370
     0
100
AcDbCircle
 10
14.61508899999899
 20
25.41893399999981
 30
0.0
 40
0.25
100
AcDbArc
 50
1.736501999996481
 51
90.0
  0
ARC
  5
1AC4
330
207
100
AcDbEntity
  8
7
  6
Continuous
 62
     1
370
     0
100
AcDbCircle
 10
33.99890499999856
 20
24.25981699999966
 30
0.0
 40
0.5
100
AcDbArc
 50
304.7074920000484
 51
34.70749200000561
  0
LINE
  5
1AC5
330
207
100
AcDbEntity
  8
7
  6
Continuous
 62
     1
370
     0
100
AcDbLine
 10
12.43617799999993
 20
30.44222499999978
 30
0.0
 11
12.43617799999993
 21
33.16893399999981
 31
0.0
  0
ARC
  5
1AC6
330
207
100
AcDbEntity
  8
7
  6
Continuous
 62
     1
370
     0
100
AcDbCircle
 10
13.43617799999993
 20
33.16893399999981
 30
0.0
 40
1.0
100
AcDbArc
 50
90.0
 51
180.0
  0
LINE
  5
1AC7
330
207
100
AcDbEntity
  8
7
  6
Continuous
 62
     1
370
     0
100
AcDbLine
 10
14.72907099999975
 20
33.87604099999999
 30
0.0
 11
15.5826249999991
 21
33.02248800000007
 31
0.0
  0
ARC
  5
1AC8
330
207
100
AcDbEntity
  8
7
  6
Continuous
 62
     1
370
     0
100
AcDbCircle
 10
15.93617799999993
 20
33.37604099999999
 30
0.0
 40
0.5
100
AcDbArc
 50
225.0
 51
0.0
  0
LINE
  5
1AC9
330
207
100
AcDbEntity
  8
7
  6
Continuous
 62
     1
370
     0
100
AcDbLine
 10
14.02196499999991
 20
34.16893399999981
 30
0.0
 11
13.43617799999993
 21
34.16893399999981
 31
0.0
  0
ARC
  5
1ACA
330
207
100
AcDbEntity
  8
7
  6
Continuous
 62
     1
370
     0
100
AcDbCircle
 10
14.02196499999991
 20
33.16893399999981
 30
0.0
 40
1.0
100
AcDbArc
 50
45.0
 51
90.0
  0
LINE
  5
1ACB
330
207
100
AcDbEntity
  8
7
  6
Continuous
 62
     1
370
     0
100
AcDbLine
 10
34.06800899999871
 20
25.03818299999966
 30
0.0
 11
34.40993999999955
 21
24.54451100000006
 31
0.0
  0
ARC
  5
1ACC
330
207
100
AcDbEntity
  8
7
  6
Continuous
 62
     1
370
     0
100
AcDbCircle
 10
34.27352699999938
 20
25.18052999999964
 30
0.0
 40
0.25
100
AcDbArc
 50
93.37317800002971
 51
214.7074920000056
  0
LINE
  5
1ACD
330
207
100
AcDbEntity
  8
7
  6
Continuous
 62
     1
370
     0
100
AcDbLine
 10
14.61508899999899
 20
25.66893399999981
 30
0.0
 11
14.25745899999856
 21
25.66893399999981
 31
0.0
  0
ARC
  5
1ACE
330
207
100
AcDbEntity
  8
7
  6
Continuous
 62
     1
370
     0
100
AcDbCircle
 10
16.60039199999846
 20
55.53089399999999
 30
0.0
 40
0.25
100
AcDbArc
 50
225.0
 51
0.0
  0
LINE
  5
1ACF
330
207
100
AcDbEntity
  8
7
  6
Continuous
 62
     1
370
     0
100
AcDbLine
 10
16.23201599999993
 20
55.54571600000008
 30
0.0
 11
16.4236149999997
 21
55.35411699999986
 31
0.0
  0
ARC
  5
1AD0
330
207
100
AcDbEntity
  8
7
  6
Continuous
 62
     1
370
     0
100
AcDbCircle
 10
14.43617799999993
 20
55.92733999999973
 30
0.0
 40
1.0
100
AcDbArc
 50
45.0
 51
90.0
  0
LINE
  5
1AD1
330
207
100
AcDbEntity
  8
7
  6
Continuous
 62
     1
370
     0
100
AcDbLine
 10
16.85039199999846
 20
55.53089399999999
 30
0.0
 11
16.85039199999846
 21
56.42733999999973
 31
0.0
  0
LINE
  5
1AD2
330
207
100
AcDbEntity
  8
7
  6
Continuous
 62
     1
370
     0
100
AcDbLine
 10
12.43617799999993
 20
43.14898499999981
 30
0.0
 11
12.43617799999993
 21
54.92733999999973
 31
0.0
  0
ARC
  5
1AD3
330
207
100
AcDbEntity
  8
7
  6
Continuous
 62
     1
370
     0
100
AcDbCircle
 10
12.18617799999993
 20
43.14898499999981
 30
0.0
 40
0.25
100
AcDbArc
 50
326.3099320000488
 51
0.0
  0
LINE
  5
1AD4
330
207
100
AcDbEntity
  8
7
  6
Continuous
 62
     1
370
     0
100
AcDbLine
 10
13.59518799999933
 20
39.18478199999981
 30
0.0
 11
13.59518799999933
 21
36.45770099999982
 31
0.0
  0
LINE
  5
1AD5
330
207
100
AcDbEntity
  8
7
  6
Continuous
 62
     1
370
     0
100
AcDbLine
 10
15.14328500000011
 20
56.63444699999991
 30
0.0
 11
16.23201599999993
 21
55.54571600000008
 31
0.0
  0
LINE
  5
1AD6
330
207
100
AcDbEntity
  8
7
  6
Continuous
 62
     1
370
     0
100
AcDbLine
 10
16.43617799999993
 20
33.37604099999999
 30
0.0
 11
16.43617799999993
 21
34.26111399999991
 31
0.0
  0
ARC
  5
1AD7
330
207
100
AcDbEntity
  8
7
  6
Continuous
 62
     1
370
     0
100
AcDbCircle
 10
15.93617799999993
 20
34.26111399999991
 30
0.0
 40
0.5
100
AcDbArc
 50
0.0
 51
30.00000000001031
  0
ARC
  5
1AD8
330
207
100
AcDbEntity
  8
7
  6
Continuous
 62
     1
370
     0
100
AcDbCircle
 10
12.18617799999996
 20
41.49759700000006
 30
0.0
 40
0.249999999999968
100
AcDbArc
 50
359.9999999999968
 51
33.6900679999521
  0
LINE
  5
1AD9
330
207
100
AcDbEntity
  8
7
  6
Continuous
 62
     1
370
     0
100
AcDbLine
 10
15.33279299999958
 20
36.30620700000009
 30
0.0
 11
16.36919099999977
 21
34.51111399999991
 31
0.0
  0
ARC
  5
1ADA
330
207
100
AcDbEntity
  8
7
  6
Continuous
 62
     1
370
     0
100
AcDbCircle
 10
15.11628699999892
 20
36.18120700000009
 30
0.0
 40
0.25
100
AcDbArc
 50
30.00000000001031
 51
119.9999999999973
  0
LINE
  5
1ADB
330
207
100
AcDbEntity
  8
7
  6
Continuous
 62
     1
370
     0
100
AcDbLine
 10
12.68617799999993
 20
39.68478199999981
 30
0.0
 11
13.09518799999933
 21
39.68478199999981
 31
0.0
  0
ARC
  5
1ADC
330
207
100
AcDbEntity
  8
7
  6
Continuous
 62
     1
370
     0
100
AcDbCircle
 10
13.09518799999933
 20
39.18478199999981
 30
0.0
 40
0.5
100
AcDbArc
 50
0.0
 51
90.0
  0
LINE
  5
1ADD
330
207
100
AcDbEntity
  8
7
  6
Continuous
 62
     1
370
     0
100
AcDbLine
 10
14.34518787091499
 20
36.02468822358075
 30
0.0
 11
14.99128699999892
 21
36.39771299999984
 31
0.0
  0
ARC
  5
1ADE
330
207
100
AcDbEntity
  8
7
  6
Continuous
 62
     1
370
     0
100
AcDbCircle
 10
14.09518799999933
 20
36.45770099999982
 30
0.0
 40
0.5000000000000018
100
AcDbArc
 50
180.0000000000008
 51
299.9999999999965
  0
LINE
  5
1ADF
330
207
100
AcDbEntity
  8
7
  6
Continuous
 62
     1
370
     0
100
AcDbLine
 10
12.02862800000003
 20
42.46196599999985
 30
0.0
 11
12.39419099999941
 21
43.01030999999966
 31
0.0
  0
ARC
  5
1AE0
330
207
100
AcDbEntity
  8
7
  6
Continuous
 62
     1
370
     0
100
AcDbCircle
 10
12.23664099999951
 20
42.3232909999997
 30
0.0
 40
0.25
100
AcDbArc
 50
146.3099320000488
 51
213.6900679999512
  0
LINE
  5
1AE1
330
207
100
AcDbEntity
  8
7
  6
Continuous
 62
     1
370
     0
100
AcDbLine
 10
12.02862800000003
 20
42.18461600000001
 30
0.0
 11
12.39419057243722
 21
41.6362720507771
 31
0.0
  0
LINE
  5
1AE2
330
207
100
AcDbEntity
  8
7
  6
Continuous
 62
     1
370
     0
100
AcDbLine
 10
12.43617799999993
 20
41.49759700000004
 30
0.0
 11
12.43617799999993
 21
39.93478199999981
 31
0.0
  0
ARC
  5
1AE3
330
207
100
AcDbEntity
  8
7
  6
Continuous
 62
     1
370
     0
100
AcDbCircle
 10
12.68617799999993
 20
39.93478199999981
 30
0.0
 40
0.25
100
AcDbArc
 50
180.0
 51
270.0
  0
ARC
  5
1AE4
330
207
100
AcDbEntity
  8
7
  6
Continuous
 62
     1
370
     0
100
AcDbCircle
 10
0.0
 20
0.0
 30
0.0
 40
2.5
100
AcDbArc
 50
320.4788039999644
 51
39.52119600003564
  0
ARC
  5
1AE5
330
207
100
AcDbEntity
  8
7
  6
Continuous
 62
     1
370
     0
100
AcDbCircle
 10
2.121319999998377
 20
-1.75
 30
0.0
 40
0.25
100
AcDbArc
 50
140.4788039999643
 51
270.0
  0
ARC
  5
1AE6
330
207
100
AcDbEntity
  8
7
  6
Continuous
 62
     1
370
     0
100
AcDbCircle
 10
2.121319999998377
 20
1.75
 30
0.0
 40
0.25
100
AcDbArc
 50
90.0
 51
219.5211960000356
  0
ARC
  5
1AE7
330
207
100
AcDbEntity
  8
7
  6
Continuous
 62
     1
370
     0
100
AcDbCircle
 10
0.0
 20
0.0
 30
0.0
 40
2.5
100
AcDbArc
 50
142.6168020000148
 51
219.5211960000356
  0
ARC
  5
1AE8
330
207
100
AcDbEntity
  8
7
  6
Continuous
 62
     1
370
     0
100
AcDbCircle
 10
-2.121321000000535
 20
-1.75
 30
0.0
 40
0.25
100
AcDbArc
 50
270.0
 51
39.52119600003564
  0
ARC
  5
1AE9
330
207
100
AcDbEntity
  8
7
  6
Continuous
 62
     1
370
     0
100
AcDbCircle
 10
73.0
 20
22.0
 30
0.0
 40
2.5
100
AcDbArc
 50
250.8416609999733
 51
325.6080580000005
  0
ARC
  5
1AEA
330
207
100
AcDbEntity
  8
7
  6
Continuous
 62
     1
370
     0
100
AcDbCircle
 10
73.0
 20
22.0
 30
0.0
 40
2.5
100
AcDbArc
 50
70.84166099997333
 51
145.6080580000004
  0
ARC
  5
1AEB
330
207
100
AcDbEntity
  8
7
  6
Continuous
 62
     1
370
     0
100
AcDbCircle
 10
9.0
 20
62.99960299999975
 30
0.0
 40
2.5
100
AcDbArc
 50
261.1512300000458
 51
335.9176269999921
  0
ARC
  5
1AEC
330
207
100
AcDbEntity
  8
7
  6
Continuous
 62
     1
370
     0
100
AcDbCircle
 10
9.0
 20
62.99960299999975
 30
0.0
 40
2.5
100
AcDbArc
 50
66.41181799998267
 51
168.7014019999968
  0
ARC
  5
1AED
330
207
100
AcDbEntity
  8
7
  6
Continuous
 62
     1
370
     0
100
AcDbCircle
 10
10.10044000000016
 20
65.51982799999996
 30
0.0
 40
0.25
100
AcDbArc
 50
246.4118179999826
 51
266.8183029999815
  0
ARC
  5
1AEE
330
207
100
AcDbEntity
  8
7
  6
Continuous
 62
     1
370
     0
100
AcDbCircle
 10
6.303296000000046
 20
63.53838899999982
 30
0.0
 40
0.25
100
AcDbArc
 50
304.6314960000094
 51
348.7014019999968
  0
LINE
  5
1AEF
330
207
100
AcDbEntity
  8
7
  6
Continuous
 62
     1
370
     0
100
AcDbLine
 10
28.49467499999992
 20
53.74943799999983
 30
0.0
 11
29.49406499999895
 21
53.71453900000006
 31
0.0
  0
ARC
  5
1AF0
330
207
100
AcDbEntity
  8
7
  6
Continuous
 62
     1
370
     0
100
AcDbCircle
 10
28.51212399999895
 20
54.24913399999969
 30
0.0
 40
0.5
100
AcDbArc
 50
177.999999999996
 51
267.9999999999961
  0
LINE
  5
1AF1
330
207
100
AcDbEntity
  8
7
  6
Continuous
 62
     1
370
     0
100
AcDbLine
 10
28.01242899999852
 20
54.26658300000008
 30
0.0
 11
28.0822279999993
 21
56.26536499999975
 31
0.0
  0
ARC
  5
1AF2
330
207
100
AcDbEntity
  8
7
  6
Continuous
 62
     1
370
     0
100
AcDbCircle
 10
27.58253199999854
 20
56.28281500000003
 30
0.0
 40
0.5
100
AcDbArc
 50
357.9999999999961
 51
87.99999999999605
  0
ARC
  5
1AF3
330
207
100
AcDbEntity
  8
7
  6
Continuous
 62
     1
370
     0
100
AcDbCircle
 10
30.89003400000001
 20
56.16731399999981
 30
0.0
 40
0.5
100
AcDbArc
 50
87.99999999999605
 51
193.0
  0
LINE
  5
1AF4
330
207
100
AcDbEntity
  8
7
  6
Continuous
 62
     1
370
     0
100
AcDbLine
 10
28.49467499999992
 20
53.74943799999983
 30
0.0
 11
30.303711999999
 21
53.68626499999982
 31
0.0
  0
LINE
  5
1AF5
330
207
100
AcDbEntity
  8
7
  6
Continuous
 62
     1
370
     0
100
AcDbLine
 10
30.80834700000014
 20
54.29843600000004
 30
0.0
 11
30.40284900000006
 21
56.0548389999999
 31
0.0
  0
ARC
  5
1AF6
330
207
100
AcDbEntity
  8
7
  6
Continuous
 62
     1
370
     0
100
AcDbCircle
 10
30.32116200000019
 20
54.18596099999968
 30
0.0
 40
0.5
100
AcDbArc
 50
267.9999999999961
 51
13.00000000000002
  0
LINE
  5
1AF7
330
207
100
AcDbEntity
  8
7
  6
Continuous
 62
     1
370
     0
100
AcDbLine
 10
8.305724999998347
 20
60.08962299999985
 30
0.0
 11
8.481094999999186
 21
59.76709399999982
 31
0.0
  0
LINE
  5
1AF8
330
207
100
AcDbEntity
  8
7
  6
Continuous
 62
     1
370
     0
100
AcDbLine
 10
11.81984599999851
 20
62.00036999999975
 30
0.0
 11
11.98309199999858
 21
61.70013900000004
 31
0.0
  0
LINE
  5
1AF9
330
207
100
AcDbEntity
  8
7
  6
Continuous
 62
     1
370
     0
100
AcDbLine
 10
-2.449490000000878
 20
-2.0
 30
0.0
 11
-2.121321000000535
 21
-2.0
 31
0.0
  0
LINE
  5
1AFA
330
207
100
AcDbEntity
  8
7
  6
Continuous
 62
     1
370
     0
100
AcDbLine
 10
2.121319999998377
 20
-2.0
 30
0.0
 11
2.449488999998721
 21
-2.0
 31
0.0
  0
LINE
  5
1AFB
330
207
100
AcDbEntity
  8
7
  6
Continuous
 62
     1
370
     0
100
AcDbLine
 10
-2.449490000000878
 20
2.0
 30
0.0
 11
-2.224860000000263
 21
2.0
 31
0.0
  0
LINE
  5
1AFC
330
207
100
AcDbEntity
  8
7
  6
Continuous
 62
     1
370
     0
100
AcDbLine
 10
2.121319999998377
 20
2.0
 30
0.0
 11
2.449488999998721
 21
2.0
 31
0.0
  0
LINE
  5
1AFD
330
207
100
AcDbEntity
  8
7
  6
Continuous
 62
     1
370
     0
100
AcDbLine
 10
69.98356799999965
 20
24.76618699999972
 30
0.0
 11
70.40450799999962
 21
23.48775799999976
 31
0.0
  0
LINE
  5
1AFE
330
207
100
AcDbEntity
  8
7
  6
Continuous
 62
     1
370
     0
100
AcDbLine
 10
71.79614499999843
 20
19.26125299999967
 30
0.0
 11
71.916643999999
 21
18.89528699999983
 31
0.0
  0
LINE
  5
1AFF
330
207
100
AcDbEntity
  8
7
  6
Continuous
 62
     1
370
     0
100
AcDbLine
 10
74.14039299999968
 20
24.93148199999996
 30
0.0
 11
74.20385399999941
 21
24.73874699999988
 31
0.0
  0
LINE
  5
1B00
330
207
100
AcDbEntity
  8
7
  6
Continuous
 62
     1
370
     0
100
AcDbLine
 10
75.59549100000004
 20
20.5122409999999
 30
0.0
 11
75.73664599999938
 21
20.08354099999997
 31
0.0
  0
ARC
  5
1B01
330
207
100
AcDbEntity
  8
7
  6
Continuous
 62
     1
370
     0
100
AcDbCircle
 10
-2.224860000000263
 20
1.699999999999818
 30
0.0
 40
0.3
100
AcDbArc
 50
322.6168020000148
 51
90.0
  0
ARC
  5
1B02
330
207
100
AcDbEntity
  8
7
  6
Continuous
 62
     1
370
     0
100
AcDbCircle
 10
-2.449490000000878
 20
2.5
 30
0.0
 40
0.5
100
AcDbArc
 50
134.4153090000266
 51
270.0
  0
ARC
  5
1B03
330
207
100
AcDbEntity
  8
7
  6
Continuous
 62
     1
370
     0
100
AcDbCircle
 10
-2.449490000000878
 20
-2.5
 30
0.0
 40
0.5
100
AcDbArc
 50
90.0
 51
225.5846909999734
  0
ARC
  5
1B04
330
207
100
AcDbEntity
  8
7
  6
Continuous
 62
     1
370
     0
100
AcDbCircle
 10
2.449488999998721
 20
-2.5
 30
0.0
 40
0.5
100
AcDbArc
 50
314.4153090000266
 51
90.0
  0
ARC
  5
1B05
330
207
100
AcDbEntity
  8
7
  6
Continuous
 62
     1
370
     0
100
AcDbCircle
 10
2.449488999998721
 20
2.5
 30
0.0
 40
0.5
100
AcDbArc
 50
270.0
 51
45.5846909999734
  0
ARC
  5
1B06
330
207
100
AcDbEntity
  8
7
  6
Continuous
 62
     1
370
     0
100
AcDbCircle
 10
70.68945899999926
 20
23.58158299999968
 30
0.0
 40
0.3
100
AcDbArc
 50
198.2248589999793
 51
325.6080580000005
  0
ARC
  5
1B07
330
207
100
AcDbEntity
  8
7
  6
Continuous
 62
     1
370
     0
100
AcDbCircle
 10
73.91890299999977
 20
24.64492299999984
 30
0.0
 40
0.3
100
AcDbArc
 50
250.8416609999733
 51
18.22485899997929
  0
ARC
  5
1B08
330
207
100
AcDbEntity
  8
7
  6
Continuous
 62
     1
370
     0
100
AcDbCircle
 10
75.31053999999858
 20
20.41841699999986
 30
0.0
 40
0.3
100
AcDbArc
 50
18.22485899997929
 51
145.6080580000004
  0
ARC
  5
1B09
330
207
100
AcDbEntity
  8
7
  6
Continuous
 62
     1
370
     0
100
AcDbCircle
 10
72.08109599999989
 20
19.35507699999971
 30
0.0
 40
0.3
100
AcDbArc
 50
70.84166099997333
 51
198.2248589999793
  0
ARC
  5
1B0A
330
207
100
AcDbEntity
  8
7
  6
Continuous
 62
     1
370
     0
100
AcDbCircle
 10
8.569283999999243
 20
60.23292899999979
 30
0.0
 40
0.3
100
AcDbArc
 50
81.15123000004574
 51
208.534429000041
  0
ARC
  5
1B0B
330
207
100
AcDbEntity
  8
7
  6
Continuous
 62
     1
370
     0
100
AcDbCircle
 10
11.55628699999943
 20
61.85706399999981
 30
0.0
 40
0.3
100
AcDbArc
 50
28.53442900004095
 51
155.9176269999921
  0
ENDBLK
  5
2EC
330
207
100
AcDbEntity
  8
0
100
AcDbBlockEnd
  0
BLOCK
  5
32D
330
32C
100
AcDbEntity
  8
0
100
AcDbBlockBegin
  2
profilo_tappo
 70
     0
 10
0.0
 20
0.0
 30
0.0
  3
profilo_tappo
  1
profilo_tappo
  0
LINE
  5
32E
330
32C
100
AcDbEntity
  8
G2-
100
AcDbLine
 10
0.9928218266604745
 20
-11.66106305265839
 30
0.0
 11
1.716762091367855
 21
9.069873729180472
 31
0.0
  0
LINE
  5
32F
330
32C
100
AcDbEntity
  8
G2-
100
AcDbLine
 10
-0.0000000000009095
 20
-6.758787655085143
 30
0.0
 11
0.0
 21
6.758787655085143
 31
0.0
  0
ARC
  5
330
330
32C
100
AcDbEntity
  8
G2-
100
AcDbCircle
 10
-0.5
 20
6.758787655085143
 30
0.0
 40
0.5
100
AcDbArc
 50
0.0
 51
90.0
  0
ARC
  5
331
330
32C
100
AcDbEntity
  8
G2-
100
AcDbCircle
 10
-0.2500000000009095
 20
-6.758787655085143
 30
0.0
 40
0.25
100
AcDbArc
 50
270.0
 51
0.0
  0
ARC
  5
332
330
32C
100
AcDbEntity
  8
G2-
100
AcDbCircle
 10
0.4142135623724243
 20
9.837323477531754
 30
0.0
 40
0.25
100
AcDbArc
 50
225.0
 51
270.0
  0
LINE
  5
333
330
32C
100
AcDbEntity
  8
G2-
100
AcDbLine
 10
0.0458379715300907
 20
9.852145677780754
 30
0.0
 11
0.2374368670762124
 21
9.660546782234633
 31
0.0
  0
ARC
  5
334
330
32C
100
AcDbEntity
  8
G2-
100
AcDbCircle
 10
-2.340990257670455
 20
-7.258787655085143
 30
0.0
 40
0.25
100
AcDbArc
 50
90.0
 51
180.0
  0
LINE
  5
335
330
32C
100
AcDbEntity
  8
G2-
100
AcDbLine
 10
-2.340990257670455
 20
-7.008787655085143
 30
0.0
 11
-0.2500000000009095
 21
-7.008787655085143
 31
0.0
  0
LINE
  5
336
330
32C
100
AcDbEntity
  8
G2-
100
AcDbLine
 10
-2.590990257670455
 20
-9.120399479795196
 30
0.0
 11
-2.590990257669546
 21
-7.258787655085143
 31
0.0
  0
ARC
  5
337
330
32C
100
AcDbEntity
  8
G2-
100
AcDbCircle
 10
-2.090990257670455
 20
-9.120399479795196
 30
0.0
 40
0.5
100
AcDbArc
 50
180.0
 51
299.9999999999842
  0
LINE
  5
338
330
32C
100
AcDbEntity
  8
G2-
100
AcDbLine
 10
-3.439424235791193
 20
8.756859472359793
 30
0.0
 11
-0.4971396548535267
 21
9.961321645339012
 31
0.0
  0
ARC
  5
339
330
32C
100
AcDbEntity
  8
G2-
100
AcDbCircle
 10
-0.3077154190632427
 20
9.49859228718833
 30
0.0
 40
0.5
100
AcDbArc
 50
45.0
 51
112.2623725645803
  0
LINE
  5
33A
330
32C
100
AcDbEntity
  8
G2-
100
AcDbLine
 10
-3.750000000000909
 20
8.294130114208201
 30
0.0
 11
-3.750000000000909
 21
7.508787655085143
 31
0.0
  0
ARC
  5
33B
330
32C
100
AcDbEntity
  8
G2-
100
AcDbCircle
 10
-3.250000000000909
 20
8.294130114208201
 30
0.0
 40
0.5
100
AcDbArc
 50
112.2623725645803
 51
180.0
  0
LINE
  5
33C
330
32C
100
AcDbEntity
  8
G2-
100
AcDbLine
 10
0.4142135623724243
 20
9.587323477531754
 30
0.0
 11
1.217066677858384
 21
9.587323477531754
 31
0.0
  0
ARC
  5
33D
330
32C
100
AcDbEntity
  8
G2-
100
AcDbCircle
 10
1.217066677858384
 20
9.087323477531754
 30
0.0
 40
0.5
100
AcDbArc
 50
357.9999999999961
 51
90.0
  0
LINE
  5
33E
330
32C
100
AcDbEntity
  8
G2-
100
AcDbLine
 10
-1.840990257670455
 20
-9.553412181687236
 30
0.0
 11
-1.244891293325054
 21
-9.209254284159215
 31
0.0
  0
ARC
  5
33F
330
32C
100
AcDbEntity
  8
G2-
100
AcDbCircle
 10
-1.119891293325054
 20
-9.42576063510478
 30
0.0
 40
0.25
100
AcDbArc
 50
30.00000000001031
 51
119.9999999999842
  0
LINE
  5
340
330
32C
100
AcDbEntity
  8
G2-
100
AcDbLine
 10
0.5264677689592645
 20
-11.77733817848275
 30
0.0
 11
-0.9033849423785796
 21
-9.30076063510478
 31
0.0
  0
ARC
  5
341
330
32C
100
AcDbEntity
  8
G2-
100
AcDbCircle
 10
0.7429741199057389
 20
-11.65233817848275
 30
0.0
 40
0.25
100
AcDbArc
 50
210.0000000000103
 51
357.9999999999961
  0
LINE
  5
342
330
32C
100
AcDbEntity
  8
G2-
100
AcDbLine
 10
-0.5
 20
7.258787655085143
 30
0.0
 11
-3.500000000000909
 21
7.258787655085143
 31
0.0
  0
ARC
  5
343
330
32C
100
AcDbEntity
  8
G2-
100
AcDbCircle
 10
-3.500000000000909
 20
7.508787655085143
 30
0.0
 40
0.25
100
AcDbArc
 50
180.0
 51
270.0
  0
ENDBLK
  5
344
330
32C
100
AcDbEntity
  8
0
100
AcDbBlockEnd
  0
BLOCK
  5
ADC
330
ADB
100
AcDbEntity
  8
0
100
AcDbBlockBegin
  2
*D16
 70
     1
 10
0.0
 20
0.0
 30
0.0
  3
*D16
  1
*D16
  0
LINE
  5
ADD
330
ADB
100
AcDbEntity
  8
G2-
 62
     0
370
    -2
100
AcDbLine
 10
2283.684350618562
 20
1114.644150199254
 30
0.0
 11
2264.3049686383
 21
1114.644150199254
 31
0.0
  0
LINE
  5
ADE
330
ADB
100
AcDbEntity
  8
G2-
 62
     0
370
    -2
100
AcDbLine
 10
2283.684350618562
 20
1034.644150199254
 30
0.0
 11
2264.3049686383
 21
1034.644150199254
 31
0.0
  0
LINE
  5
ADF
330
ADB
100
AcDbEntity
  8
G2-
 62
     0
370
    -2
100
AcDbLine
 10
2266.8049686383
 20
1107.644150199254
 30
0.0
 11
2266.8049686383
 21
1041.644150199254
 31
0.0
  0
SOLID
  5
AE0
330
ADB
100
AcDbEntity
  8
G2-
 62
     0
100
AcDbTrace
 10
2265.638301971634
 20
1107.644150199254
 30
0.0
 11
2267.971635304967
 21
1107.644150199254
 31
0.0
 12
2266.8049686383
 22
1114.644150199254
 32
0.0
 13
2266.8049686383
 23
1114.644150199254
 33
0.0
  0
SOLID
  5
AE1
330
ADB
100
AcDbEntity
  8
G2-
 62
     0
100
AcDbTrace
 10
2265.638301971634
 20
1041.644150199254
 30
0.0
 11
2267.971635304967
 21
1041.644150199254
 31
0.0
 12
2266.8049686383
 22
1034.644150199254
 32
0.0
 13
2266.8049686383
 23
1034.644150199254
 33
0.0
  0
MTEXT
  5
AE2
330
ADB
100
AcDbEntity
  8
G2-
 62
     1
100
AcDbMText
 10
2261.230957724248
 20
1074.644150199254
 30
0.0
 40
7.0
 41
0.0
 71
     5
 72
     1
  1
\A1;80
 11
6.123233995736766E-17
 21
1.0
 31
0.0
 73
     1
 44
1.0
  0
POINT
  5
AE3
330
ADB
100
AcDbEntity
  8
DEFPOINTS
 62
     0
100
AcDbPoint
 10
2284.934350618562
 20
1114.644150199254
 30
0.0
  0
POINT
  5
AE4
330
ADB
100
AcDbEntity
  8
DEFPOINTS
 62
     0
100
AcDbPoint
 10
2284.934350618562
 20
1034.644150199254
 30
0.0
  0
POINT
  5
AE5
330
ADB
100
AcDbEntity
  8
DEFPOINTS
 62
     0
100
AcDbPoint
 10
2266.8049686383
 20
1034.644150199254
 30
0.0
  0
ENDBLK
  5
AE6
330
ADB
100
AcDbEntity
  8
0
100
AcDbBlockEnd
  0
BLOCK
  5
AE8
330
AE7
100
AcDbEntity
  8
0
100
AcDbBlockBegin
  2
*D17
 70
     1
 10
0.0
 20
0.0
 30
0.0
  3
*D17
  1
*D17
  0
LINE
  5
AE9
330
AE7
100
AcDbEntity
  8
G2-
 62
     0
370
    -2
100
AcDbLine
 10
2284.934350618562
 20
1115.894150199254
 30
0.0
 11
2284.934350618562
 21
1132.221310231717
 31
0.0
  0
LINE
  5
AEA
330
AE7
100
AcDbEntity
  8
G2-
 62
     0
370
    -2
100
AcDbLine
 10
2383.934350618562
 20
1077.154194026699
 30
0.0
 11
2383.934350618562
 21
1132.221310231717
 31
0.0
  0
LINE
  5
AEB
330
AE7
100
AcDbEntity
  8
G2-
 62
     0
370
    -2
100
AcDbLine
 10
2291.934350618562
 20
1129.721310231717
 30
0.0
 11
2376.934350618562
 21
1129.721310231717
 31
0.0
  0
SOLID
  5
AEC
330
AE7
100
AcDbEntity
  8
G2-
 62
     0
100
AcDbTrace
 10
2291.934350618562
 20
1130.887976898384
 30
0.0
 11
2291.934350618562
 21
1128.554643565051
 31
0.0
 12
2284.934350618562
 22
1129.721310231717
 32
0.0
 13
2284.934350618562
 23
1129.721310231717
 33
0.0
  0
SOLID
  5
AED
330
AE7
100
AcDbEntity
  8
G2-
 62
     0
100
AcDbTrace
 10
2376.934350618562
 20
1130.887976898384
 30
0.0
 11
2376.934350618562
 21
1128.554643565051
 31
0.0
 12
2383.934350618562
 22
1129.721310231717
 32
0.0
 13
2383.934350618562
 23
1129.721310231717
 33
0.0
  0
MTEXT
  5
AEE
330
AE7
100
AcDbEntity
  8
G2-
 62
     1
100
AcDbMText
 10
2334.434350618562
 20
1135.295321145769
 30
0.0
 40
7.0
 41
0.0
 71
     5
 72
     1
  1
\A1;99
 73
     1
 44
1.0
  0
POINT
  5
AEF
330
AE7
100
AcDbEntity
  8
DEFPOINTS
 62
     0
100
AcDbPoint
 10
2284.934350618562
 20
1114.644150199254
 30
0.0
  0
POINT
  5
AF0
330
AE7
100
AcDbEntity
  8
DEFPOINTS
 62
     0
100
AcDbPoint
 10
2383.934350618562
 20
1075.904194026699
 30
0.0
  0
POINT
  5
AF1
330
AE7
100
AcDbEntity
  8
DEFPOINTS
 62
     0
100
AcDbPoint
 10
2383.934350618562
 20
1129.721310231717
 30
0.0
  0
ENDBLK
  5
AF2
330
AE7
100
AcDbEntity
  8
0
100
AcDbBlockEnd
  0
BLOCK
  5
B03
330
AF3
100
AcDbEntity
  8
0
100
AcDbBlockBegin
  2
A$C374A0DAF
 70
     0
 10
0.0
 20
0.0
 30
0.0
  3
A$C374A0DAF
  1
A$C374A0DAF
  0
LINE
  5
AF4
330
AF3
100
AcDbEntity
  8
G4-
100
AcDbLine
 10
83.58315171459844
 20
45.32420383105205
 30
0.0
 11
84.43349665271626
 21
69.70459155497133
 31
0.0
  0
ARC
  5
AF5
330
AF3
100
AcDbEntity
  8
G4-
100
AcDbCircle
 10
86.0816324862949
 20
45.23706122687145
 30
0.0
 40
2.5
100
AcDbArc
 50
178.0024339749614
 51
267.9999999999965
  0
ARC
  5
AF6
330
AF3
100
AcDbEntity
  8
G4-
100
AcDbCircle
 10
81.93501588101981
 20
69.79173415914602
 30
0.0
 40
2.500000000000067
100
AcDbArc
 50
358.0024339750915
 51
80.98349825557905
  0
LINE
  5
AF7
330
AF3
100
AcDbEntity
  8
G4-
100
AcDbLine
 10
82.32681318711957
 20
72.26084227154615
 30
0.0
 11
33.55461158733351
 21
80.0000000281459
 31
0.0
  0
LINE
  5
AF8
330
AF3
100
AcDbEntity
  8
G4-
100
AcDbLine
 10
128.1885178146199
 20
33.26347612764607
 30
0.0
 11
128.3342383712193
 21
37.43636689611139
 31
0.0
  0
ARC
  5
AF9
330
AF3
100
AcDbEntity
  8
G4-
100
AcDbCircle
 10
125.6900407471198
 20
33.35072486944614
 30
0.0
 40
2.500000000007566
100
AcDbArc
 50
288.2248594312089
 51
357.9999999989535
  0
LINE
  5
AFA
330
AF3
100
AcDbEntity
  8
G4-
100
AcDbLine
 10
32.54740138611987
 20
0.0501635815460304
 30
0.0
 11
126.4719084020048
 21
30.97613375300466
 31
0.0
  0
ARC
  5
AFB
330
AF3
100
AcDbEntity
  8
G4-
100
AcDbCircle
 10
32.23465432421972
 20
1.000000028145905
 30
0.0
 40
1.0
100
AcDbArc
 50
270.0
 51
288.2248594278637
  0
LINE
  5
AFC
330
AF3
100
AcDbEntity
  8
G4-
100
AcDbLine
 10
29.33423837121927
 20
0.0000000281459052
 30
0.0
 11
29.33423837121927
 21
80.0000000281459
 31
0.0
  0
LINE
  5
AFD
330
AF3
100
AcDbEntity
  8
G4-
100
AcDbLine
 10
29.33423837121927
 20
80.0000000281459
 30
0.0
 11
33.55461158733533
 21
80.00000002814568
 31
0.0
  0
LINE
  5
AFE
330
AF3
100
AcDbEntity
  8
G4-
100
AcDbLine
 10
128.3342383712193
 20
41.26004385559077
 30
0.0
 11
128.3342383712193
 21
37.43636689611867
 31
0.0
  0
LINE
  5
AFF
330
AF3
100
AcDbEntity
  8
G4-
100
AcDbLine
 10
32.23465432421972
 20
0.0000000281456778
 30
0.0
 11
29.33423837121927
 21
0.0000000281456778
 31
0.0
  0
LINE
  5
B00
330
AF3
100
AcDbEntity
  8
G4-
100
AcDbLine
 10
85.99438374453848
 20
42.73858415932341
 30
0.0
 11
128.3342383712193
 21
41.26004385559099
 31
0.0
  0
DIMENSION
  5
B01
330
AF3
100
AcDbEntity
  8
G2-
100
AcDbDimension
  2
*D16
 10
11.20485639095705
 20
0.0000000281456778
 30
0.0
 11
5.630845476904597
 21
40.00000002814613
 31
0.0
 12
-2255.600112247343
 22
-1034.644150171108
 32
0.0
 71
     5
 42
80.00000000000023
  3
STANDARD
100
AcDbAlignedDimension
 13
29.33423837121927
 23
80.0000000281459
 33
0.0
 14
29.33423837121927
 24
0.0000000281456778
 34
0.0
 50
90.0
100
AcDbRotatedDimension
1001
ACAD
1000
DSTYLE
1002
{
1070
    40
1040
2.0
1070
    41
1040
3.5
1070
    42
1040
0.625
1070
    43
1040
10.0
1070
    44
1040
1.25
1070
    45
1040
0.01
1070
    73
1070
     0
1070
    74
1070
     0
1070
    77
1070
     1
1070
    78
1070
     8
1070
   140
1040
3.5
1070
   141
1040
2.5
1070
   143
1040
0.03937
1070
   146
1040
0.7142857142857143
1070
   147
1040
1.0
1070
   172
1070
     1
1070
   178
1070
     1
1070
   179
1070
     2
1070
   271
1070
     2
1070
   272
1070
     2
1070
   284
1070
     8
1002
}
  0
DIMENSION
  5
B02
330
AF3
100
AcDbEntity
  8
G2-
100
AcDbDimension
  2
*D17
 10
128.3342383712193
 20
95.07716006060923
 30
0.0
 11
78.83423837121927
 21
100.651170974661
 31
0.0
 12
-2255.600112247343
 22
-1034.644150171108
 32
0.0
 71
     5
 42
99.0
  3
STANDARD
100
AcDbAlignedDimension
 13
29.33423837121927
 23
80.0000000281459
 33
0.0
 14
128.3342383712193
 24
41.26004385559099
 34
0.0
100
AcDbRotatedDimension
1001
ACAD
1000
DSTYLE
1002
{
1070
    40
1040
2.0
1070
    41
1040
3.5
1070
    42
1040
0.625
1070
    43
1040
10.0
1070
    44
1040
1.25
1070
    45
1040
0.01
1070
    73
1070
     0
1070
    74
1070
     0
1070
    77
1070
     1
1070
    78
1070
     8
1070
   140
1040
3.5
1070
   141
1040
2.5
1070
   143
1040
0.03937
1070
   146
1040
0.7142857142857143
1070
   147
1040
1.0
1070
   172
1070
     1
1070
   178
1070
     1
1070
   179
1070
     2
1070
   271
1070
     2
1070
   272
1070
     2
1070
   284
1070
     8
1002
}
  0
ENDBLK
  5
B04
330
AF3
100
AcDbEntity
  8
0
100
AcDbBlockEnd
  0
BLOCK
  5
B6B
330
B69
100
AcDbEntity
  8
0
100
AcDbBlockBegin
  2
tappo
 70
     0
 10
0.0
 20
0.0
 30
0.0
  3
tappo
  1
tappo
  0
LINE
  5
B6D
330
B69
100
AcDbEntity
  8
0
100
AcDbLine
 10
54.24891334337917
 20
5.32420380290614
 30
0.0
 11
55.09925828149699
 21
29.70459152682542
 31
0.0
  0
ARC
  5
B6E
330
B69
100
AcDbEntity
  8
0
100
AcDbCircle
 10
56.74739411507562
 20
5.237061198725542
 30
0.0
 40
2.5
100
AcDbArc
 50
178.0024339749614
 51
267.9999999999965
  0
ARC
  5
B6F
330
B69
100
AcDbEntity
  8
0
100
AcDbCircle
 10
52.60077750980054
 20
29.79173413100011
 30
0.0
 40
2.500000000000067
100
AcDbArc
 50
358.0024339750915
 51
80.98349825557905
  0
LINE
  5
B70
330
B69
100
AcDbEntity
  8
0
100
AcDbLine
 10
52.9925748159003
 20
32.26084224340025
 30
0.0
 11
4.22037321611424
 21
40.0
 31
0.0
  0
LINE
  5
B71
330
B69
100
AcDbEntity
  8
0
100
AcDbLine
 10
98.85427944340063
 20
-6.736523900499833
 30
0.0
 11
99.0
 21
-2.563633132034511
 31
0.0
  0
ARC
  5
B72
330
B69
100
AcDbEntity
  8
0
100
AcDbCircle
 10
96.35580237590057
 20
-6.649275158699766
 30
0.0
 40
2.500000000007566
100
AcDbArc
 50
288.2248594312089
 51
357.9999999989535
  0
LINE
  5
B73
330
B69
100
AcDbEntity
  8
0
100
AcDbLine
 10
3.213163014900601
 20
-39.94983644659987
 30
0.0
 11
97.13767003078556
 21
-9.023866275141245
 31
0.0
  0
ARC
  5
B74
330
B69
100
AcDbEntity
  8
0
100
AcDbCircle
 10
2.900415953000447
 20
-39.0
 30
0.0
 40
1.0
100
AcDbArc
 50
270.0
 51
288.2248594278637
  0
LINE
  5
B75
330
B69
100
AcDbEntity
  8
0
100
AcDbLine
 10
0.0
 20
-40.0
 30
0.0
 11
0.0
 21
40.0
 31
0.0
  0
LINE
  5
B76
330
B69
100
AcDbEntity
  8
0
100
AcDbLine
 10
0.0
 20
40.0
 30
0.0
 11
4.220373216116059
 21
39.99999999999977
 31
0.0
  0
LINE
  5
B77
330
B69
100
AcDbEntity
  8
0
100
AcDbLine
 10
99.0
 20
1.260043827444861
 30
0.0
 11
99.0
 21
-2.563633132027235
 31
0.0
  0
LINE
  5
B78
330
B69
100
AcDbEntity
  8
0
100
AcDbLine
 10
2.900415953000447
 20
-40.00000000000023
 30
0.0
 11
0.0
 21
-40.00000000000023
 31
0.0
  0
LINE
  5
B79
330
B69
100
AcDbEntity
  8
0
100
AcDbLine
 10
56.66014537331921
 20
2.738584131177504
 30
0.0
 11
99.0
 21
1.260043827445088
 31
0.0
  0
ENDBLK
  5
B6C
330
B69
100
AcDbEntity
  8
0
100
AcDbBlockEnd
  0
BLOCK
  5
1B2F
330
1B2E
100
AcDbEntity
  8
0
100
AcDbBlockBegin
  2
Cartiglio_LOGLI
 70
     2
 10
0.0
 20
0.0
 30
0.0
  3
Cartiglio_LOGLI
  1
Cartiglio_LOGLI
  0
CIRCLE
  5
1B30
330
1B2E
100
AcDbEntity
  8
AM_0
  6
Continuous
 62
     7
370
     0
100
AcDbCircle
 10
190.1857493060501
 20
35.81526299702006
 30
0.0
 40
3.161599999999983
  0
CIRCLE
  5
1B31
330
1B2E
100
AcDbEntity
  8
AM_0
  6
Continuous
 62
     7
370
     0
100
AcDbCircle
 10
190.1857493060501
 20
35.81526299702006
 30
0.0
 40
1.580800000000005
  0
LINE
  5
1B32
330
1B2E
100
AcDbEntity
  8
0
  6
Continuous
 62
     7
370
     0
100
AcDbLine
 10
81.75428800339682
 20
40.79362689436275
 30
0.0
 11
81.75428800339682
 21
20.29362689436275
 31
0.0
  0
LINE
  5
1B33
330
1B2E
100
AcDbEntity
  8
0
  6
Continuous
 62
     7
370
     0
100
AcDbLine
 10
10.05750382674043
 20
62.79362689436278
 30
0.0
 11
199.9993536041077
 21
62.79362689436277
 31
0.0
  0
LINE
  5
1B34
330
1B2E
100
AcDbEntity
  8
0
  6
Continuous
 62
     7
370
     0
100
AcDbLine
 10
99.09500948832735
 20
40.79362689436275
 30
0.0
 11
99.09500948832735
 21
20.29362689436275
 31
0.0
  0
LINE
  5
1B35
330
1B2E
100
AcDbEntity
  8
0
  6
Continuous
 62
     7
370
     0
100
AcDbLine
 10
81.75428800339682
 20
30.03591868753819
 30
0.0
 11
101.2079193515834
 21
30.03591868753819
 31
0.0
  0
LINE
  5
1B36
330
1B2E
100
AcDbEntity
  8
0
  6
Continuous
 62
     7
370
     0
100
AcDbLine
 10
101.2079193515834
 20
30.03591868753819
 30
0.0
 11
120.66155069977
 21
30.03591868753819
 31
0.0
  0
LINE
  5
1B37
330
1B2E
100
AcDbEntity
  8
0
  6
Continuous
 62
     7
370
     0
100
AcDbLine
 10
10.05750382674043
 20
20.29362689436275
 30
0.0
 11
120.66155069977
 21
20.29362689436275
 31
0.0
  0
LINE
  5
1B38
330
1B2E
100
AcDbEntity
  8
0
  6
Continuous
 62
     7
370
     0
100
AcDbLine
 10
173.8542083507524
 20
51.79362689436276
 30
0.0
 11
199.9993536041077
 21
51.79362689436276
 31
0.0
  0
LINE
  5
1B39
330
1B2E
100
AcDbEntity
  8
0
  6
Continuous
 62
     7
370
     0
100
AcDbLine
 10
9.999000000000024
 20
10.79362689436274
 30
0.0
 11
199.999
 21
10.79362689436274
 31
0.0
  0
LINE
  5
1B3A
330
1B2E
100
AcDbEntity
  8
AM_0
  6
Continuous
 62
     7
370
    15
100
AcDbLine
 10
10.05750382674043
 20
73.79362689436273
 30
0.0
 11
199.9993536041077
 21
73.79362689436277
 31
0.0
  0
LINE
  5
1B3B
330
1B2E
100
AcDbEntity
  8
AM_0
  6
Continuous
 62
     7
370
     0
100
AcDbLine
 10
120.66155069977
 20
40.79362689436275
 30
0.0
 11
199.9975283989074
 21
40.79362689436275
 31
0.0
  0
LINE
  5
1B3C
330
1B2E
100
AcDbEntity
  8
AM_0
  6
Continuous
 62
     7
370
     0
100
AcDbLine
 10
120.66155069977
 20
20.29362689436275
 30
0.0
 11
199.99989296877
 21
20.29362689436275
 31
0.0
  0
LINE
  5
1B3D
330
1B2E
100
AcDbEntity
  8
AM_0
  6
Continuous
 62
     7
370
    40
100
AcDbLine
 10
120.66155069977
 20
29.79362689436275
 30
0.0
 11
199.9993536041077
 21
29.79362689436274
 31
0.0
  0
LINE
  5
1B3E
330
1B2E
100
AcDbEntity
  8
AM_0
  6
Continuous
 62
     7
370
    40
100
AcDbLine
 10
120.66155069977
 20
10.79362689436274
 30
0.0
 11
120.66155069977
 21
29.79362689436275
 31
0.0
  0
LINE
  5
1B3F
330
1B2E
100
AcDbEntity
  8
0
  6
Continuous
 62
     7
370
     0
100
AcDbLine
 10
134.3171137816809
 20
40.79362689436278
 30
0.0
 11
134.3171137816809
 21
73.79362689436277
 31
0.0
  0
LINE
  5
1B40
330
1B2E
100
AcDbEntity
  8
AM_0
  6
Continuous
 62
     7
370
     0
100
AcDbLine
 10
134.3171137816809
 20
51.7936268943628
 30
0.0
 11
10.05750382674042
 21
51.7936268943628
 31
0.0
  0
LINE
  5
1B41
330
1B2E
100
AcDbEntity
  8
AM_0
  6
Continuous
 62
     7
370
     0
100
AcDbLine
 10
10.05750382674043
 20
40.79362689436275
 30
0.0
 11
120.66155069977
 21
40.79362689436275
 31
0.0
  0
LINE
  5
1B42
330
1B2E
100
AcDbEntity
  8
AM_0
  6
Continuous
 62
     7
370
    40
100
AcDbLine
 10
199.9993536041077
 20
10.79362689436275
 30
0.0
 11
199.9993536041077
 21
29.79362689436274
 31
0.0
  0
LINE
  5
1B43
330
1B2E
100
AcDbEntity
  8
0
  6
Continuous
 62
     7
370
     0
100
AcDbLine
 10
10.01000802796892
 20
10.79362689436274
 30
0.0
 11
200.0100080279688
 21
10.79362689436274
 31
0.0
  0
LINE
  5
1B44
330
1B2E
100
AcDbEntity
  8
AM_0
  6
Continuous
 62
     7
370
     0
100
AcDbLine
 10
190.1857493060501
 20
32.07126299702009
 30
0.0
 11
190.1857493060501
 21
39.89206299702005
 31
0.0
  0
LINE
  5
1B45
330
1B2E
100
AcDbEntity
  8
0
  6
Continuous
 62
     7
370
     0
100
AcDbLine
 10
81.75428800339682
 20
51.7936268943628
 30
0.0
 11
81.75428800339682
 21
73.79362689436273
 31
0.0
  0
LINE
  5
1B46
330
1B2E
100
AcDbEntity
  8
AM_0
  6
Continuous
 62
     7
370
     0
100
AcDbLine
 10
179.1201493060504
 20
34.23446299702007
 30
0.0
 11
184.6529493060499
 21
32.65366299702001
 31
0.0
  0
LINE
  5
1B47
330
1B2E
100
AcDbEntity
  8
AM_0
  6
Continuous
 62
     7
370
     0
100
AcDbLine
 10
179.1201493060504
 20
37.39606299702016
 30
0.0
 11
184.6529493060499
 21
38.97686299702032
 31
0.0
  0
LINE
  5
1B48
330
1B2E
100
AcDbEntity
  8
AM_0
  6
Continuous
 62
     7
370
     0
100
AcDbLine
 10
195.1777493060499
 20
35.81526299702006
 30
0.0
 11
178.2881493060503
 21
35.81526299702006
 31
0.0
  0
LINE
  5
1B49
330
1B2E
100
AcDbEntity
  8
AM_0
  6
Continuous
 62
     7
370
     0
100
AcDbLine
 10
179.1201493060504
 20
34.23446299702007
 30
0.0
 11
179.1201493060504
 21
37.39606299702016
 31
0.0
  0
LINE
  5
1B4A
330
1B2E
100
AcDbEntity
  8
AM_0
  6
Continuous
 62
     7
370
     0
100
AcDbLine
 10
184.6529493060499
 20
32.65366299702001
 30
0.0
 11
184.6529493060499
 21
38.97686299702032
 31
0.0
  0
LINE
  5
1B4B
330
1B2E
100
AcDbEntity
  8
AM_0
  6
Continuous
 62
     7
370
    15
100
AcDbLine
 10
199.9993536041077
 20
29.79362689436274
 30
0.0
 11
199.9993536041077
 21
73.79362689436277
 31
0.0
  0
LINE
  5
1B4C
330
1B2E
100
AcDbEntity
  8
AM_0
  6
Continuous
 62
     7
370
     0
100
AcDbLine
 10
173.8542083507524
 20
40.79362689436275
 30
0.0
 11
173.8542083507524
 21
62.79362689436278
 31
0.0
  0
LINE
  5
1B4D
330
1B2E
100
AcDbEntity
  8
0
  6
Continuous
 62
     7
370
     0
100
AcDbLine
 10
120.66155069977
 20
29.79362689436275
 30
0.0
 11
120.66155069977
 21
40.79362689436275
 31
0.0
  0
LINE
  5
1B4E
330
1B2E
100
AcDbEntity
  8
AM_0
  6
Continuous
 62
     7
370
     0
100
AcDbLine
 10
134.3171137816809
 20
29.79362689436275
 30
0.0
 11
134.3171137816809
 21
40.79362689436278
 31
0.0
  0
LINE
  5
1B4F
330
1B2E
100
AcDbEntity
  8
AM_0
 62
     7
370
    40
100
AcDbLine
 10
199.9993536041077
 20
10.79362689436275
 30
0.0
 11
120.66155069977
 21
10.79362689436274
 31
0.0
  0
LINE
  5
1B50
330
1B2E
100
AcDbEntity
  8
AM_0
 62
     7
370
    15
100
AcDbLine
 10
10.05750382674042
 20
10.79362689436274
 30
0.0
 11
10.05750382674043
 21
73.79362689436273
 31
0.0
  0
LINE
  5
1B51
330
1B2E
100
AcDbEntity
  8
AM_0
 62
     7
370
     0
100
AcDbLine
 10
154.3913576097292
 20
62.79362689436275
 30
0.0
 11
154.3913576097292
 21
73.79362689436273
 31
0.0
  0
LINE
  5
1B52
330
1B2E
100
AcDbEntity
  8
AM_0
 62
     7
370
     0
100
AcDbLine
 10
154.3913576097292
 20
40.79362689436275
 30
0.0
 11
154.3913576097292
 21
29.79362689436275
 31
0.0
  0
LINE
  5
1B53
330
1B2E
100
AcDbEntity
  8
AM_0
 62
     7
370
     0
100
AcDbLine
 10
173.8542083507524
 20
40.79362689436275
 30
0.0
 11
173.8542083507524
 21
29.79362689436275
 31
0.0
  0
LINE
  5
1B54
330
1B2E
100
AcDbEntity
  8
AM_0
 62
     7
370
    15
100
AcDbLine
 10
120.66155069977
 20
10.79362689436274
 30
0.0
 11
10.05750382674042
 21
10.79362689436274
 31
0.0
  0
MTEXT
  5
1B55
330
1B2E
100
AcDbEntity
  8
AM_6
100
AcDbMText
 10
161.9556181890437
 20
34.82461379994388
 30
0.0
 40
2.5
 41
0.0
 71
     1
 72
     1
  1
DI
  7
SLDTEXTSTYLE0
 73
     1
 44
1.0
  0
MTEXT
  5
1B56
330
1B2E
100
AcDbEntity
  8
AM_6
100
AcDbMText
 10
174.6176620804816
 20
51.18054457522818
 30
0.0
 40
1.425
 41
0.0
 71
     1
 72
     1
  1
Raggi non quotati
  7
SLDTEXTSTYLE0
 73
     1
 44
1.0
  0
MTEXT
  5
1B57
330
1B2E
100
AcDbEntity
  8
AM_6
100
AcDbMText
 10
155.2031880542073
 20
73.30734780904474
 30
0.0
 40
1.5
 41
0.0
 71
     1
 72
     1
  1
Quote senza indicazione di tolleranza
  7
SLDTEXTSTYLE0
 73
     1
 44
1.0
  0
MTEXT
  5
1B58
330
1B2E
100
AcDbEntity
  8
AM_6
100
AcDbMText
 10
174.6176620804815
 20
62.19451791714685
 30
0.0
 40
1.425
 41
0.0
 71
     1
 72
     1
  1
Smussi non quotati
  7
SLDTEXTSTYLE0
 73
     1
 44
1.0
  0
MTEXT
  5
1B59
330
1B2E
100
AcDbEntity
  8
AM_6
100
AcDbMText
 10
121.9147226226804
 20
19.78435853427898
 30
0.0
 40
1.425
 41
0.0
 71
     1
 72
     1
  1
Revisione
  7
SLDTEXTSTYLE0
 73
     1
 44
1.0
  0
MTEXT
  5
1B5A
330
1B2E
100
AcDbEntity
  8
AM_6
100
AcDbMText
 10
121.6068405585682
 20
39.68313351027974
 30
0.0
 40
1.425
 41
0.0
 71
     1
 72
     1
  1
Formato
  7
SLDTEXTSTYLE0
 73
     1
 44
1.0
  0
MTEXT
  5
1B5B
330
1B2E
100
AcDbEntity
  8
AM_6
100
AcDbMText
 10
154.9726654818168
 20
39.68313351027982
 30
0.0
 40
1.425
 41
0.0
 71
     1
 72
     1
  1
Tavola
  7
SLDTEXTSTYLE0
 73
     1
 44
1.0
  0
MTEXT
  5
1B5C
330
1B2E
100
AcDbEntity
  8
AM_6
100
AcDbMText
 10
135.2342667256007
 20
39.68313351027968
 30
0.0
 40
1.425
 41
0.0
 71
     1
 72
     1
  1
Scala
  7
SLDTEXTSTYLE0
 73
     1
 44
1.0
  0
MTEXT
  5
1B5D
330
1B2E
100
AcDbEntity
  8
AM_6
100
AcDbMText
 10
135.0613971553752
 20
62.19451791714685
 30
0.0
 40
1.425
 41
0.0
 71
     1
 72
     1
  1
Rug.Ra
  7
SLDTEXTSTYLE0
 73
     1
 44
1.0
  0
MTEXT
  5
1B5E
330
1B2E
100
AcDbEntity
  8
AM_6
100
AcDbMText
 10
135.0613971553751
 20
73.30734780904449
 30
0.0
 40
1.5
 41
0.0
 71
     1
 72
     1
  1
Peso (kg)
  7
SLDTEXTSTYLE0
 73
     1
 44
1.0
  0
MTEXT
  5
1B5F
330
1B2E
100
AcDbEntity
  8
AM_6
100
AcDbMText
 10
121.6068405585683
 20
29.23863695688696
 30
0.0
 40
1.425
 41
0.0
 71
     1
 72
     1
  1
Codice Disengo
  7
SLDTEXTSTYLE0
 73
     1
 44
1.0
  0
MTEXT
  5
1B60
330
1B2E
100
AcDbEntity
  8
AM_6
100
AcDbMText
 10
11.01334364656004
 20
73.30734780904457
 30
0.0
 40
1.5
 41
0.0
 71
     1
 72
     1
  1
Materiale
  7
SLDTEXTSTYLE0
 73
     1
 44
1.0
  0
MTEXT
  5
1B61
330
1B2E
100
AcDbEntity
  8
AM_6
100
AcDbMText
 10
11.34046060203378
 20
50.82856159173391
 30
0.0
 40
1.852083333333333
 41
0.0
 71
     1
 72
     1
  1
Descrizione
  7
SLDTEXTSTYLE0
 73
     1
 44
1.0
  0
MTEXT
  5
1B62
330
1B2E
100
AcDbEntity
  8
AM_6
100
AcDbMText
 10
11.01334364656004
 20
62.26921884307644
 30
0.0
 40
1.5
 41
0.0
 71
     1
 72
     1
  1
Trattamento
  7
SLDTEXTSTYLE0
 73
     1
 44
1.0
  0
MTEXT
  5
1B63
330
1B2E
100
AcDbEntity
  8
AM_6
100
AcDbMText
 10
82.57608413574482
 20
62.26921884307643
 30
0.0
 40
1.5
 41
0.0
 71
     1
 72
     1
  1
Codice commerciale
  7
SLDTEXTSTYLE0
 73
     1
 44
1.0
  0
MTEXT
  5
1B64
330
1B2E
100
AcDbEntity
  8
AM_6
100
AcDbMText
 10
82.57608413574482
 20
73.30734780904451
 30
0.0
 40
1.5
 41
0.0
 71
     1
 72
     1
  1
Lunghezza
  7
SLDTEXTSTYLE0
 73
     1
 44
1.0
  0
INSERT
  5
1B65
330
1B2E
100
AcDbEntity
  8
AM_6
100
AcDbBlockReference
  2
SW_NOTE_0
 10
11.01334364655992
 20
16.87960109549789
 30
0.0
  0
MTEXT
  5
1B66
330
1B2E
100
AcDbEntity
  8
AM_6
100
AcDbMText
 10
82.30416491960271
 20
39.75783443620939
 30
0.0
 40
1.5
 41
0.0
 71
     1
 72
     1
  1
Disegnato
  7
SLDTEXTSTYLE0
 73
     1
 44
1.0
  0
MTEXT
  5
1B67
330
1B2E
100
AcDbEntity
  8
AM_6
100
AcDbMText
 10
100.1040607135278
 20
39.75783443620938
 30
0.0
 40
1.5
 41
0.0
 71
     1
 72
     1
  1
Data disegnato
  7
SLDTEXTSTYLE0
 73
     1
 44
1.0
  0
MTEXT
  5
1B68
330
1B2E
100
AcDbEntity
  8
AM_6
100
AcDbMText
 10
82.35028992969993
 20
29.31333788281646
 30
0.0
 40
1.5
 41
0.0
 71
     1
 72
     1
  1
Controllato
  7
SLDTEXTSTYLE0
 73
     1
 44
1.0
  0
MTEXT
  5
1B69
330
1B2E
100
AcDbEntity
  8
AM_6
100
AcDbMText
 10
100.1040607135279
 20
29.31333788281657
 30
0.0
 40
1.5
 41
0.0
 71
     1
 72
     1
  1
Data controllato
  7
SLDTEXTSTYLE0
 73
     1
 44
1.0
  0
INSERT
  5
1B6A
330
1B2E
100
AcDbEntity
  8
AM_6
100
AcDbBlockReference
  2
SW_NOTE_1
 10
35.97918612063808
 20
29.03723901590279
 30
0.0
  0
ATTDEF
  5
1B6B
330
1B2E
100
AcDbEntity
  8
AM_0
 62
   179
100
AcDbText
 10
11.86644099234277
 20
66.63411216512424
 30
0.0
 40
3.0
  1
Alluminio
 41
0.75
  7
SLDTEXTSTYLE0
 11
11.86644099234277
 21
65.63411216512424
 31
0.0
100
AcDbAttributeDefinition
  3

  2
A-MATERIALE
 70
     0
 74
     1
  0
ATTDEF
  5
1B6C
330
1B2E
100
AcDbEntity
  8
AM_0
 62
   179
100
AcDbText
 10
166.9474105390386
 20
32.49622387859854
 30
0.0
 40
3.5
  1
1
 41
0.75
  7
SLDTEXTSTYLE0
 11
166.9474105390386
 21
31.32955721193187
 31
0.0
100
AcDbAttributeDefinition
  3

  2
AUTOATTR0
 70
     0
 74
     1
  0
ATTDEF
  5
1B6D
330
1B2E
100
AcDbEntity
  8
AM_0
 62
   179
100
AcDbText
 10
157.9729596489969
 20
32.47555556791667
 30
0.0
 40
3.5
  1
1 
 41
0.75
  7
SLDTEXTSTYLE0
 11
157.9729596489969
 21
31.30888890125
 31
0.0
100
AcDbAttributeDefinition
  3

  2
AUTOATTR1
 70
     0
 74
     1
  0
ATTDEF
  5
1B6E
330
1B2E
100
AcDbEntity
  8
AM_0
 62
   179
100
AcDbText
 10
139.9598952373898
 20
32.64664250469202
 30
0.0
 40
3.5
  1
1:1
 41
0.75
  7
SLDTEXTSTYLE0
 11
139.9598952373898
 21
31.47997583802536
 31
0.0
100
AcDbAttributeDefinition
  3

  2
AUTOATTR2
 70
     0
 74
     1
  0
ATTDEF
  5
1B6F
330
1B2E
100
AcDbEntity
  8
AM_0
 62
   179
100
AcDbText
 10
123.8211898714007
 20
32.64664250469202
 30
0.0
 40
3.5
  1
A3
 41
0.75
  7
SLDTEXTSTYLE0
 11
123.8211898714007
 21
31.47997583802536
 31
0.0
100
AcDbAttributeDefinition
  3

  2
AUTOATTR3
 70
     0
 74
     1
  0
ATTDEF
  5
1B70
330
1B2E
100
AcDbEntity
  8
AM_0
 62
   179
100
AcDbText
 10
0.0
 20
0.0
 30
0.0
 40
1.0
  1

100
AcDbAttributeDefinition
  3

  2
A-TRATTAMENTO
 70
     0
  0
ATTDEF
  5
1B71
330
1B2E
100
AcDbEntity
  8
AM_0
 62
   179
100
AcDbText
 10
0.0
 20
0.0
 30
0.0
 40
1.0
  1

100
AcDbAttributeDefinition
  3

  2
A-SMUSSI
 70
     0
  0
ATTDEF
  5
1B72
330
1B2E
100
AcDbEntity
  8
AM_0
 62
   179
100
AcDbText
 10
0.0
 20
0.0
 30
0.0
 40
1.0
  1

100
AcDbAttributeDefinition
  3

  2
A-RAGGI
 70
     0
  0
ATTDEF
  5
1B73
330
1B2E
100
AcDbEntity
  8
AM_0
 62
   179
100
AcDbText
 10
0.0
 20
0.0
 30
0.0
 40
1.0
  1

100
AcDbAttributeDefinition
  3

  2
A-PESO
 70
     0
  0
ATTDEF
  5
1B74
330
1B2E
100
AcDbEntity
  8
AM_0
 62
   179
100
AcDbText
 10
156.2777617470143
 20
65.76076417311405
 30
0.0
 40
3.0
  1
ISO 2768-mK
 41
0.75
  7
SLDTEXTSTYLE0
 11
156.2777617470143
 21
64.76076417311405
 31
0.0
100
AcDbAttributeDefinition
  3

  2
A_TOLLERANZE
 70
     0
 74
     1
  0
ATTDEF
  5
1B75
330
1B2E
100
AcDbEntity
  8
AM_0
 62
   179
100
AcDbText
 10
125.1406816131462
 20
13.22126303671483
 30
0.0
 40
3.5
  1
0
 41
0.75
  7
SLDTEXTSTYLE0
 11
125.1406816131462
 21
12.05459637004816
 31
0.0
100
AcDbAttributeDefinition
  3

  2
A-REV
 70
     0
 74
     1
  0
ATTDEF
  5
1B76
330
1B2E
100
AcDbEntity
  8
AM_0
 62
   179
100
AcDbText
 10
124.9434159908007
 20
22.36029204097305
 30
0.0
 40
3.5
  1
DF450
 41
0.75
  7
SLDTEXTSTYLE0
 11
124.9434159908007
 21
21.19362537430638
 31
0.0
100
AcDbAttributeDefinition
  3

  2
$PRP:"SW-FILE_NAME"
 70
     0
 74
     1
  0
ATTDEF
  5
1B77
330
1B2E
100
AcDbEntity
  8
AM_0
 62
   179
100
AcDbText
 10
0.0
 20
0.0
 30
0.0
 40
1.0
  1

100
AcDbAttributeDefinition
  3

  2
A_DATA_DISEGNATO
 70
     0
  0
ATTDEF
  5
1B78
330
1B2E
100
AcDbEntity
  8
AM_0
 62
   179
100
AcDbText
 10
83.98999055971181
 20
33.51598598601313
 30
0.0
 40
2.4
  1
AT
 41
0.75
  7
SLDTEXTSTYLE0
 11
83.98999055971181
 21
32.71598598601314
 31
0.0
100
AcDbAttributeDefinition
  3

  2
A_DISEGNATO
 70
     0
 74
     1
  0
ATTDEF
  5
1B79
330
1B2E
100
AcDbEntity
  8
AM_0
 62
   179
100
AcDbText
 10
0.0
 20
0.0
 30
0.0
 40
1.0
  1

100
AcDbAttributeDefinition
  3

  2
A_VERIFICATO
 70
     0
  0
ATTDEF
  5
1B7A
330
1B2E
100
AcDbEntity
  8
AM_0
 62
   179
100
AcDbText
 10
0.0
 20
0.0
 30
0.0
 40
1.0
  1

100
AcDbAttributeDefinition
  3

  2
A_DATA_VERIFICATO
 70
     0
  0
ATTDEF
  5
1B7B
330
1B2E
100
AcDbEntity
  8
0
  6
Continuous
 62
     7
370
     0
100
AcDbText
 10
12.30274678242527
 20
43.49416139362332
 30
0.0
 40
3.704166666666666
  1
Defender 450
 41
0.75
  7
SLDTEXTSTYLE0
 11
12.30274678242527
 21
42.25943917140109
 31
0.0
100
AcDbAttributeDefinition
  3

  2
A-DESCRIZIONE
 70
     0
 74
     1
  0
ATTDEF
  5
1B7C
330
1B2E
100
AcDbEntity
  8
AM_0
 62
   179
100
AcDbText
 10
0.0
 20
0.0
 30
0.0
 40
1.0
  1

100
AcDbAttributeDefinition
  3

  2
A-LUNGHEZZA
 70
     0
  0
ATTDEF
  5
1B7D
330
1B2E
100
AcDbEntity
  8
AM_0
 62
   179
100
AcDbText
 10
0.0
 20
0.0
 30
0.0
 40
1.0
  1

100
AcDbAttributeDefinition
  3

  2
A-COD_COM
 70
     0
  0
INSERT
  5
1B7E
330
1B2E
100
AcDbEntity
  8
AM_0
100
AcDbBlockReference
  2
logo_lm_pieno
 10
13.58687099642209
 20
24.07950309572262
 30
0.0
 41
0.25
 42
0.25
 43
0.25
  0
ENDBLK
  5
1B7F
330
1B2E
100
AcDbEntity
  8
0
100
AcDbBlockEnd
  0
BLOCK
  5
1B82
330
1B80
100
AcDbEntity
  8
0
100
AcDbBlockBegin
  2
SW_NOTE_0
 70
     0
 10
0.0
 20
0.0
 30
0.0
  3
SW_NOTE_0
  1
SW_NOTE_0
  0
MTEXT
  5
1B83
330
1B80
100
AcDbEntity
  8
AM_6
 62
     0
100
AcDbMText
 10
0.0
 20
1.804694835680749
 30
0.0
 40
1.4
 41
0.0
 71
     1
 72
     1
  1
Proprietà di LOGLI MASSIMO S.P.A. Unipersonale
  7
SLDTEXTSTYLE0
 73
     1
 44
1.0
  0
MTEXT
  5
1B84
330
1B80
100
AcDbEntity
  8
AM_6
 62
     0
100
AcDbMText
 10
0.0
 20
-0.5953052783131338
 30
0.0
 40
1.25
 41
118.9662074374188
 71
     1
 72
     1
  1
Senza autorizzazione scritta della stessa il presente non potrà comunque essere utilizzato per la costruzione dell'oggetto rappresentato nè venire comunicato a terzi o riprodotto.  La società proprietaria tutela i propri diritti a norma di legge.
  7
SLDTEXTSTYLE0
 73
     1
 44
1.0
  0
ENDBLK
  5
1B85
330
1B80
100
AcDbEntity
  8
0
100
AcDbBlockEnd
  0
BLOCK
  5
1B88
330
1B86
100
AcDbEntity
  8
0
100
AcDbBlockBegin
  2
SW_NOTE_1
 70
     0
 10
0.0
 20
0.0
 30
0.0
  3
SW_NOTE_1
  1
SW_NOTE_1
  0
MTEXT
  5
1B89
330
1B86
100
AcDbEntity
  8
linee
100
AcDbMText
 10
0.0
 20
6.445338698859826
 30
0.0
 40
5.0
 41
0.0
 71
     1
 72
     1
  1
LOGLI
  7
SLDTEXTSTYLE0
 73
     1
 44
1.0
  0
MTEXT
  5
1B8A
330
1B86
100
AcDbEntity
  8
linee
100
AcDbMText
 10
0.0
 20
-0.0199389357012358
 30
0.0
 40
5.0
 41
0.0
 71
     1
 72
     1
  1
MASSIMO
  7
SLDTEXTSTYLE0
 73
     1
 44
1.0
  0
ENDBLK
  5
1B8B
330
1B86
100
AcDbEntity
  8
0
100
AcDbBlockEnd
  0
BLOCK
  5
1B8E
330
1B8C
100
AcDbEntity
  8
0
100
AcDbBlockBegin
  2
logo_lm_pieno
 70
     0
 10
0.0
 20
0.0
 30
0.0
  3
logo_lm_pieno
  1
logo_lm_pieno
  0
LINE
  5
1B8F
330
1B8C
100
AcDbEntity
  8
0
  6
Continuous
 62
   179
370
     0
100
AcDbLine
 10
48.08912862247397
 20
47.63958903894379
 30
0.0
 11
41.81451988295371
 21
55.94820153222076
 31
0.0
  0
LINE
  5
1B90
330
1B8C
100
AcDbEntity
  8
0
  6
Continuous
 62
   179
370
     0
100
AcDbLine
 10
41.81451988295371
 20
55.94820153222076
 30
0.0
 11
0.0000000000000035
 21
-0.0000000000000021
 31
0.0
  0
LINE
  5
1B91
330
1B8C
100
AcDbEntity
  8
0
  6
Continuous
 62
   179
370
     0
100
AcDbLine
 10
0.0000000000000035
 20
-0.0000000000000021
 30
0.0
 11
84.00741917140157
 21
-0.0000000000000021
 31
0.0
  0
LINE
  5
1B92
330
1B8C
100
AcDbEntity
  8
0
  6
Continuous
 62
   179
370
     0
100
AcDbLine
 10
84.00741917140157
 20
-0.0000000000000021
 30
0.0
 11
76.45400119419931
 21
10.02087277269504
 31
0.0
  0
LINE
  5
1B93
330
1B8C
100
AcDbEntity
  8
0
  6
Continuous
 62
   179
370
     0
100
AcDbLine
 10
76.45400119419931
 20
10.02087277269504
 30
0.0
 11
19.97368404682746
 21
10.02087277269503
 31
0.0
  0
LINE
  5
1B94
330
1B8C
100
AcDbEntity
  8
0
  6
Continuous
 62
   179
370
     0
100
AcDbLine
 10
19.97368404682746
 20
10.02087277269503
 30
0.0
 11
48.08912862247397
 21
47.63958903894379
 31
0.0
  0
LINE
  5
1B95
330
1B8C
100
AcDbEntity
  8
0
  6
Continuous
 62
    30
100
AcDbLine
 10
55.6579833277633
 20
37.61112645917149
 30
0.0
 11
50.64524334652425
 21
44.2632570934038
 31
0.0
  0
LINE
  5
1B96
330
1B8C
100
AcDbEntity
  8
0
  6
Continuous
 62
   179
370
     0
100
AcDbLine
 10
50.64524334652425
 20
44.2632570934038
 30
0.0
 11
27.9777992922409
 21
14.0
 31
0.0
  0
LINE
  5
1B97
330
1B8C
100
AcDbEntity
  8
0
  6
Continuous
 62
   179
370
     0
100
AcDbLine
 10
27.9777992922409
 20
14.0
 30
0.0
 11
37.97304325604365
 21
14.0
 31
0.0
  0
LINE
  5
1B98
330
1B8C
100
AcDbEntity
  8
0
  6
Continuous
 62
    30
100
AcDbLine
 10
37.97304325604365
 20
14.0
 30
0.0
 11
55.6579833277633
 21
37.61112645917149
 31
0.0
  0
LINE
  5
1B99
330
1B8C
100
AcDbEntity
  8
0
  6
Continuous
 62
    30
100
AcDbLine
 10
63.17709329962099
 20
27.63293050782295
 30
0.0
 11
58.16435331838237
 21
34.28506114205527
 31
0.0
  0
LINE
  5
1B9A
330
1B8C
100
AcDbEntity
  8
0
  6
Continuous
 62
    30
100
AcDbLine
 10
58.16435331838237
 20
34.28506114205527
 30
0.0
 11
42.97066523794501
 21
14.0
 31
0.0
  0
LINE
  5
1B9B
330
1B8C
100
AcDbEntity
  8
0
  6
Continuous
 62
   179
370
     0
100
AcDbLine
 10
42.97066523794501
 20
14.0
 30
0.0
 11
52.96590920174776
 21
14.0
 31
0.0
  0
LINE
  5
1B9C
330
1B8C
100
AcDbEntity
  8
0
  6
Continuous
 62
   179
370
     0
100
AcDbLine
 10
52.96590920174776
 20
14.0
 30
0.0
 11
63.17709329962099
 21
27.63293050782295
 31
0.0
  0
LINE
  5
1B9D
330
1B8C
100
AcDbEntity
  8
0
  6
Continuous
 62
   179
370
     0
100
AcDbLine
 10
65.68346329024052
 20
24.30686519070673
 30
0.0
 11
57.96353118364915
 21
14.0
 31
0.0
  0
LINE
  5
1B9E
330
1B8C
100
AcDbEntity
  8
0
  6
Continuous
 62
   179
370
     0
100
AcDbLine
 10
57.96353118364915
 20
14.0
 30
0.0
 11
73.45024329856098
 21
14.0
 31
0.0
  0
LINE
  5
1B9F
330
1B8C
100
AcDbEntity
  8
0
  6
Continuous
 62
    30
100
AcDbLine
 10
73.45024329856098
 20
14.0
 30
0.0
 11
65.68346329024052
 21
24.30686519070673
 31
0.0
  0
HATCH
  5
1BA0
330
1B8C
100
AcDbEntity
  8
AM_0
100
AcDbHatch
 10
0.0
 20
0.0
 30
0.0
210
0.0
220
0.0
230
1.0
  2
SOLID
 70
     1
 71
     0
 91
        1
 92
        0
 93
        6
 72
     1
 10
19.97368404682746
 20
10.02087277269503
 11
48.08912862247397
 21
47.63958903894379
 72
     1
 10
48.08912862247397
 20
47.63958903894379
 11
41.81451988295371
 21
55.94820153222076
 72
     1
 10
41.81451988295371
 20
55.94820153222076
 11
0.0
 21
0.0
 72
     1
 10
0.0000000000000035
 20
-0.0000000000000021
 11
84.00741917140157
 21
-0.0000000000000021
 72
     1
 10
84.00741917140157
 20
-0.0000000000000021
 11
76.45400119419931
 21
10.02087277269504
 72
     1
 10
76.45400119419931
 20
10.02087277269504
 11
19.97368404682746
 21
10.02087277269503
 97
        0
 75
     0
 76
     1
 98
        1
 10
0.0
 20
0.0
  0
HATCH
  5
1BA1
330
1B8C
100
AcDbEntity
  8
0
  6
Continuous
 62
    30
100
AcDbHatch
 10
0.0
 20
0.0
 30
0.0
210
0.0
220
0.0
230
1.0
  2
SOLID
 70
     1
 71
     0
 91
        1
 92
        0
 93
        3
 72
     1
 10
57.96353118364915
 20
13.99999999999999
 11
73.45024329856098
 21
14.0
 72
     1
 10
73.45024329856098
 20
14.0
 11
65.68346329024052
 21
24.30686519070673
 72
     1
 10
65.68346329024052
 20
24.30686519070673
 11
57.96353118364915
 21
13.99999999999999
 97
        0
 75
     0
 76
     1
 98
        1
 10
0.0
 20
0.0
1001
ACAD
1010
0.0
1020
0.0
1030
0.0
  0
HATCH
  5
1BA2
330
1B8C
100
AcDbEntity
  8
0
  6
Continuous
 62
    30
100
AcDbHatch
 10
0.0
 20
0.0
 30
0.0
210
0.0
220
0.0
230
1.0
  2
SOLID
 70
     1
 71
     0
 91
        1
 92
        0
 93
        4
 72
     1
 10
42.97066523794502
 20
14.0
 11
52.96590920174776
 21
14.0
 72
     1
 10
52.96590920174776
 20
14.0
 11
63.177093299621
 21
27.63293050782295
 72
     1
 10
63.177093299621
 20
27.63293050782295
 11
58.16435331838238
 21
34.28506114205527
 72
     1
 10
58.16435331838238
 20
34.28506114205527
 11
42.97066523794502
 21
14.0
 97
        0
 75
     0
 76
     1
 98
        1
 10
0.0
 20
0.0
1001
ACAD
1010
0.0
1020
0.0
1030
0.0
  0
HATCH
  5
1BA3
330
1B8C
100
AcDbEntity
  8
0
  6
Continuous
 62
    30
100
AcDbHatch
 10
0.0
 20
0.0
 30
0.0
210
0.0
220
0.0
230
1.0
  2
SOLID
 70
     1
 71
     0
 91
        1
 92
        0
 93
        4
 72
     1
 10
27.9777992922409
 20
14.0
 11
37.97304325604365
 21
14.0
 72
     1
 10
37.97304325604365
 20
14.0
 11
55.65798332776328
 21
37.61112645917149
 72
     1
 10
55.65798332776328
 20
37.61112645917149
 11
50.64524334652423
 21
44.2632570934038
 72
     1
 10
50.64524334652423
 20
44.2632570934038
 11
27.9777992922409
 21
14.0
 97
        0
 75
     0
 76
     1
 98
        1
 10
0.0
 20
0.0
1001
ACAD
1010
0.0
1020
0.0
1030
0.0
  0
ENDBLK
  5
1BA4
330
1B8C
100
AcDbEntity
  8
0
100
AcDbBlockEnd
  0
ENDSEC
  0
SECTION
  2
ENTITIES
  0
LINE
  5
2A06
330
19
100
AcDbEntity
  8
AM_0
100
AcDbLine
 10
3552.341575738117
 20
714.1716408285538
 30
0.0
 11
3550.894838761613
 21
715.7230752262512
 31
0.0
  0
LINE
  5
2A07
330
19
100
AcDbEntity
  8
AM_0
100
AcDbLine
 10
3551.069336947128
 20
720.7200306209961
 30
0.0
 11
3550.894838761613
 21
715.7230752262512
 31
0.0
  0
LINE
  5
2A08
330
19
100
AcDbEntity
  8
AM_0
100
AcDbLine
 10
3551.069336947128
 20
720.7200306209961
 30
0.0
 11
3552.620771344826
 21
722.1667657348553
 31
0.0
  0
LINE
  5
2A09
330
19
100
AcDbEntity
  8
AM_0
100
AcDbLine
 10
3714.614809165523
 20
716.509805409416
 30
0.0
 11
3552.620771344826
 21
722.1667657348553
 31
0.0
  0
LINE
  5
2A0A
330
19
100
AcDbEntity
  8
AM_0
100
AcDbLine
 10
3714.70871261433
 20
708.501651370585
 30
0.0
 11
3552.341575738117
 21
714.1716408285538
 31
0.0
  0
LINE
  5
2A0B
330
19
100
AcDbEntity
  8
AM_0
100
AcDbLine
 10
3714.54037311771
 20
718.0333334378047
 30
0.0
 11
3552.673819478676
 21
723.6858422610203
 31
0.0
  0
LINE
  5
2A0C
330
19
100
AcDbEntity
  8
AM_0
100
AcDbLine
 10
3552.673819478676
 20
723.6858422610203
 30
0.0
 11
3551.227082502171
 21
725.2372766587177
 31
0.0
  0
LINE
  5
2A0D
330
19
100
AcDbEntity
  8
AM_0
100
AcDbLine
 10
3551.401580687687
 20
730.234232053459
 30
0.0
 11
3551.227082502171
 21
725.2372766587177
 31
0.0
  0
LINE
  5
2A0E
330
19
100
AcDbEntity
  8
AM_0
100
AcDbLine
 10
3551.401580687687
 20
730.234232053459
 30
0.0
 11
3552.953015085385
 21
731.6809671673218
 31
0.0
  0
LINE
  5
2A0F
330
19
100
AcDbEntity
  8
AM_0
100
AcDbLine
 10
3713.847293229317
 20
726.0624112247169
 30
0.0
 11
3552.953015085385
 21
731.6809671673218
 31
0.0
  0
LINE
  5
2A10
330
19
100
AcDbEntity
  8
AM_0
100
AcDbLine
 10
3552.673819478676
 20
723.6858422610203
 30
0.0
 11
3552.620771344826
 21
722.1667657348553
 31
0.0
  0
ARC
  5
2A11
330
19
100
AcDbEntity
  8
AM_0
100
AcDbCircle
 10
3575.661186421502
 20
735.5353189677298
 30
0.0
 40
0.2500000000007928
100
AcDbArc
 50
241.4349495040718
 51
358.0000006813876
  0
LINE
  5
2A12
330
19
100
AcDbEntity
  8
AM_0
100
AcDbLine
 10
3575.960899707005
 20
736.9545477184693
 30
0.0
 11
3575.911032971069
 21
735.5265955182949
 31
0.0
  0
ARC
  5
2A13
330
19
100
AcDbEntity
  8
AM_0
100
AcDbCircle
 10
3575.711051672175
 20
736.9632734029765
 30
0.0
 40
0.2500000000004653
100
AcDbArc
 50
358.0000006805533
 51
65.38013573427176
  0
LINE
  5
2A14
330
19
100
AcDbEntity
  8
AM_0
100
AcDbLine
 10
3575.541379865334
 20
737.3160275372902
 30
0.0
 11
3575.815199878141
 21
737.1905448588768
 31
0.0
  0
ARC
  5
2A15
330
19
100
AcDbEntity
  8
AM_0
100
AcDbCircle
 10
3575.645527359277
 20
737.5432997615353
 30
0.0
 40
0.2500000000011203
100
AcDbArc
 50
178.0000006822219
 51
245.3801357345284
  0
LINE
  5
2A16
330
19
100
AcDbEntity
  8
AM_0
100
AcDbLine
 10
3575.400299396441
 20
737.6843060109059
 30
0.0
 11
3575.395680036471
 21
737.5520246776978
 31
0.0
  0
ARC
  5
2A17
330
19
100
AcDbEntity
  8
AM_0
100
AcDbCircle
 10
3575.899994431722
 20
737.6668562585146
 30
0.0
 40
0.500000000000804
100
AcDbArc
 50
126.2276284434113
 51
178.0000006834734
  0
LINE
  5
2A18
330
19
100
AcDbEntity
  8
AM_0
100
AcDbLine
 10
3576.721756722852
 20
738.8887333425882
 30
0.0
 11
3575.60449745886
 21
738.0701939317587
 31
0.0
  0
ARC
  5
2A19
330
19
100
AcDbEntity
  8
AM_0
100
AcDbCircle
 10
3577.403756505534
 20
738.157379397242
 30
0.0
 40
1.00000000000327
100
AcDbArc
 50
43.000000681729
 51
133.0000006821738
  0
LINE
  5
2A1A
330
19
100
AcDbEntity
  8
AM_0
100
AcDbLine
 10
3579.192551788018
 20
737.9448975178639
 30
0.0
 11
3578.135109510348
 21
738.8393769714276
 31
0.0
  0
ARC
  5
2A1B
330
19
100
AcDbEntity
  8
AM_0
100
AcDbCircle
 10
3578.869638340215
 20
737.5631540434988
 30
0.0
 40
0.5000000000000339
100
AcDbArc
 50
358.0000006830562
 51
49.77237292027962
  0
LINE
  5
2A1C
330
19
100
AcDbEntity
  8
AM_0
100
AcDbLine
 10
3579.364716079161
 20
737.4134215268532
 30
0.0
 11
3579.369335439131
 21
737.5457028600613
 31
0.0
  0
ARC
  5
2A1D
330
19
100
AcDbEntity
  8
AM_0
100
AcDbCircle
 10
3579.114866681487
 20
737.4221478041181
 30
0.0
 40
0.2500000000020783
100
AcDbArc
 50
290.6198656285873
 51
358.0000006830562
  0
LINE
  5
2A1E
330
19
100
AcDbEntity
  8
AM_0
100
AcDbLine
 10
3578.921000477001
 20
737.0820904824177
 30
0.0
 11
3579.202908095047
 21
737.1881643983761
 31
0.0
  0
ARC
  5
2A1F
330
19
100
AcDbEntity
  8
AM_0
100
AcDbCircle
 10
3579.009041402699
 20
736.8481051030976
 30
0.0
 40
0.2500000000020783
100
AcDbArc
 50
110.6198656285873
 51
178.0000006813876
  0
LINE
  5
2A20
330
19
100
AcDbEntity
  8
AM_0
100
AcDbLine
 10
3578.709329482243
 20
735.4288737031857
 30
0.0
 11
3578.759192492887
 21
736.8568296286503
 31
0.0
  0
ARC
  5
2A21
330
19
100
AcDbEntity
  8
AM_0
100
AcDbCircle
 10
3578.959176152045
 20
735.4201506678473
 30
0.0
 40
0.2499999999998839
100
AcDbArc
 50
178.0000006813876
 51
294.5650518591489
  0
LINE
  5
2A22
330
19
100
AcDbEntity
  8
AM_0
100
AcDbLine
 10
3579.658376988099
 20
735.46487490863
 30
0.0
 11
3579.063109126017
 21
735.1927797052267
 31
0.0
  0
ARC
  5
2A23
330
19
100
AcDbEntity
  8
AM_0
100
AcDbCircle
 10
3579.762308048513
 20
735.2375020166983
 30
0.0
 40
0.2499999999964498
100
AcDbArc
 50
88.0000006820916
 51
114.5650518594346
  0
LINE
  5
2A24
330
19
100
AcDbEntity
  8
AM_0
100
AcDbLine
 10
3580.211746510193
 20
735.4719604107777
 30
0.0
 11
3579.771033492014
 21
735.4873495850006
 31
0.0
  0
ARC
  5
2A25
330
19
100
AcDbEntity
  8
AM_0
100
AcDbCircle
 10
3580.194297548194
 20
734.9722642301385
 30
0.0
 40
0.4999999999997837
100
AcDbArc
 50
358.0000006592794
 51
88.00000068133554
  0
LINE
  5
2A26
330
19
100
AcDbEntity
  8
AM_0
100
AcDbLine
 10
3580.615817572996
 20
732.7161806377771
 30
0.0
 11
3580.693992789909
 21
734.9548156115416
 31
0.0
  0
ARC
  5
2A27
330
19
100
AcDbEntity
  8
AM_0
100
AcDbCircle
 10
3578.61703646104
 20
732.7859780037506
 30
0.0
 40
2.000000000000562
100
AcDbArc
 50
268.0000006817006
 51
358.0000006813876
  0
LINE
  5
2A28
330
19
100
AcDbEntity
  8
AM_0
100
AcDbLine
 10
3565.055462535545
 20
731.2583404335419
 30
0.0
 11
3578.547238376067
 21
730.7871955189148
 31
0.0
  0
LINE
  5
2A29
330
19
100
AcDbEntity
  8
AM_0
100
AcDbLine
 10
3574.855993505642
 20
735.6589848849217
 30
0.0
 11
3564.928404059336
 21
736.0056641253868
 31
0.0
  0
ARC
  5
2A2A
330
19
100
AcDbEntity
  8
AM_0
100
AcDbCircle
 10
3574.847269991134
 20
735.4091388691922
 30
0.0
 40
0.2500000000042583
100
AcDbArc
 50
61.43494950481801
 51
88.00000068130949
  0
LINE
  5
2A2B
330
19
100
AcDbEntity
  8
AM_0
100
AcDbLine
 10
3575.541648086235
 20
735.3157515379826
 30
0.0
 11
3574.966809716151
 21
735.6287057253721
 31
0.0
  0
ARC
  5
2A2C
330
19
100
AcDbEntity
  8
AM_0
100
AcDbCircle
 10
3564.902228403484
 20
735.2561224837336
 30
0.0
 40
0.7499999999997311
100
AcDbArc
 50
88.00000068120512
 51
193.0000006811566
  0
LINE
  5
2A2D
330
19
100
AcDbEntity
  8
AM_0
100
AcDbLine
 10
3564.17145114772
 20
735.0874098691384
 30
0.0
 11
3565.055462535545
 21
731.2583404335419
 31
0.0
  0
ARC
  5
2A2E
330
19
100
AcDbEntity
  8
AM_0
100
AcDbCircle
 10
3608.879033258181
 20
708.2048753546442
 30
0.0
 40
0.7500000000013044
100
AcDbArc
 50
162.9999985777432
 51
267.9999985778242
  0
LINE
  5
2A2F
330
19
100
AcDbEntity
  8
AM_0
100
AcDbLine
 10
3609.310763891861
 20
712.1822315010468
 30
0.0
 11
3608.161802407429
 21
708.4241549226681
 31
0.0
  0
LINE
  5
2A30
330
19
100
AcDbEntity
  8
AM_0
100
AcDbLine
 10
3622.802543457673
 20
711.7110865864197
 30
0.0
 11
3609.310763891861
 21
712.1822315010468
 31
0.0
  0
ARC
  5
2A31
330
19
100
AcDbEntity
  8
AM_0
100
AcDbCircle
 10
3622.732741320669
 20
709.7123058595025
 30
0.0
 40
2.000000000000151
100
AcDbArc
 50
357.999998577772
 51
87.99999857740686
  0
LINE
  5
2A32
330
19
100
AcDbEntity
  8
AM_0
100
AcDbLine
 10
3624.653349634335
 20
707.4038705530802
 30
0.0
 11
3624.731521125957
 21
709.6425073894898
 31
0.0
  0
ARC
  5
2A33
330
19
100
AcDbEntity
  8
AM_0
100
AcDbCircle
 10
3624.153652631714
 20
707.4213211264941
 30
0.0
 40
0.5000000000001354
100
AcDbArc
 50
267.9999985778242
 51
357.9999985998801
  0
LINE
  5
2A34
330
19
100
AcDbEntity
  8
AM_0
100
AcDbLine
 10
3623.695488091633
 20
706.9370153102318
 30
0.0
 11
3624.136204835102
 21
706.9216261360089
 31
0.0
  0
ARC
  5
2A35
330
19
100
AcDbEntity
  8
AM_0
100
AcDbCircle
 10
3623.704213381015
 20
707.1868635158571
 30
0.0
 40
0.2500000000003915
100
AcDbArc
 50
241.4349474000871
 51
267.9999985770419
  0
LINE
  5
2A36
330
19
100
AcDbEntity
  8
AM_0
100
AcDbLine
 10
3623.00983351104
 20
707.2802523824612
 30
0.0
 11
3623.584675606415
 21
706.9672944697741
 31
0.0
  0
ARC
  5
2A37
330
19
100
AcDbEntity
  8
AM_0
100
AcDbCircle
 10
3622.890296946011
 20
707.0606834472128
 30
0.0
 40
0.2500000000003915
100
AcDbArc
 50
61.43494740008709
 51
177.9999985773548
  0
LINE
  5
2A38
330
19
100
AcDbEntity
  8
AM_0
100
AcDbLine
 10
3622.590581890271
 20
705.6414543393294
 30
0.0
 11
3622.640448626205
 21
707.0694084021488
 31
0.0
  0
ARC
  5
2A39
330
19
100
AcDbEntity
  8
AM_0
100
AcDbCircle
 10
3622.840431642886
 20
705.632729013796
 30
0.0
 40
0.2500000000004031
100
AcDbArc
 50
177.9999985781891
 51
245.380133630613
  0
LINE
  5
2A3A
330
19
100
AcDbEntity
  8
AM_0
100
AcDbLine
 10
3623.010101731942
 20
705.2799763831499
 30
0.0
 11
3622.736285444424
 21
705.4054553362766
 31
0.0
  0
ARC
  5
2A3B
330
19
100
AcDbEntity
  8
AM_0
100
AcDbCircle
 10
3622.905955934511
 20
705.0527026528143
 30
0.0
 40
0.250000000001175
100
AcDbArc
 50
357.9999985765205
 51
65.38013363029812
  0
LINE
  5
2A3C
330
19
100
AcDbEntity
  8
AM_0
100
AcDbLine
 10
3623.151185926125
 20
704.9116960468928
 30
0.0
 11
3623.155805286095
 21
705.0439773801008
 31
0.0
  0
ARC
  5
2A3D
330
19
100
AcDbEntity
  8
AM_0
100
AcDbCircle
 10
3622.65148885752
 20
704.9291461651883
 30
0.0
 40
0.5000000000016032
100
AcDbArc
 50
306.227626338725
 51
357.9999985756862
  0
LINE
  5
2A3E
330
19
100
AcDbEntity
  8
AM_0
100
AcDbLine
 10
3621.829728599712
 20
703.7072687152067
 30
0.0
 11
3622.946987863705
 21
704.5258081260363
 31
0.0
  0
ARC
  5
2A3F
330
19
100
AcDbEntity
  8
AM_0
100
AcDbCircle
 10
3621.147726765684
 20
704.4386230816999
 30
0.0
 40
1.000000000002406
100
AcDbArc
 50
222.999998576854
 51
312.9999985772942
  0
LINE
  5
2A40
330
19
100
AcDbEntity
  8
AM_0
100
AcDbLine
 10
3619.358929809257
 20
704.6511064025799
 30
0.0
 11
3620.416375812218
 21
703.7566250863711
 31
0.0
  0
ARC
  5
2A41
330
19
100
AcDbEntity
  8
AM_0
100
AcDbCircle
 10
3619.681844952837
 20
705.0328484892889
 30
0.0
 40
0.5000000000019886
100
AcDbArc
 50
177.9999985756862
 51
229.772370815657
  0
LINE
  5
2A42
330
19
100
AcDbEntity
  8
AM_0
100
AcDbLine
 10
3619.186769243405
 20
705.1825805309418
 30
0.0
 11
3619.182149883434
 21
705.0502973350922
 31
0.0
  0
ARC
  5
2A43
330
19
100
AcDbEntity
  8
AM_0
100
AcDbCircle
 10
3619.436616616752
 20
705.1738547376808
 30
0.0
 40
0.2500000000002661
100
AcDbArc
 50
110.6198635244421
 51
177.9999985765205
  0
LINE
  5
2A44
330
19
100
AcDbEntity
  8
AM_0
100
AcDbLine
 10
3619.630481120274
 20
705.5139134380261
 30
0.0
 11
3619.348573502228
 21
705.4078395220677
 31
0.0
  0
ARC
  5
2A45
330
19
100
AcDbEntity
  8
AM_0
100
AcDbCircle
 10
3619.542441916592
 20
705.7478974348014
 30
0.0
 40
0.2500000000000122
100
AcDbArc
 50
290.6198635249459
 51
357.9999985781891
  0
LINE
  5
2A46
330
19
100
AcDbEntity
  8
AM_0
100
AcDbLine
 10
3619.842152115033
 20
707.1671264919678
 30
0.0
 11
3619.792292829678
 21
705.7391724291483
 31
0.0
  0
ARC
  5
2A47
330
19
100
AcDbEntity
  8
AM_0
100
AcDbCircle
 10
3619.5923072197
 20
707.1758518682145
 30
0.0
 40
0.2500000000021781
100
AcDbArc
 50
357.9999985773547
 51
114.5650497544646
  0
LINE
  5
2A48
330
19
100
AcDbEntity
  8
AM_0
100
AcDbLine
 10
3618.893104609177
 20
707.1311290118138
 30
0.0
 11
3619.488376196549
 21
707.4032242152134
 31
0.0
  0
ARC
  5
2A49
330
19
100
AcDbEntity
  8
AM_0
100
AcDbCircle
 10
3618.78917532994
 20
707.358500548864
 30
0.0
 40
0.2500000000000598
100
AcDbArc
 50
267.9999985778763
 51
294.5650497548376
  0
LINE
  5
2A4A
330
19
100
AcDbEntity
  8
AM_0
100
AcDbLine
 10
3608.852858658955
 20
707.4553317132631
 30
0.0
 11
3618.780451830551
 21
707.108652472798
 31
0.0
  0
LINE
  5
2A4B
330
19
100
AcDbEntity
  8
AM_0
100
AcDbLine
 10
3532.066533927881
 20
746.3150064203146
 30
0.0
 11
3533.634181138203
 21
746.3150064203146
 31
0.0
  0
LINE
  5
2A4C
330
19
100
AcDbEntity
  8
AM_0
100
AcDbLine
 10
3533.634181138203
 20
746.3150064203146
 30
0.0
 11
3533.995025067432
 21
746.9400058242682
 31
0.0
  0
ARC
  5
2A4D
330
19
100
AcDbEntity
  8
AM_0
100
AcDbCircle
 10
3534.211531407392
 20
746.8150087368231
 30
0.0
 40
0.2500000000009465
100
AcDbArc
 50
53.26686902184868
 51
149.9999999999922
  0
LINE
  5
2A4E
330
19
100
AcDbEntity
  8
AM_0
100
AcDbLine
 10
3534.361053553019
 20
747.0153684470097
 30
0.0
 11
3535.565603179001
 21
746.1164409968296
 31
0.0
  0
ARC
  5
2A4F
330
19
100
AcDbEntity
  8
AM_0
100
AcDbCircle
 10
3534.967514471536
 20
745.3150087368231
 30
0.0
 40
0.9999999999995104
100
AcDbArc
 50
306.7331309781604
 51
53.26686902183955
  0
LINE
  5
2A50
330
19
100
AcDbEntity
  8
AM_0
100
AcDbLine
 10
3534.361053553019
 20
743.6146477910916
 30
0.0
 11
3535.565603179001
 21
744.5135752412716
 31
0.0
  0
ARC
  5
2A51
330
19
100
AcDbEntity
  8
AM_0
100
AcDbCircle
 10
3534.211531407392
 20
743.8150087368231
 30
0.0
 40
0.2500000000009465
100
AcDbArc
 50
210.0000000000078
 51
306.7331309781513
  0
LINE
  5
2A52
330
19
100
AcDbEntity
  8
AM_0
100
AcDbLine
 10
3533.634181138203
 20
744.315009817783
 30
0.0
 11
3533.995025067432
 21
743.6900104138294
 31
0.0
  0
LINE
  5
2A53
330
19
100
AcDbEntity
  8
AM_0
100
AcDbLine
 10
3532.066533927881
 20
744.315009817783
 30
0.0
 11
3533.634181138203
 21
744.315009817783
 31
0.0
  0
ARC
  5
2A54
330
19
100
AcDbEntity
  8
AM_0
100
AcDbCircle
 10
3532.066533985129
 20
744.0650087368231
 30
0.0
 40
0.2500000000001517
100
AcDbArc
 50
90.0
 51
166.2258530021776
  0
ARC
  5
2A55
330
19
100
AcDbEntity
  8
AM_0
100
AcDbCircle
 10
3526.967514471536
 20
745.3150087368231
 30
0.0
 40
5.00000000000074
100
AcDbArc
 50
144.0773193250303
 51
346.2258530019628
  0
ARC
  5
2A56
330
19
100
AcDbEntity
  8
AM_0
100
AcDbCircle
 10
3522.108657711239
 20
748.8351665433584
 30
0.0
 40
1.00000000000193
100
AcDbArc
 50
324.0773193252563
 51
40.00000000016649
  0
LINE
  5
2A57
330
19
100
AcDbEntity
  8
AM_0
100
AcDbLine
 10
3522.87470177196
 20
749.4779566976467
 30
0.0
 11
3520.27600352101
 21
752.5749618861119
 31
0.0
  0
ARC
  5
2A58
330
19
100
AcDbEntity
  8
AM_0
100
AcDbCircle
 10
3520.467514471536
 20
752.7356596788159
 30
0.0
 40
0.2500000000018008
100
AcDbArc
 50
69.99999999995816
 51
220.0000000007353
  0
LINE
  5
2A59
330
19
100
AcDbEntity
  8
AM_0
100
AcDbLine
 10
3528.677615340874
 20
750.0134746286276
 30
0.0
 11
3520.553019832894
 21
752.9705802652279
 31
0.0
  0
ARC
  5
2A5A
330
19
100
AcDbEntity
  8
AM_0
100
AcDbCircle
 10
3526.967514471536
 20
745.3150087368231
 30
0.0
 40
5.000000000000989
100
AcDbArc
 50
13.7741469980372
 51
69.99999999998182
  0
ARC
  5
2A5B
330
19
100
AcDbEntity
  8
AM_0
100
AcDbCircle
 10
3532.066533985128
 20
746.5650087368231
 30
0.0
 40
0.25
100
AcDbArc
 50
193.7741469978224
 51
270.0
  0
CIRCLE
  5
2A5C
330
19
100
AcDbEntity
  8
AM_0
100
AcDbCircle
 10
3526.967514471536
 20
745.3150087368231
 30
0.0
 40
2.5
  0
ARC
  5
2A5D
330
19
100
AcDbEntity
  8
AM_0
100
AcDbCircle
 10
3545.836905018811
 20
741.1717220967657
 30
0.0
 40
0.2500002687729377
100
AcDbArc
 50
208.5344290005645
 51
298.5344432256199
  0
LINE
  5
2A5E
330
19
100
AcDbEntity
  8
AM_0
100
AcDbLine
 10
3548.782734204158
 20
742.4889023157994
 30
0.0
 11
3545.956326652393
 21
740.9520896825234
 31
0.0
  0
ARC
  5
2A5F
330
19
100
AcDbEntity
  8
AM_0
100
AcDbCircle
 10
3548.305046424471
 20
743.367433127667
 30
0.0
 40
0.9999999577184678
100
AcDbArc
 50
298.5344766993382
 51
83.74931158226607
  0
LINE
  5
2A60
330
19
100
AcDbEntity
  8
AM_0
100
AcDbLine
 10
3548.413924876676
 20
744.3614865395466
 30
0.0
 11
3543.720744554028
 21
744.6223760697285
 31
0.0
  0
ARC
  5
2A61
330
19
100
AcDbEntity
  8
AM_0
100
AcDbCircle
 10
3543.734620705397
 20
744.8719890668362
 30
0.0
 40
0.2500003956197443
100
AcDbArc
 50
246.411867296125
 51
266.8182248258106
  0
ARC
  5
2A62
330
19
100
AcDbEntity
  8
AM_0
100
AcDbCircle
 10
3542.634180710367
 20
742.3517640782193
 30
0.0
 40
2.500000000001575
100
AcDbArc
 50
66.41181799997746
 51
168.7014019999885
  0
ARC
  5
2A63
330
19
100
AcDbEntity
  8
AM_0
100
AcDbCircle
 10
3539.93747698123
 20
742.8905500241017
 30
0.0
 40
0.250000236039457
100
AcDbArc
 50
304.6314922889853
 51
348.7014043749259
  0
LINE
  5
2A64
330
19
100
AcDbEntity
  8
AM_0
100
AcDbLine
 10
3530.065885050297
 20
735.7687505635622
 30
0.0
 11
3540.07955128707
 21
742.6848451349142
 31
0.0
  0
ARC
  5
2A65
330
19
100
AcDbEntity
  8
AM_0
100
AcDbCircle
 10
3530.634181138203
 20
734.9459257968265
 30
0.0
 40
0.9999999999995453
100
AcDbArc
 50
124.6314960001033
 51
180.0
  0
LINE
  5
2A66
330
19
100
AcDbEntity
  8
AM_0
100
AcDbLine
 10
3529.634180948213
 20
734.626230106056
 30
0.0
 11
3529.634180948213
 21
734.9459270688894
 31
0.0
  0
LINE
  5
2A67
330
19
100
AcDbEntity
  8
AM_0
100
AcDbLine
 10
3529.621749188826
 20
734.6210146996382
 30
0.0
 11
3529.634180948213
 21
734.626230106056
 31
0.0
  0
LINE
  5
2A68
330
19
100
AcDbEntity
  8
AM_0
100
AcDbLine
 10
3529.621749188826
 20
733.1279220733086
 30
0.0
 11
3529.621749188826
 21
734.6210146996382
 31
0.0
  0
ARC
  5
2A69
330
19
100
AcDbEntity
  8
AM_0
100
AcDbCircle
 10
3530.621749336838
 20
733.1279237968229
 30
0.0
 40
1.000000198636371
100
AcDbArc
 50
180.0
 51
300.8948949178144
  0
LINE
  5
2A6A
330
19
100
AcDbEntity
  8
AM_0
100
AcDbLine
 10
3542.024009864852
 20
738.7853043827417
 30
0.0
 11
3531.135214263648
 21
732.2698126289251
 31
0.0
  0
ARC
  5
2A6B
330
19
100
AcDbEntity
  8
AM_0
100
AcDbCircle
 10
3541.895643193982
 20
738.9998330355666
 30
0.0
 40
0.2499999204203859
100
AcDbArc
 50
300.895130674432
 51
28.53442900032848
  0
LINE
  5
2A6C
330
19
100
AcDbEntity
  8
AM_0
100
AcDbLine
 10
3541.939905848429
 20
739.4417824897209
 30
0.0
 11
3542.115275751874
 21
739.1192543062607
 31
0.0
  0
ARC
  5
2A6D
330
19
100
AcDbEntity
  8
AM_0
100
AcDbCircle
 10
3542.20346525777
 20
739.5850900702499
 30
0.0
 40
0.3000000790509538
100
AcDbArc
 50
81.15113675912907
 51
208.5344308497622
  0
ARC
  5
2A6E
330
19
100
AcDbEntity
  8
AM_0
100
AcDbCircle
 10
3542.634180710367
 20
742.3517640782193
 30
0.0
 40
2.500000075857211
100
AcDbArc
 50
261.1512424243846
 51
335.9176269999828
  0
ARC
  5
2A6F
330
19
100
AcDbEntity
  8
AM_0
100
AcDbCircle
 10
3545.190467860934
 20
741.2092250109199
 30
0.0
 40
0.2999998377977199
100
AcDbArc
 50
28.53443085047341
 51
155.9175853494699
  0
LINE
  5
2A70
330
19
100
AcDbEntity
  8
AM_0
100
AcDbLine
 10
3545.454027135
 20
741.3525323125759
 30
0.0
 11
3545.617272149846
 21
741.052299991552
 31
0.0
  0
ARC
  5
2A71
330
19
100
AcDbEntity
  8
AM_0
100
AcDbCircle
 10
3533.634180942897
 20
679.3521608888914
 30
0.0
 40
3.999999976040892
100
AcDbArc
 50
45.58469099991832
 51
134.4153077262256
  0
ARC
  5
2A72
330
19
100
AcDbEntity
  8
AM_0
100
AcDbCircle
 10
3531.184691086179
 20
681.8521608697229
 30
0.0
 40
0.4999999099939429
100
AcDbArc
 50
134.4152907661141
 51
270.0
  0
LINE
  5
2A73
330
19
100
AcDbEntity
  8
AM_0
100
AcDbLine
 10
3531.184691008255
 20
681.35216089182
 30
0.0
 11
3531.409321123809
 21
681.35216089182
 31
0.0
  0
ARC
  5
2A74
330
19
100
AcDbEntity
  8
AM_0
100
AcDbCircle
 10
3531.40932108618
 20
681.0521607794108
 30
0.0
 40
0.3000001803229679
100
AcDbArc
 50
322.6168507291877
 51
90.0
  0
ARC
  5
2A75
330
19
100
AcDbEntity
  8
AM_0
100
AcDbCircle
 10
3533.634180942897
 20
679.3521608888914
 30
0.0
 40
2.500000000001855
100
AcDbArc
 50
142.6168019999065
 51
219.5211960000578
  0
ARC
  5
2A76
330
19
100
AcDbEntity
  8
AM_0
100
AcDbCircle
 10
3531.512860138202
 20
677.6021610500102
 30
0.0
 40
0.2500002531887731
100
AcDbArc
 50
270.0
 51
39.52110420712458
  0
LINE
  5
2A77
330
19
100
AcDbEntity
  8
AM_0
100
AcDbLine
 10
3531.184691241086
 20
677.3521607018301
 30
0.0
 11
3531.51286021255
 21
677.3521607018301
 31
0.0
  0
ARC
  5
2A78
330
19
100
AcDbEntity
  8
AM_0
100
AcDbCircle
 10
3531.184691138202
 20
676.8521608868323
 30
0.0
 40
0.4999999099939429
100
AcDbArc
 50
90.0
 51
225.5847092338859
  0
ARC
  5
2A79
330
19
100
AcDbEntity
  8
AM_0
100
AcDbCircle
 10
3533.634180942897
 20
679.3521608888914
 30
0.0
 40
3.999999954794324
100
AcDbArc
 50
225.5846930188992
 51
314.4153090000817
  0
ARC
  5
2A7A
330
19
100
AcDbEntity
  8
AM_0
100
AcDbCircle
 10
3536.083670033594
 20
676.8521606771574
 30
0.0
 40
0.5000002599206478
100
AcDbArc
 50
314.4153821744891
 51
89.99999868004844
  0
LINE
  5
2A7B
330
19
100
AcDbEntity
  8
AM_0
100
AcDbLine
 10
3535.755501132533
 20
677.3521609346608
 30
0.0
 11
3536.083670103998
 21
677.3521609346608
 31
0.0
  0
ARC
  5
2A7C
330
19
100
AcDbEntity
  8
AM_0
100
AcDbCircle
 10
3535.755501045112
 20
677.6021608045667
 30
0.0
 40
0.2499998674918592
100
AcDbArc
 50
140.4787499485813
 51
270.0
  0
ARC
  5
2A7D
330
19
100
AcDbEntity
  8
AM_0
100
AcDbCircle
 10
3533.634180942897
 20
679.3521608888914
 30
0.0
 40
2.500000000001185
100
AcDbArc
 50
320.4788039999422
 51
39.52119600008326
  0
ARC
  5
2A7E
330
19
100
AcDbEntity
  8
AM_0
100
AcDbCircle
 10
3535.755501045112
 20
681.1021609732161
 30
0.0
 40
0.2499998674902599
100
AcDbArc
 50
90.0
 51
219.5212500506669
  0
LINE
  5
2A7F
330
19
100
AcDbEntity
  8
AM_0
100
AcDbLine
 10
3535.755501132533
 20
681.35216089182
 30
0.0
 11
3536.083670103998
 21
681.35216089182
 31
0.0
  0
ARC
  5
2A80
330
19
100
AcDbEntity
  8
AM_0
100
AcDbCircle
 10
3536.083670063952
 20
681.8521611006254
 30
0.0
 40
0.5000002599222872
100
AcDbArc
 50
269.9999978412304
 51
45.58462031038803
  0
LINE
  5
2A81
330
19
100
AcDbEntity
  8
AM_0
100
AcDbLine
 10
3551.95980053775
 20
740.979727611244
 30
0.0
 11
3556.266807954833
 21
743.3215941044728
 31
0.0
  0
ARC
  5
2A82
330
19
100
AcDbEntity
  8
AM_0
100
AcDbCircle
 10
3552.43748810871
 20
740.1011968510647
 30
0.0
 40
0.9999999382591197
100
AcDbArc
 50
118.534428999964
 51
266.0496496592611
  0
LINE
  5
2A83
330
19
100
AcDbEntity
  8
AM_0
100
AcDbLine
 10
3572.112786587402
 20
737.7401220354441
 30
0.0
 11
3552.368595268652
 21
739.1035745593945
 31
0.0
  0
ARC
  5
2A84
330
19
100
AcDbEntity
  8
AM_0
100
AcDbCircle
 10
3572.181678104456
 20
738.737746789473
 30
0.0
 40
1.000000000002932
100
AcDbArc
 50
266.0496680000591
 51
357.9999999997877
  0
LINE
  5
2A85
330
19
100
AcDbEntity
  8
AM_0
100
AcDbLine
 10
3573.251149620935
 20
740.7096589657704
 30
0.0
 11
3573.181069459841
 21
738.7028488072792
 31
0.0
  0
ARC
  5
2A86
330
19
100
AcDbEntity
  8
AM_0
100
AcDbCircle
 10
3572.251757696338
 20
740.7445571921999
 30
0.0
 40
0.9999995780751817
100
AcDbArc
 50
358.0000045434391
 51
83.74929898498044
  0
LINE
  5
2A87
330
19
100
AcDbEntity
  8
AM_0
100
AcDbLine
 10
3556.853373538778
 20
743.4371153566244
 30
0.0
 11
3572.36063760154
 21
741.7386102232376
 31
0.0
  0
ARC
  5
2A88
330
19
100
AcDbEntity
  8
AM_0
100
AcDbCircle
 10
3556.7444951584
 20
742.4430627596776
 30
0.0
 40
0.99999995771809
100
AcDbArc
 50
83.74932799997849
 51
118.5344476282936
  0
LINE
  5
2A89
330
19
100
AcDbEntity
  8
AM_0
100
AcDbLine
 10
3543.570359241292
 20
732.064217582647
 30
0.0
 11
3543.570359241292
 21
708.4553970697561
 31
0.0
  0
ARC
  5
2A8A
330
19
100
AcDbEntity
  8
AM_0
100
AcDbCircle
 10
3541.57035877718
 20
732.0642185808028
 30
0.0
 40
1.999999999999546
100
AcDbArc
 50
0.0000014088515808
 51
120.8948839473666
  0
LINE
  5
2A8B
330
19
100
AcDbEntity
  8
AM_0
100
AcDbLine
 10
3535.108284330071
 20
730.5282319638172
 30
0.0
 11
3540.543429557309
 21
733.7804401966969
 31
0.0
  0
ARC
  5
2A8C
330
19
100
AcDbEntity
  8
AM_0
100
AcDbCircle
 10
3535.621749138201
 20
729.670119796825
 30
0.0
 40
1.000000000000636
100
AcDbArc
 50
120.8948959999984
 51
180.0
  0
LINE
  5
2A8D
330
19
100
AcDbEntity
  8
AM_0
100
AcDbLine
 10
3534.621749193483
 20
729.1754523965719
 30
0.0
 11
3534.621749193483
 21
729.6701187941435
 31
0.0
  0
ARC
  5
2A8E
330
19
100
AcDbEntity
  8
AM_0
100
AcDbCircle
 10
3534.121749138202
 20
729.175451796822
 30
0.0
 40
0.5
100
AcDbArc
 50
270.0
 51
0.0
  0
LINE
  5
2A8F
330
19
100
AcDbEntity
  8
AM_0
100
AcDbLine
 10
3531.176284192205
 20
728.675451383293
 30
0.0
 11
3534.12174914063
 21
728.675451383293
 31
0.0
  0
LINE
  5
2A90
330
19
100
AcDbEntity
  8
AM_0
100
AcDbLine
 10
3530.108284441829
 20
728.036396459047
 30
0.0
 11
3531.176284192205
 21
728.675451383293
 31
0.0
  0
ARC
  5
2A91
330
19
100
AcDbEntity
  8
AM_0
100
AcDbCircle
 10
3530.621749138201
 20
727.1782857968246
 30
0.0
 40
0.9999999999995453
100
AcDbArc
 50
120.8948960000627
 51
180.0
  0
LINE
  5
2A92
330
19
100
AcDbEntity
  8
AM_0
100
AcDbLine
 10
3529.621749188826
 20
716.1726171824375
 30
0.0
 11
3529.621749188826
 21
727.1782870146671
 31
0.0
  0
ARC
  5
2A93
330
19
100
AcDbEntity
  8
AM_0
100
AcDbCircle
 10
3530.621748907783
 20
716.1726177968267
 30
0.0
 40
0.999999769584918
100
AcDbArc
 50
180.0
 51
239.1050756628334
  0
LINE
  5
2A94
330
19
100
AcDbEntity
  8
AM_0
100
AcDbLine
 10
3531.176283726543
 20
714.6754528138044
 30
0.0
 11
3530.108283743337
 21
715.3145077380577
 31
0.0
  0
LINE
  5
2A95
330
19
100
AcDbEntity
  8
AM_0
100
AcDbLine
 10
3534.121748791384
 20
714.6754528138044
 30
0.0
 11
3531.176283726543
 21
714.6754528138044
 31
0.0
  0
ARC
  5
2A96
330
19
100
AcDbEntity
  8
AM_0
100
AcDbCircle
 10
3534.121748789471
 20
714.1754515990979
 30
0.0
 40
0.5
100
AcDbArc
 50
0.0
 51
90.0
  0
LINE
  5
2A97
330
19
100
AcDbEntity
  8
AM_0
100
AcDbLine
 10
3534.621748844236
 20
713.2890897545258
 30
0.0
 11
3534.621748844236
 21
714.1754518005255
 31
0.0
  0
ARC
  5
2A98
330
19
100
AcDbEntity
  8
AM_0
100
AcDbCircle
 10
3535.621748789471
 20
713.2890885991001
 30
0.0
 40
1.000000000000455
100
AcDbArc
 50
180.0
 51
223.4070920000062
  0
LINE
  5
2A99
330
19
100
AcDbEntity
  8
AM_0
100
AcDbLine
 10
3540.117379747406
 20
707.0810424837509
 30
0.0
 11
3534.895259192288
 21
712.6019115302006
 31
0.0
  0
ARC
  5
2A9A
330
19
100
AcDbEntity
  8
AM_0
100
AcDbCircle
 10
3541.570358822121
 20
708.4553976299794
 30
0.0
 40
1.999999955058684
100
AcDbArc
 50
223.4070991639812
 51
0.0
  0
LINE
  5
2A9B
330
19
100
AcDbEntity
  8
AM_0
100
AcDbLine
 10
3540.978969078586
 20
681.5043413288149
 30
0.0
 11
3554.329256530926
 21
690.2151240709463
 31
0.0
  0
ARC
  5
2A9C
330
19
100
AcDbEntity
  8
AM_0
100
AcDbCircle
 10
3541.525415739245
 20
680.6668478549618
 30
0.0
 40
0.9999997416615344
100
AcDbArc
 50
123.1236009999498
 51
189.4586351694669
  0
ARC
  5
2A9D
330
19
100
AcDbEntity
  8
AM_0
100
AcDbCircle
 10
3533.634180942897
 20
679.3521608888914
 30
0.0
 40
6.999999535204291
100
AcDbArc
 50
357.5964597061776
 51
9.4586599998897
  0
ARC
  5
2A9E
330
19
100
AcDbEntity
  8
AM_0
100
AcDbCircle
 10
3541.627142407285
 20
679.0166618693984
 30
0.0
 40
1.000000000000136
100
AcDbArc
 50
177.5964639998758
 51
287.3839769999908
  0
LINE
  5
2A9F
330
19
100
AcDbEntity
  8
AM_0
100
AcDbLine
 10
3559.683338742778
 20
683.6217239241305
 30
0.0
 11
3541.925916452036
 21
678.0623379371355
 31
0.0
  0
ARC
  5
2AA0
330
19
100
AcDbEntity
  8
AM_0
100
AcDbCircle
 10
3559.38456503406
 20
684.5760477001459
 30
0.0
 40
1.000000050012679
100
AcDbArc
 50
287.3840031130605
 51
43.19922625724498
  0
LINE
  5
2AA1
330
19
100
AcDbEntity
  8
AM_0
100
AcDbLine
 10
3555.604682307765
 20
690.0621664452592
 30
0.0
 11
3560.113542717025
 21
685.2605848315397
 31
0.0
  0
ARC
  5
2AA2
330
19
100
AcDbEntity
  8
AM_0
100
AcDbCircle
 10
3554.87570378547
 20
689.3776297841177
 30
0.0
 40
1.000000088174926
100
AcDbArc
 50
43.19921029934203
 51
123.1235923225786
  0
LINE
  5
2AA3
330
19
100
AcDbEntity
  8
AM_0
100
AcDbLine
 10
3529.634180948213
 20
686.7683588269392
 30
0.0
 11
3529.634180948213
 21
708.3688082847038
 31
0.0
  0
ARC
  5
2AA4
330
19
100
AcDbEntity
  8
AM_0
100
AcDbCircle
 10
3530.634180926743
 20
686.7683589288281
 30
0.0
 40
0.9999997742247615
100
AcDbArc
 50
179.9999999991662
 51
292.0243221623596
  0
ARC
  5
2AA5
330
19
100
AcDbEntity
  8
AM_0
100
AcDbCircle
 10
3533.634180942897
 20
679.3521608888914
 30
0.0
 40
6.999999817307491
100
AcDbArc
 50
49.81258515349538
 51
112.0243129999166
  0
ARC
  5
2AA6
330
19
100
AcDbEntity
  8
AM_0
100
AcDbCircle
 10
3538.796500060788
 20
685.4636630284585
 30
0.0
 40
0.9999999999986726
100
AcDbArc
 50
229.8125839999436
 51
304.7074920001498
  0
LINE
  5
2AA7
330
19
100
AcDbEntity
  8
AM_0
100
AcDbLine
 10
3549.93540328376
 20
691.9623178172151
 30
0.0
 11
3539.365887180045
 21
684.641593389515
 31
0.0
  0
ARC
  5
2AA8
330
19
100
AcDbEntity
  8
AM_0
100
AcDbCircle
 10
3549.366015980746
 20
692.7843877781852
 30
0.0
 40
1.000000160168655
100
AcDbArc
 50
304.7074896771655
 51
50.24037495104839
  0
LINE
  5
2AA9
330
19
100
AcDbEntity
  8
AM_0
100
AcDbLine
 10
3531.273749195114
 20
709.1375442895333
 30
0.0
 11
3550.005584027693
 21
693.5531220141092
 31
0.0
  0
ARC
  5
2AAA
330
19
100
AcDbEntity
  8
AM_0
100
AcDbCircle
 10
3530.634181334229
 20
708.3688089288262
 30
0.0
 40
1.000000181713727
100
AcDbArc
 50
50.24040343783089
 51
180.0
  0
LINE
  5
2AAB
330
19
100
AcDbEntity
  8
AM_0
100
AcDbLine
 10
3558.157010939047
 20
692.7126527506152
 30
0.0
 11
3569.388414736912
 21
700.040906921331
 31
0.0
  0
ARC
  5
2AAC
330
19
100
AcDbEntity
  8
AM_0
100
AcDbCircle
 10
3558.703458114821
 20
691.8751588326559
 30
0.0
 40
0.9999999572140434
100
AcDbArc
 50
123.123600999976
 51
223.1992102991462
  0
LINE
  5
2AAD
330
19
100
AcDbEntity
  8
AM_0
100
AcDbLine
 10
3563.426130455062
 20
685.3850435207787
 30
0.0
 11
3557.974479165003
 21
691.1906220692435
 31
0.0
  0
ARC
  5
2AAE
330
19
100
AcDbEntity
  8
AM_0
100
AcDbCircle
 10
3564.155109120089
 20
686.069580837604
 30
0.0
 40
1.000000050014321
100
AcDbArc
 50
223.1992130000855
 51
287.3839798082351
  0
LINE
  5
2AAF
330
19
100
AcDbEntity
  8
AM_0
100
AcDbLine
 10
3573.613888587877
 20
687.9830148744622
 30
0.0
 11
3564.453884031699
 21
685.1152570660452
 31
0.0
  0
ARC
  5
2AB0
330
19
100
AcDbEntity
  8
AM_0
100
AcDbCircle
 10
3573.315113233848
 20
688.9373388732165
 30
0.0
 40
1.000000050013141
100
AcDbArc
 50
287.3839729784634
 51
18.22486883601847
  0
LINE
  5
2AB1
330
19
100
AcDbEntity
  8
AM_0
100
AcDbLine
 10
3570.884699937031
 20
699.5161606672409
 30
0.0
 11
3574.264950122759
 21
689.2500857564846
 31
0.0
  0
ARC
  5
2AB2
330
19
100
AcDbEntity
  8
AM_0
100
AcDbCircle
 10
3569.934863017014
 20
699.2034139825555
 30
0.0
 40
0.9999997782279691
100
AcDbArc
 50
18.22486406191594
 51
123.1236009999173
  0
LINE
  5
2AB3
330
19
100
AcDbEntity
  8
AM_0
100
AcDbLine
 10
3588.24738394849
 20
692.5643815401236
 30
0.0
 11
3577.908805575296
 21
689.3276435065309
 31
0.0
  0
ARC
  5
2AB4
330
19
100
AcDbEntity
  8
AM_0
100
AcDbCircle
 10
3587.948610421801
 20
693.5187047810105
 30
0.0
 40
0.9999997302534711
100
AcDbArc
 50
287.3839769999353
 51
343.2073399533018
  0
LINE
  5
2AB5
330
19
100
AcDbEntity
  8
AM_0
100
AcDbLine
 10
3591.587002392933
 20
702.1139322522322
 30
0.0
 11
3588.905966844485
 21
693.2297956872026
 31
0.0
  0
ARC
  5
2AB6
330
19
100
AcDbEntity
  8
AM_0
100
AcDbCircle
 10
3590.629647764131
 20
702.4028407826409
 30
0.0
 40
0.9999999424838091
100
AcDbArc
 50
343.2073322438765
 51
93.97278490360983
  0
LINE
  5
2AB7
330
19
100
AcDbEntity
  8
AM_0
100
AcDbLine
 10
3573.930065151379
 20
702.2454871538321
 30
0.0
 11
3590.560364540741
 21
703.4004370424191
 31
0.0
  0
ARC
  5
2AB8
330
19
100
AcDbEntity
  8
AM_0
100
AcDbCircle
 10
3573.999348142188
 20
701.247889739443
 30
0.0
 40
0.9999999424843364
100
AcDbArc
 50
93.97274918304508
 51
198.2248589998679
  0
LINE
  5
2AB9
330
19
100
AcDbEntity
  8
AM_0
100
AcDbLine
 10
3576.66019630067
 20
689.9692195209864
 30
0.0
 11
3573.049510832951
 21
700.9351423683802
 31
0.0
  0
ARC
  5
2ABA
330
19
100
AcDbEntity
  8
AM_0
100
AcDbCircle
 10
3577.610033407468
 20
690.2819668267948
 30
0.0
 40
0.999999778228004
100
AcDbArc
 50
198.224864061916
 51
287.3839769999053
  0
ARC
  5
2ABB
330
19
100
AcDbEntity
  8
AM_0
100
AcDbCircle
 10
3608.944722353216
 20
699.7705779640964
 30
0.0
 40
0.3000000018773497
100
AcDbArc
 50
18.22483397565352
 51
145.6079796921006
  0
LINE
  5
2ABC
330
19
100
AcDbEntity
  8
AM_0
100
AcDbLine
 10
3609.229671772644
 20
699.8644026669863
 30
0.0
 11
3609.370830472634
 21
699.4357018473784
 31
0.0
  0
ARC
  5
2ABD
330
19
100
AcDbEntity
  8
AM_0
100
AcDbCircle
 10
3609.608288271585
 20
699.5138879372207
 30
0.0
 40
0.2499999378118297
100
AcDbArc
 50
198.2248590003201
 51
287.3838704506139
  0
LINE
  5
2ABE
330
19
100
AcDbEntity
  8
AM_0
100
AcDbLine
 10
3611.745509322808
 20
699.9210308048168
 30
0.0
 11
3609.682979997322
 21
699.2753076109329
 31
0.0
  0
ARC
  5
2ABF
330
19
100
AcDbEntity
  8
AM_0
100
AcDbCircle
 10
3611.028638342525
 20
702.3160457029371
 30
0.0
 40
2.50000028031954
100
AcDbArc
 50
286.6634079877277
 51
288.1045304926636
  0
LINE
  5
2AC0
330
19
100
AcDbEntity
  8
AM_0
100
AcDbLine
 10
3615.728999491856
 20
701.1681574139038
 30
0.0
 11
3611.805516298934
 21
699.939817443792
 31
0.0
  0
ARC
  5
2AC1
330
19
100
AcDbEntity
  8
AM_0
100
AcDbCircle
 10
3615.430223376032
 20
702.1224806036007
 30
0.0
 40
1.000000077771534
100
AcDbArc
 50
287.3839769999053
 51
358.0000287873699
  0
LINE
  5
2AC2
330
19
100
AcDbEntity
  8
AM_0
100
AcDbLine
 10
3616.499724801705
 20
704.0951738807562
 30
0.0
 11
3616.429614838287
 21
702.087581411306
 31
0.0
  0
ARC
  5
2AC3
330
19
100
AcDbEntity
  8
AM_0
100
AcDbCircle
 10
3615.500330380898
 20
704.1300743232823
 30
0.0
 40
0.9999999424833436
100
AcDbArc
 50
357.9999587805161
 51
93.97278214397045
  0
LINE
  5
2AC4
330
19
100
AcDbEntity
  8
AM_0
100
AcDbLine
 10
3607.994715686962
 20
704.61122903258
 30
0.0
 11
3615.431050773785
 21
705.1276716145912
 31
0.0
  0
ARC
  5
2AC5
330
19
100
AcDbEntity
  8
AM_0
100
AcDbCircle
 10
3608.012034776897
 20
704.3618297169378
 30
0.0
 40
0.2500003770448982
100
AcDbArc
 50
93.9728515904839
 51
198.2248589998947
  0
LINE
  5
2AC6
330
19
100
AcDbEntity
  8
AM_0
100
AcDbLine
 10
3607.774573382065
 20
704.2836419048908
 30
0.0
 11
3607.838037427589
 21
704.0909084233681
 31
0.0
  0
ARC
  5
2AC7
330
19
100
AcDbEntity
  8
AM_0
100
AcDbCircle
 10
3607.553084397074
 20
703.997084591876
 30
0.0
 40
0.3000000484696487
100
AcDbArc
 50
250.8418018987605
 51
18.22483397544136
  0
ARC
  5
2AC8
330
19
100
AcDbEntity
  8
AM_0
100
AcDbCircle
 10
3606.63418140457
 20
701.3521616134531
 30
0.0
 40
2.500000000002473
100
AcDbArc
 50
70.84166099996905
 51
145.608058000013
  0
ARC
  5
2AC9
330
19
100
AcDbEntity
  8
AM_0
100
AcDbCircle
 10
3604.323640596403
 20
702.9337444821431
 30
0.0
 40
0.3000005708463868
100
AcDbArc
 50
198.2250153805357
 51
325.6080875710282
  0
LINE
  5
2ACA
330
19
100
AcDbEntity
  8
AM_0
100
AcDbLine
 10
3603.61775290601
 20
704.1183489117066
 30
0.0
 11
3604.038688357994
 21
702.8399186882416
 31
0.0
  0
ARC
  5
2ACB
330
19
100
AcDbEntity
  8
AM_0
100
AcDbCircle
 10
3603.380290017467
 20
704.0401612915193
 30
0.0
 40
0.2500003770412375
100
AcDbArc
 50
18.22485900010069
 51
93.97285159043146
  0
LINE
  5
2ACC
330
19
100
AcDbEntity
  8
AM_0
100
AcDbLine
 10
3594.827978875563
 20
703.6968174132744
 30
0.0
 11
3603.362965401337
 21
704.2895613911751
 31
0.0
  0
ARC
  5
2ACD
330
19
100
AcDbEntity
  8
AM_0
100
AcDbCircle
 10
3594.897259049975
 20
702.6992198234475
 30
0.0
 40
0.9999999078431826
100
AcDbArc
 50
93.97269202488914
 51
163.2073379998832
  0
LINE
  5
2ACE
330
19
100
AcDbEntity
  8
AM_0
100
AcDbLine
 10
3591.605360623524
 20
695.2521710398833
 30
0.0
 11
3593.939903196022
 21
702.9881293627659
 31
0.0
  0
ARC
  5
2ACF
330
19
100
AcDbEntity
  8
AM_0
100
AcDbCircle
 10
3592.56271693818
 20
694.963261857185
 30
0.0
 40
1.000000208932846
100
AcDbArc
 50
163.2073565063101
 51
287.3839769999353
  0
LINE
  5
2AD0
330
19
100
AcDbEntity
  8
AM_0
100
AcDbLine
 10
3605.388063009903
 20
697.9306789788643
 30
0.0
 11
3592.861491259262
 21
694.0089373591582
 31
0.0
  0
ARC
  5
2AD1
330
19
100
AcDbEntity
  8
AM_0
100
AcDbCircle
 10
3605.313366026655
 20
698.1692605745811
 30
0.0
 40
0.2500000871974331
100
AcDbArc
 50
287.3840891660336
 51
18.2248590000873
  0
LINE
  5
2AD2
330
19
100
AcDbEntity
  8
AM_0
100
AcDbLine
 10
3605.430322703049
 20
698.6134129318634
 30
0.0
 11
3605.550828393623
 21
698.2474478635231
 31
0.0
  0
ARC
  5
2AD3
330
19
100
AcDbEntity
  8
AM_0
100
AcDbCircle
 10
3605.715277287033
 20
698.7072376603173
 30
0.0
 40
0.3000002125617406
100
AcDbArc
 50
70.8416214907408
 51
198.2248339758739
  0
ARC
  5
2AD4
330
19
100
AcDbEntity
  8
AM_0
100
AcDbCircle
 10
3606.63418140457
 20
701.3521616134531
 30
0.0
 40
2.500001125852376
100
AcDbArc
 50
250.8416656242469
 51
325.608058000013
  0
LINE
  5
2AD5
330
19
100
AcDbEntity
  8
AM_0
100
AcDbLine
 10
3575.128073807881
 20
737.1503974053303
 30
0.0
 11
3575.197874572203
 21
739.1491795632282
 31
0.0
  0
LINE
  5
2AD6
330
19
100
AcDbEntity
  8
AM_0
100
AcDbLine
 10
3575.877617117092
 20
737.1242235156897
 30
0.0
 11
3575.128073807881
 21
737.1503974053303
 31
0.0
  0
LINE
  5
2AD7
330
19
100
AcDbEntity
  8
AM_0
100
AcDbLine
 10
3575.825269337819
 20
735.6251406225565
 30
0.0
 11
3575.877617117092
 21
737.1242235156897
 31
0.0
  0
LINE
  5
2AD8
330
19
100
AcDbEntity
  8
AM_0
100
AcDbLine
 10
3564.541664909646
 20
736.019172028009
 30
0.0
 11
3575.825269337819
 21
735.6251406225565
 31
0.0
  0
ARC
  5
2AD9
330
19
100
AcDbEntity
  8
AM_0
100
AcDbCircle
 10
3564.524214730432
 20
735.519475095909
 30
0.0
 40
0.5000002974582883
100
AcDbArc
 50
87.99997352629201
 51
193.000000000238
  0
LINE
  5
2ADA
330
19
100
AcDbEntity
  8
AM_0
100
AcDbLine
 10
3564.442527484223
 20
733.650595203344
 30
0.0
 11
3564.037029635236
 21
735.4069987985495
 31
0.0
  0
ARC
  5
2ADB
330
19
100
AcDbEntity
  8
AM_0
100
AcDbCircle
 10
3563.955342077613
 20
733.538121945192
 30
0.0
 40
0.5000002223842226
100
AcDbArc
 50
267.9999735261095
 51
12.99994197345924
  0
LINE
  5
2ADC
330
19
100
AcDbEntity
  8
AM_0
100
AcDbLine
 10
3562.128855850622
 20
733.1015991720597
 30
0.0
 11
3563.937892209813
 21
733.0384256991783
 31
0.0
  0
ARC
  5
2ADD
330
19
100
AcDbEntity
  8
AM_0
100
AcDbCircle
 10
3562.146304080842
 20
733.6012950376607
 30
0.0
 40
0.5000002800087473
100
AcDbArc
 50
178.0000000002049
 51
268.0000880480218
  0
LINE
  5
2ADE
330
19
100
AcDbEntity
  8
AM_0
100
AcDbLine
 10
3561.646607708261
 20
733.6187439712921
 30
0.0
 11
3561.716408472583
 21
735.6175261291901
 31
0.0
  0
ARC
  5
2ADF
330
19
100
AcDbEntity
  8
AM_0
100
AcDbCircle
 10
3561.216712300395
 20
735.6349760299927
 30
0.0
 40
0.5000000952206807
100
AcDbArc
 50
357.9999735264744
 51
87.99996952687225
  0
LINE
  5
2AE0
330
19
100
AcDbEntity
  8
AM_0
100
AcDbLine
 10
3557.104219686315
 20
736.2788918170372
 30
0.0
 11
3561.234162192867
 21
736.1346709284226
 31
0.0
  0
ARC
  5
2AE1
330
19
100
AcDbEntity
  8
AM_0
100
AcDbCircle
 10
3557.069320317836
 20
735.279501529385
 30
0.0
 40
1.0
100
AcDbArc
 50
88.00000000002231
 51
90.0
  0
LINE
  5
2AE2
330
19
100
AcDbEntity
  8
AM_0
100
AcDbLine
 10
3550.984571691678
 20
736.2795027646462
 30
0.0
 11
3557.069321166799
 21
736.2795027646462
 31
0.0
  0
ARC
  5
2AE3
330
19
100
AcDbEntity
  8
AM_0
100
AcDbCircle
 10
3550.984572317834
 20
735.779501529385
 30
0.0
 40
0.5
100
AcDbArc
 50
90.0
 51
180.0
  0
LINE
  5
2AE4
330
19
100
AcDbEntity
  8
AM_0
100
AcDbLine
 10
3550.484572541043
 20
734.8830553445259
 30
0.0
 11
3550.484572541043
 21
735.7795017513636
 31
0.0
  0
ARC
  5
2AE5
330
19
100
AcDbEntity
  8
AM_0
100
AcDbCircle
 10
3550.234572317834
 20
734.8830555293825
 30
0.0
 40
0.25
100
AcDbArc
 50
224.9999999995854
 51
0.0
  0
LINE
  5
2AE6
330
19
100
AcDbEntity
  8
AM_0
100
AcDbLine
 10
3548.777464781031
 20
735.9866055402199
 30
0.0
 11
3550.057795833871
 21
734.706279143993
 31
0.0
  0
ARC
  5
2AE7
330
19
100
AcDbEntity
  8
AM_0
100
AcDbCircle
 10
3548.070358317836
 20
735.279501529385
 30
0.0
 40
1.0
100
AcDbArc
 50
44.99987743529358
 51
90.0
  0
ARC
  5
2AE8
330
19
100
AcDbEntity
  8
AM_0
100
AcDbCircle
 10
3548.070358317836
 20
734.2795015293814
 30
0.0
 40
2.000000000003638
100
AcDbArc
 50
90.0
 51
180.0
  0
LINE
  5
2AE9
330
19
100
AcDbEntity
  8
AM_0
100
AcDbLine
 10
3546.070358719751
 20
722.5011477920452
 30
0.0
 11
3546.070358719751
 21
734.2795024368206
 31
0.0
  0
ARC
  5
2AEA
330
19
100
AcDbEntity
  8
AM_0
100
AcDbCircle
 10
3545.820358317835
 20
722.5011465293828
 30
0.0
 40
0.2500000000004547
100
AcDbArc
 50
326.3099320009864
 51
0.0
  0
LINE
  5
2AEB
330
19
100
AcDbEntity
  8
AM_0
100
AcDbLine
 10
3545.66280823581
 20
721.8141260299126
 30
0.0
 11
3546.028370972797
 21
722.3624701353947
 31
0.0
  0
ARC
  5
2AEC
330
19
100
AcDbEntity
  8
AM_0
100
AcDbCircle
 10
3545.870821181551
 20
721.6754526202385
 30
0.0
 40
0.250000163795585
100
AcDbArc
 50
146.3099960372722
 51
213.6900679997181
  0
LINE
  5
2AED
330
19
100
AcDbEntity
  8
AM_0
100
AcDbLine
 10
3545.66280823581
 20
721.5367781671921
 30
0.0
 11
3546.028370972797
 21
720.9884340617064
 31
0.0
  0
ARC
  5
2AEE
330
19
100
AcDbEntity
  8
AM_0
100
AcDbCircle
 10
3545.820358045266
 20
720.8497585293844
 30
0.0
 40
0.2499999999997954
100
AcDbArc
 50
0.0
 51
33.69006800001443
  0
LINE
  5
2AEF
330
19
100
AcDbEntity
  8
AM_0
100
AcDbLine
 10
3546.070357788429
 20
720.8497601303461
 30
0.0
 11
3546.070357788429
 21
719.2869449707905
 31
0.0
  0
ARC
  5
2AF0
330
19
100
AcDbEntity
  8
AM_0
100
AcDbCircle
 10
3546.320358045266
 20
719.2869435293833
 30
0.0
 40
0.2500000000004547
100
AcDbArc
 50
180.0
 51
270.0
  0
LINE
  5
2AF1
330
19
100
AcDbEntity
  8
AM_0
100
AcDbLine
 10
3546.320358295069
 20
719.036944464151
 30
0.0
 11
3546.729368161485
 21
719.036944464151
 31
0.0
  0
ARC
  5
2AF2
330
19
100
AcDbEntity
  8
AM_0
100
AcDbCircle
 10
3546.729368045265
 20
718.5369435293833
 30
0.0
 40
0.5000000000009095
100
AcDbArc
 50
0.0
 51
90.0
  0
LINE
  5
2AF3
330
19
100
AcDbEntity
  8
AM_0
100
AcDbLine
 10
3547.229368243441
 20
718.5369434508721
 30
0.0
 11
3547.229368243441
 21
715.8098633143345
 31
0.0
  0
ARC
  5
2AF4
330
19
100
AcDbEntity
  8
AM_0
100
AcDbCircle
 10
3547.72936817435
 20
715.8098625293824
 30
0.0
 40
0.5000001290836735
100
AcDbArc
 50
180.0
 51
299.9999829198766
  0
LINE
  5
2AF5
330
19
100
AcDbEntity
  8
AM_0
100
AcDbLine
 10
3547.979367900714
 20
715.3768504712025
 30
0.0
 11
3548.625467348918
 21
715.7498749646584
 31
0.0
  0
ARC
  5
2AF6
330
19
100
AcDbEntity
  8
AM_0
100
AcDbCircle
 10
3548.750467033825
 20
715.5333687727798
 30
0.0
 40
0.2499998480362641
100
AcDbArc
 50
30.00004021277662
 51
119.9999999999682
  0
LINE
  5
2AF7
330
19
100
AcDbEntity
  8
AM_0
100
AcDbLine
 10
3548.966973092482
 20
715.6583706590536
 30
0.0
 11
3550.003371205255
 21
713.8632761988083
 31
0.0
  0
ARC
  5
2AF8
330
19
100
AcDbEntity
  8
AM_0
100
AcDbCircle
 10
3549.570358165431
 20
713.613275848762
 30
0.0
 40
0.4999999999998441
100
AcDbArc
 50
0.0
 51
29.99999999999891
  0
LINE
  5
2AF9
330
19
100
AcDbEntity
  8
AM_0
100
AcDbLine
 10
3550.070357512757
 20
712.7282025966051
 30
0.0
 11
3550.070357512757
 21
713.6132756921688
 31
0.0
  0
ARC
  5
2AFA
330
19
100
AcDbEntity
  8
AM_0
100
AcDbCircle
 10
3549.570358441622
 20
712.7282028487607
 30
0.0
 40
0.4999997238091545
100
AcDbArc
 50
224.9999999996131
 51
0.0
  0
LINE
  5
2AFB
330
19
100
AcDbEntity
  8
AM_0
100
AcDbLine
 10
3548.36325161539
 20
713.2282036098841
 30
0.0
 11
3549.216805029735
 21
712.3746501955429
 31
0.0
  0
ARC
  5
2AFC
330
19
100
AcDbEntity
  8
AM_0
100
AcDbCircle
 10
3547.656145105733
 20
712.5210955128714
 30
0.0
 40
0.9999998011699063
100
AcDbArc
 50
45.00004051415353
 51
89.99999999997394
  0
LINE
  5
2AFD
330
19
100
AcDbEntity
  8
AM_0
100
AcDbLine
 10
3547.656144950613
 20
713.5210971090237
 30
0.0
 11
3547.070357952342
 21
713.5210971090237
 31
0.0
  0
ARC
  5
2AFE
330
19
100
AcDbEntity
  8
AM_0
100
AcDbCircle
 10
3547.070358105733
 20
712.5210953140413
 30
0.0
 40
1.000000000000455
100
AcDbArc
 50
90.0
 51
180.0
  0
LINE
  5
2AFF
330
19
100
AcDbEntity
  8
AM_0
100
AcDbLine
 10
3546.070357788429
 20
709.7943856123129
 30
0.0
 11
3546.070357788429
 21
712.5210950824658
 31
0.0
  0
ARC
  5
2B00
330
19
100
AcDbEntity
  8
AM_0
100
AcDbCircle
 10
3551.070358105732
 20
709.794386314039
 30
0.0
 40
5.0
100
AcDbArc
 50
180.0
 51
204.1275180000067
  0
LINE
  5
2B01
330
19
100
AcDbEntity
  8
AM_0
100
AcDbLine
 10
3547.663479115889
 20
705.1689031276146
 30
0.0
 11
3546.50716856502
 21
707.7505423429611
 31
0.0
  0
ARC
  5
2B02
330
19
100
AcDbEntity
  8
AM_0
100
AcDbCircle
 10
3547.891638931907
 20
705.2710952361849
 30
0.0
 40
0.2500001904627425
100
AcDbArc
 50
204.1274268524218
 51
270.0
  0
LINE
  5
2B03
330
19
100
AcDbEntity
  8
AM_0
100
AcDbLine
 10
3548.249268908128
 20
705.0210947844389
 30
0.0
 11
3547.891639176831
 21
705.0210947844389
 31
0.0
  0
ARC
  5
2B04
330
19
100
AcDbEntity
  8
AM_0
100
AcDbCircle
 10
3548.249268931907
 20
704.7710951712834
 30
0.0
 40
0.2499998744398916
100
AcDbArc
 50
1.736489750920618
 51
90.0
  0
ARC
  5
2B05
330
19
100
AcDbEntity
  8
AM_0
100
AcDbCircle
 10
3556.49548005741
 20
705.0210951750887
 30
0.0
 40
8.000000000000515
100
AcDbArc
 50
181.7365019999434
 51
304.707492000082
  0
LINE
  5
2B06
330
19
100
AcDbEntity
  8
AM_0
100
AcDbLine
 10
3561.050576161668
 20
698.4445380720535
 30
0.0
 11
3567.917778160497
 21
703.2009440216461
 31
0.0
  0
ARC
  5
2B07
330
19
100
AcDbEntity
  8
AM_0
100
AcDbCircle
 10
3567.63308495002
 20
703.6119783301328
 30
0.0
 40
0.4999998113967597
100
AcDbArc
 50
304.7075900903605
 51
34.70749200021489
  0
LINE
  5
2B08
330
19
100
AcDbEntity
  8
AM_0
100
AcDbLine
 10
3567.702188160345
 20
704.3903435322682
 30
0.0
 11
3568.04412138097
 21
703.8966717872063
 31
0.0
  0
ARC
  5
2B09
330
19
100
AcDbEntity
  8
AM_0
100
AcDbCircle
 10
3567.90770659345
 20
704.5326910831645
 30
0.0
 40
0.2500003883218218
100
AcDbArc
 50
93.3732300816605
 51
214.7074595964771
  0
LINE
  5
2B0A
330
19
100
AcDbEntity
  8
AM_0
100
AcDbLine
 10
3604.487526234314
 20
707.576914012734
 30
0.0
 11
3567.892997529432
 21
704.7822589728275
 31
0.0
  0
ARC
  5
2B0B
330
19
100
AcDbEntity
  8
AM_0
100
AcDbCircle
 10
3604.868255591065
 20
702.5914301702214
 30
0.0
 40
4.999999841887124
100
AcDbArc
 50
87.99999999999628
 51
94.36708335195642
  0
LINE
  5
2B0C
330
19
100
AcDbEntity
  8
AM_0
100
AcDbLine
 10
3619.855622764752
 20
707.0711071345249
 30
0.0
 11
3605.042750950978
 21
707.588384181563
 31
0.0
  0
LINE
  5
2B0D
330
19
100
AcDbEntity
  8
AM_0
100
AcDbLine
 10
3619.803274985477
 20
705.5720205161015
 30
0.0
 11
3619.855622764752
 21
707.0711071345249
 31
0.0
  0
LINE
  5
2B0E
330
19
100
AcDbEntity
  8
AM_0
100
AcDbLine
 10
3619.053731676266
 20
705.5981944057385
 30
0.0
 11
3619.803274985477
 21
705.5720205161015
 31
0.0
  0
LINE
  5
2B0F
330
19
100
AcDbEntity
  8
AM_0
100
AcDbLine
 10
3618.983927186654
 20
703.5994141104857
 30
0.0
 11
3619.053731676266
 21
705.5981944057385
 31
0.0
  0
ARC
  5
2B10
330
19
100
AcDbEntity
  8
AM_0
100
AcDbCircle
 10
3619.983320490385
 20
703.5645140155248
 30
0.0
 40
1.000000095220528
100
AcDbArc
 50
177.9999715265169
 51
267.9999999999702
  0
LINE
  5
2B11
330
19
100
AcDbEntity
  8
AM_0
100
AcDbLine
 10
3622.446897443459
 20
702.4778744879368
 30
0.0
 11
3619.948419746087
 21
702.5651226493756
 31
0.0
  0
ARC
  5
2B12
330
19
100
AcDbEntity
  8
AM_0
100
AcDbCircle
 10
3622.481797484349
 20
703.4772658426409
 30
0.0
 40
1.00000007777036
100
AcDbArc
 50
268.0000287874483
 51
357.9999999999964
  0
LINE
  5
2B13
330
19
100
AcDbEntity
  8
AM_0
100
AcDbLine
 10
3623.550984080955
 20
705.4411492052714
 30
0.0
 11
3623.481187041923
 21
703.4423670473734
 31
0.0
  0
LINE
  5
2B14
330
19
100
AcDbEntity
  8
AM_0
100
AcDbLine
 10
3622.801448222324
 20
705.4673230949084
 30
0.0
 11
3623.550984080955
 21
705.4411492052714
 31
0.0
  0
LINE
  5
2B15
330
19
100
AcDbEntity
  8
AM_0
100
AcDbLine
 10
3622.853796001598
 20
706.9664097133282
 30
0.0
 11
3622.801448222324
 21
705.4673230949084
 31
0.0
  0
LINE
  5
2B16
330
19
100
AcDbEntity
  8
AM_0
100
AcDbLine
 10
3625.102425929234
 20
706.8878861817757
 30
0.0
 11
3622.853796001598
 21
706.9664097133282
 31
0.0
  0
ARC
  5
2B17
330
19
100
AcDbEntity
  8
AM_0
100
AcDbCircle
 10
3625.084974751231
 20
706.3881895768936
 30
0.0
 40
0.5000002974571965
100
AcDbArc
 50
357.9999999999964
 51
87.99997352613556
  0
LINE
  5
2B18
330
19
100
AcDbEntity
  8
AM_0
100
AcDbLine
 10
3625.488462861702
 20
703.6156377497355
 30
0.0
 11
3625.58467220895
 21
706.370739519898
 31
0.0
  0
ARC
  5
2B19
330
19
100
AcDbEntity
  8
AM_0
100
AcDbCircle
 10
3622.989983019275
 20
703.7028865675311
 30
0.0
 40
2.499999970756819
100
AcDbArc
 50
288.2248590000451
 51
357.9999940312005
  0
LINE
  5
2B1A
330
19
100
AcDbEntity
  8
AM_0
100
AcDbLine
 10
3529.847343921736
 20
670.4023250120918
 30
0.0
 11
3623.771849092171
 21
701.3282946053187
 31
0.0
  0
ARC
  5
2B1B
330
19
100
AcDbEntity
  8
AM_0
100
AcDbCircle
 10
3529.534596138203
 20
671.3521612063414
 30
0.0
 40
1.000000409516519
100
AcDbArc
 50
270.0
 51
288.2249005642238
  0
LINE
  5
2B1C
330
19
100
AcDbEntity
  8
AM_0
100
AcDbLine
 10
3526.134181305841
 20
670.3521611842516
 30
0.0
 11
3529.534596022293
 21
670.3521611842516
 31
0.0
  0
LINE
  5
2B1D
330
19
100
AcDbEntity
  8
AM_0
100
AcDbLine
 10
3526.134181305841
 20
675.3521606068352
 30
0.0
 11
3526.134181305841
 21
670.3521611842516
 31
0.0
  0
LINE
  5
2B1E
330
19
100
AcDbEntity
  8
AM_0
100
AcDbLine
 10
3526.634180922135
 20
739.3521594557169
 30
0.0
 11
3526.634180922135
 21
675.3521606068352
 31
0.0
  0
ARC
  5
2B1F
330
19
100
AcDbEntity
  8
AM_0
100
AcDbCircle
 10
3527.634181138203
 20
739.352160796825
 30
0.0
 40
1.0
100
AcDbArc
 50
90.0
 51
180.0
  0
LINE
  5
2B20
330
19
100
AcDbEntity
  8
AM_0
100
AcDbLine
 10
3530.134181030169
 20
740.3521614822748
 30
0.0
 11
3527.634181086049
 21
740.3521614822748
 31
0.0
  0
ARC
  5
2B21
330
19
100
AcDbEntity
  8
AM_0
100
AcDbCircle
 10
3530.134181138202
 20
742.352160796825
 30
0.0
 40
2.000000000000909
100
AcDbArc
 50
270.0
 51
0.0
  0
LINE
  5
2B22
330
19
100
AcDbEntity
  8
AM_0
100
AcDbLine
 10
3532.134181125164
 20
743.9479942175785
 30
0.0
 11
3532.134181125164
 21
742.352161810104
 31
0.0
  0
LINE
  5
2B23
330
19
100
AcDbEntity
  8
AM_0
100
AcDbLine
 10
3533.634181138203
 20
743.9479942175785
 30
0.0
 11
3532.134181125164
 21
743.9479942175785
 31
0.0
  0
LINE
  5
2B24
330
19
100
AcDbEntity
  8
AM_0
100
AcDbLine
 10
3533.634181138203
 20
743.1979964229504
 30
0.0
 11
3533.634181138203
 21
743.9479942175785
 31
0.0
  0
LINE
  5
2B25
330
19
100
AcDbEntity
  8
AM_0
100
AcDbLine
 10
3535.634181233198
 20
743.1979964229504
 30
0.0
 11
3533.634181138203
 21
743.1979964229504
 31
0.0
  0
ARC
  5
2B26
330
19
100
AcDbEntity
  8
AM_0
100
AcDbCircle
 10
3535.634181138203
 20
744.1979947968248
 30
0.0
 40
1.000000000003638
100
AcDbArc
 50
270.0
 51
0.0
  0
LINE
  5
2B27
330
19
100
AcDbEntity
  8
AM_0
100
AcDbLine
 10
3536.63418116428
 20
746.6979960653225
 30
0.0
 11
3536.63418116428
 21
744.1979984495083
 31
0.0
  0
ARC
  5
2B28
330
19
100
AcDbEntity
  8
AM_0
100
AcDbCircle
 10
3535.634181138203
 20
746.6979947968248
 30
0.0
 40
1.0
100
AcDbArc
 50
0.0
 51
90.0
  0
LINE
  5
2B29
330
19
100
AcDbEntity
  8
AM_0
100
AcDbLine
 10
3533.634181138203
 20
747.6979980918804
 30
0.0
 11
3535.634181233198
 21
747.6979980918804
 31
0.0
  0
LINE
  5
2B2A
330
19
100
AcDbEntity
  8
AM_0
100
AcDbLine
 10
3533.634181138203
 20
746.9479928466717
 30
0.0
 11
3533.634181138203
 21
747.6979980918804
 31
0.0
  0
LINE
  5
2B2B
330
19
100
AcDbEntity
  8
AM_0
100
AcDbLine
 10
3532.134181125164
 20
746.9479928466717
 30
0.0
 11
3533.634181138203
 21
746.9479928466717
 31
0.0
  0
LINE
  5
2B2C
330
19
100
AcDbEntity
  8
AM_0
100
AcDbLine
 10
3532.134181125164
 20
748.9779184314648
 30
0.0
 11
3532.134181125164
 21
746.9479928466717
 31
0.0
  0
ARC
  5
2B2D
330
19
100
AcDbEntity
  8
AM_0
100
AcDbCircle
 10
3533.134180944946
 20
748.9779187968234
 30
0.0
 40
0.9999998067447009
100
AcDbArc
 50
80.98354825496735
 51
180.0
  0
LINE
  5
2B2E
330
19
100
AcDbEntity
  8
AM_0
100
AcDbLine
 10
3579.626756724045
 20
742.6130066368023
 30
0.0
 11
3533.29089898414
 21
749.9655599448124
 31
0.0
  0
ARC
  5
2B2F
330
19
100
AcDbEntity
  8
AM_0
100
AcDbCircle
 10
3579.234957956272
 20
740.143894868208
 30
0.0
 40
2.500000120980826
100
AcDbArc
 50
358.00242509126
 51
80.98349799997246
  0
LINE
  5
2B30
330
19
100
AcDbEntity
  8
AM_0
100
AcDbLine
 10
3581.606729891225
 20
736.4238987419048
 30
0.0
 11
3581.733438190147
 21
740.056753412191
 31
0.0
  0
ARC
  5
2B31
330
19
100
AcDbEntity
  8
AM_0
100
AcDbCircle
 10
3580.607338740203
 20
736.4587548757409
 30
0.0
 40
1.000000095220311
100
AcDbArc
 50
267.9999715266994
 51
358.0024340000156
  0
LINE
  5
2B32
330
19
100
AcDbEntity
  8
AM_0
100
AcDbLine
 10
3578.823442574665
 20
735.5204413387219
 30
0.0
 11
3580.572440292761
 21
735.459365204275
 31
0.0
  0
LINE
  5
2B33
330
19
100
AcDbEntity
  8
AM_0
100
AcDbLine
 10
3578.875790353939
 20
737.019524231855
 30
0.0
 11
3578.823442574665
 21
735.5204413387219
 31
0.0
  0
LINE
  5
2B34
330
19
100
AcDbEntity
  8
AM_0
100
AcDbLine
 10
3579.625333663151
 20
736.993350342218
 30
0.0
 11
3578.875790353939
 21
737.019524231855
 31
0.0
  0
LINE
  5
2B35
330
19
100
AcDbEntity
  8
AM_0
100
AcDbLine
 10
3579.695134427473
 20
738.992132500116
 30
0.0
 11
3579.625333663151
 21
736.993350342218
 31
0.0
  0
ARC
  5
2B36
330
19
100
AcDbEntity
  8
AM_0
100
AcDbCircle
 10
3578.695741648364
 20
739.027032974227
 30
0.0
 40
1.000000095221453
100
AcDbArc
 50
357.9999999999964
 51
87.99997152659526
  0
LINE
  5
2B37
330
19
100
AcDbEntity
  8
AM_0
100
AcDbLine
 10
3576.232164170668
 20
740.1136721226612
 30
0.0
 11
3578.73064186804
 21
740.026422098581
 31
0.0
  0
ARC
  5
2B38
330
19
100
AcDbEntity
  8
AM_0
100
AcDbCircle
 10
3576.197264642327
 20
739.1142818013432
 30
0.0
 40
1.00000007777038
100
AcDbArc
 50
87.99999999999628
 51
178.0000287873699
  0
LINE
  5
2B39
330
19
100
AcDbEntity
  8
AM_0
100
AcDbLine
 10
3526.634180922135
 20
675.3521606068352
 30
0.0
 11
3526.134181305841
 21
675.3521606068352
 31
0.0
  0
CIRCLE
  5
2B3A
330
19
100
AcDbEntity
  8
AM_0
100
AcDbCircle
 10
3533.634180942897
 20
679.3521608888914
 30
0.0
 40
2.085000000000266
  0
LINE
  5
2B3B
330
19
100
AcDbEntity
  8
AM_0
100
AcDbLine
 10
3532.491210153401
 20
676.8906777932534
 30
0.0
 11
3531.702734184526
 21
677.4395327291677
 31
0.0
  0
ARC
  5
2B3C
330
19
100
AcDbEntity
  8
AM_0
100
AcDbCircle
 10
3533.614871003178
 20
679.3120800058095
 30
0.0
 40
2.760167504608352
100
AcDbArc
 50
45.02866381015829
 51
135.6360082674518
  0
ARC
  5
2B3D
330
19
100
AcDbEntity
  8
AM_0
100
AcDbCircle
 10
3533.65845333681
 20
679.3746778145178
 30
0.0
 40
2.744578793705269
100
AcDbArc
 50
244.8309499014883
 51
314.5744610268223
  0
ARC
  5
2B3E
330
19
100
AcDbEntity
  8
AM_0
100
AcDbCircle
 10
3533.612660775127
 20
679.3058153479615
 30
0.0
 40
2.084729765117542
100
AcDbArc
 50
154.6934076538393
 51
335.4917153698208
  0
LINE
  5
2B3F
330
19
100
AcDbEntity
  8
AM_0
100
AcDbLine
 10
3532.484699044452
 20
676.87665580057
 30
0.0
 11
3531.695272777304
 21
677.4312056576127
 31
0.0
  0
CIRCLE
  5
2B40
330
19
100
AcDbEntity
  8
AM_0
100
AcDbCircle
 10
3606.63418140457
 20
701.3521616134531
 30
0.0
 40
2.084999999999716
  0
ARC
  5
2B41
330
19
100
AcDbEntity
  8
AM_0
100
AcDbCircle
 10
3606.613801136377
 20
701.3710806227355
 30
0.0
 40
2.722626819034415
100
AcDbArc
 50
151.8649891146892
 51
245.4225075858092
  0
ARC
  5
2B42
330
19
100
AcDbEntity
  8
AM_0
100
AcDbCircle
 10
3606.652089289201
 20
701.3324087120745
 30
0.0
 40
2.724413022426736
100
AcDbArc
 50
331.9049113118065
 51
65.38256819284271
  0
ARC
  5
2B43
330
19
100
AcDbEntity
  8
AM_0
100
AcDbCircle
 10
3606.615214427557
 20
701.3047124088407
 30
0.0
 40
2.08472918273677
100
AcDbArc
 50
157.8140056430546
 51
338.6123599364113
  0
CIRCLE
  5
2B44
330
19
100
AcDbEntity
  8
AM_0
100
AcDbCircle
 10
3542.634180710367
 20
742.3517640782193
 30
0.0
 40
2.085000000002744
  0
ARC
  5
2B45
330
19
100
AcDbEntity
  8
AM_0
100
AcDbCircle
 10
3542.620171618426
 20
742.3144624679444
 30
0.0
 40
2.708614122749239
100
AcDbArc
 50
174.4235571878711
 51
255.127497443973
  0
ARC
  5
2B46
330
19
100
AcDbEntity
  8
AM_0
100
AcDbCircle
 10
3542.624452076506
 20
742.3791527382746
 30
0.0
 40
2.732702272692381
100
AcDbArc
 50
341.4158727753249
 51
54.1574834965269
  0
ARC
  5
2B47
330
19
100
AcDbEntity
  8
AM_0
100
AcDbCircle
 10
3542.679504524108
 20
742.3281737079014
 30
0.0
 40
2.084731815804568
100
AcDbArc
 50
242.1031537396001
 51
62.90134530098229
  0
ARC
  5
2B48
330
19
100
AcDbEntity
  8
AM_0
100
AcDbCircle
 10
3623.698963757623
 20
709.678565863549
 30
0.0
 40
2.000000000000441
100
AcDbArc
 50
358.0000007596005
 51
88.00000075790597
  0
ARC
  5
2B49
330
19
100
AcDbEntity
  8
AM_0
100
AcDbCircle
 10
3533.634181695581
 20
679.352160647828
 30
0.0
 40
2.75000000000069
100
AcDbArc
 50
224.7316809670061
 51
315.2682923932164
  0
LINE
  5
2B4A
330
19
100
AcDbEntity
  8
AM_0
100
AcDbLine
 10
3545.250005092546
 20
741.5032575580517
 30
0.0
 11
3545.384180735871
 21
742.3517669293324
 31
0.0
  0
LINE
  5
2B4B
330
19
100
AcDbEntity
  8
AM_0
100
AcDbLine
 10
3533.290899013244
 20
749.9655599448124
 30
0.0
 11
3530.85455391936
 21
750.3521631214062
 31
0.0
  0
LINE
  5
2B4C
330
19
100
AcDbEntity
  8
AM_0
100
AcDbLine
 10
3530.85455391936
 20
750.3521631214062
 30
0.0
 11
3527.747075542882
 21
750.3521631214062
 31
0.0
  0
LINE
  5
2B4D
330
19
100
AcDbEntity
  8
AM_0
100
AcDbLine
 10
3526.767543986515
 20
747.8070000860098
 30
0.0
 11
3526.767543986515
 21
742.8230161520878
 31
0.0
  0
LINE
  5
2B4E
330
19
100
AcDbEntity
  8
AM_0
100
AcDbLine
 10
3526.767543986515
 20
740.3190101239124
 30
0.0
 11
3526.767543986515
 21
739.8510987612644
 31
0.0
  0
LINE
  5
2B4F
330
19
100
AcDbEntity
  8
AM_0
100
AcDbLine
 10
3581.406651999876
 20
730.6873428377548
 30
0.0
 11
3581.606729891225
 21
736.4238987419048
 31
0.0
  0
LINE
  5
2B50
330
19
100
AcDbEntity
  8
AM_0
100
AcDbLine
 10
3625.58467220895
 20
706.370739519898
 30
0.0
 11
3625.697742220089
 21
709.6087674352566
 31
0.0
  0
LINE
  5
2B51
330
19
100
AcDbEntity
  8
AM_0
100
AcDbLine
 10
3549.570358362124
 20
718.0369461628834
 30
0.0
 11
3547.479367818758
 21
718.0369461628834
 31
0.0
  0
LINE
  5
2B52
330
19
100
AcDbEntity
  8
AM_0
100
AcDbLine
 10
3549.820358868763
 20
731.8045201453606
 30
0.0
 11
3549.820358868763
 21
718.2869466695192
 31
0.0
  0
ARC
  5
2B53
330
19
100
AcDbEntity
  8
AM_0
100
AcDbCircle
 10
3550.563332422842
 20
713.3933943258926
 30
0.0
 40
0.249999999998958
100
AcDbArc
 50
209.9999999992621
 51
358.000000000622
  0
ARC
  5
2B54
330
19
100
AcDbEntity
  8
AM_0
100
AcDbCircle
 10
3546.570358302935
 20
733.3398626185881
 30
0.0
 40
0.5000000000004547
100
AcDbArc
 50
112.2623725647793
 51
180.0
  0
ARC
  5
2B55
330
19
100
AcDbEntity
  8
AM_0
100
AcDbCircle
 10
3551.037424980794
 20
734.1330559819107
 30
0.0
 40
0.5000000000004423
100
AcDbArc
 50
357.9999999997877
 51
90.0
  0
ARC
  5
2B56
330
19
100
AcDbEntity
  8
AM_0
100
AcDbCircle
 10
3546.320358302935
 20
732.554520159465
 30
0.0
 40
0.250000000003638
100
AcDbArc
 50
180.0
 51
270.0
  0
LINE
  5
2B57
330
19
100
AcDbEntity
  8
AM_0
100
AcDbLine
 10
3549.323218878434
 20
735.0070553574005
 30
0.0
 11
3546.380934309289
 21
733.8025907728115
 31
0.0
  0
ARC
  5
2B58
330
19
100
AcDbEntity
  8
AM_0
100
AcDbCircle
 10
3547.729368045266
 20
715.925333024581
 30
0.0
 40
0.5000000000004547
100
AcDbArc
 50
180.0
 51
299.9999999999742
  0
LINE
  5
2B59
330
19
100
AcDbEntity
  8
AM_0
100
AcDbLine
 10
3550.025406297371
 20
713.8251105997006
 30
0.0
 11
3550.346826206967
 21
713.2683957669142
 31
0.0
  0
LINE
  5
2B5A
330
19
100
AcDbEntity
  8
AM_0
100
AcDbLine
 10
3551.037424247787
 20
734.6330548378828
 30
0.0
 11
3550.234572034404
 21
734.6330548378828
 31
0.0
  0
LINE
  5
2B5B
330
19
100
AcDbEntity
  8
AM_0
100
AcDbLine
 10
3547.979367900714
 20
715.4923195692936
 30
0.0
 11
3548.575467433855
 21
715.8364767882267
 31
0.0
  0
ARC
  5
2B5C
330
19
100
AcDbEntity
  8
AM_0
100
AcDbCircle
 10
3548.700467009611
 20
715.6199718692733
 30
0.0
 40
0.2499999999999221
100
AcDbArc
 50
29.99999999999891
 51
120.0000000001201
  0
ARC
  5
2B5D
330
19
100
AcDbEntity
  8
AM_0
100
AcDbCircle
 10
3547.479368045266
 20
717.7869448492929
 30
0.0
 40
0.2500000000004547
100
AcDbArc
 50
90.0
 51
180.0
  0
LINE
  5
2B5E
330
19
100
AcDbEntity
  8
AM_0
100
AcDbLine
 10
3550.813180398271
 20
713.3846695277134
 30
0.0
 11
3550.894838761613
 21
715.7230715009609
 31
0.0
  0
LINE
  5
2B5F
330
19
100
AcDbEntity
  8
AM_0
100
AcDbLine
 10
3551.069336947128
 20
720.7200306209961
 30
0.0
 11
3551.227082502171
 21
725.2372766587177
 31
0.0
  0
LINE
  5
2B60
330
19
100
AcDbEntity
  8
AM_0
100
AcDbLine
 10
3551.401580687687
 20
730.234232053459
 30
0.0
 11
3551.537119787261
 21
734.1156045648495
 31
0.0
  0
ARC
  5
2B61
330
19
100
AcDbEntity
  8
AM_0
100
AcDbCircle
 10
3549.320358302936
 20
731.8045201594614
 30
0.0
 40
0.5
100
AcDbArc
 50
0.0
 51
90.0
  0
ARC
  5
2B62
330
19
100
AcDbEntity
  8
AM_0
100
AcDbCircle
 10
3549.570358302936
 20
718.2869448492929
 30
0.0
 40
0.25
100
AcDbArc
 50
270.0
 51
0.0
  0
ARC
  5
2B63
330
19
100
AcDbEntity
  8
AM_0
100
AcDbCircle
 10
3549.512642883873
 20
734.5443247915646
 30
0.0
 40
0.4999999999994475
100
AcDbArc
 50
44.99999999988025
 51
112.2623725647442
  0
LINE
  5
2B64
330
19
100
AcDbEntity
  8
AM_0
100
AcDbLine
 10
3546.320358295069
 20
732.3045211586395
 30
0.0
 11
3549.320357855484
 21
732.3045211586395
 31
0.0
  0
CIRCLE
  5
2B65
330
19
100
AcDbEntity
  8
AM_0
100
AcDbCircle
 10
3556.49548005741
 20
705.0210951750887
 30
0.0
 40
2.549999999986793
  0
CIRCLE
  5
2B66
330
19
100
AcDbEntity
  8
AM_0
100
AcDbCircle
 10
3556.49548005741
 20
705.0210951750887
 30
0.0
 40
2.999999999999437
  0
LINE
  5
2B67
330
19
100
AcDbEntity
  8
AM_0
100
AcDbLine
 10
3549.820357006118
 20
711.7746474894884
 30
0.0
 11
3550.940844234154
 21
711.7746474894884
 31
0.0
  0
LINE
  5
2B6B
330
19
100
AcDbEntity
  8
AM_0
100
AcDbLine
 10
3547.728261914179
 20
705.2689029577414
 30
0.0
 11
3546.598431658075
 21
707.7914180907646
 31
0.0
  0
LINE
  5
2B6F
330
19
100
AcDbEntity
  8
AM_0
100
AcDbLine
 10
3547.070357952342
 20
713.4210954162518
 30
0.0
 11
3547.656144019291
 21
713.4210954162518
 31
0.0
  0
ARC
  5
2B73
330
19
100
AcDbEntity
  8
AM_0
100
AcDbCircle
 10
3547.656144178853
 20
712.5210948298663
 30
0.0
 40
0.8999999999978179
100
AcDbArc
 50
45.00000223758174
 51
90.00000223787289
  0
LINE
  5
2B76
330
19
100
AcDbEntity
  8
AM_0
100
AcDbLine
 10
3548.29254001759
 20
713.1574901494387
 30
0.0
 11
3549.57287107043
 21
711.8771600279215
 31
0.0
  0
ARC
  5
2B79
330
19
100
AcDbEntity
  8
AM_0
100
AcDbCircle
 10
3549.820357756711
 20
712.1246483049836
 30
0.0
 40
0.3500000000021831
100
AcDbArc
 50
225.000002237508
 51
270.000002237456
  0
ARC
  5
2B7C
330
19
100
AcDbEntity
  8
AM_0
100
AcDbCircle
 10
3567.493939379103
 20
703.6372468740446
 30
0.0
 40
0.5000000000005466
100
AcDbArc
 50
304.7074946792561
 51
34.70749467950898
  0
LINE
  5
2B7E
330
19
100
AcDbEntity
  8
AM_0
100
AcDbLine
 10
3546.170357618556
 20
709.7943856123129
 30
0.0
 11
3546.170357618556
 21
712.5210950824658
 31
0.0
  0
LINE
  5
2B82
330
19
100
AcDbEntity
  8
AM_0
100
AcDbLine
 10
3567.778631117269
 20
703.2262126657406
 30
0.0
 11
3562.03022878997
 21
699.244715527002
 31
0.0
  0
LINE
  5
2B85
330
19
100
AcDbEntity
  8
AM_0
100
AcDbLine
 10
3548.346860338077
 20
705.1210946145693
 30
0.0
 11
3547.956421043798
 21
705.1210946145693
 31
0.0
  0
ARC
  5
2B87
330
19
100
AcDbEntity
  8
AM_0
100
AcDbCircle
 10
3547.9564213803
 20
705.3710948415901
 30
0.0
 40
0.2499999999996556
100
AcDbArc
 50
204.127519957121
 51
270.0000022378208
  0
LINE
  5
2B88
330
19
100
AcDbEntity
  8
AM_0
100
AcDbLine
 10
3565.247128721401
 20
707.759281874005
 30
0.0
 11
3567.904974337742
 21
703.9219404313008
 31
0.0
  0
ARC
  5
2B89
330
19
100
AcDbEntity
  8
AM_0
100
AcDbCircle
 10
3550.940843454158
 20
716.7746483487426
 30
0.0
 40
5.000000000000004
100
AcDbArc
 50
270.0000022377426
 51
284.8349057476254
  0
ARC
  5
2B8A
330
19
100
AcDbEntity
  8
AM_0
100
AcDbCircle
 10
3547.070357741226
 20
712.5210948069871
 30
0.0
 40
0.9000000000000916
100
AcDbArc
 50
90.0000022377947
 51
180.0000022374039
  0
ARC
  5
2B8C
330
19
100
AcDbEntity
  8
AM_0
100
AcDbCircle
 10
3548.346860548279
 20
704.8710948568441
 30
0.0
 40
0.2500000000000002
100
AcDbArc
 50
53.47838912192427
 51
90.00000222969157
  0
ARC
  5
2B8D
330
19
100
AcDbEntity
  8
AM_0
100
AcDbCircle
 10
3551.070357847718
 20
709.7943853540601
 30
0.0
 40
4.899999999999642
100
AcDbArc
 50
180.0000022378208
 51
204.1275199573485
  0
LINE
  5
2B8F
330
19
100
AcDbEntity
  8
AM_0
100
AcDbLine
 10
3559.592855166719
 20
701.5947851094643
 30
0.0
 11
3561.011438261792
 21
705.9903464022318
 31
0.0
  0
LWPOLYLINE
  5
2B90
330
19
100
AcDbEntity
  8
AM_0
100
AcDbPolyline
 90
        9
 70
   128
 43
0.0
 10
3561.011438261792
 20
705.9903464022318
 10
3561.016862284467
 20
705.9915105554501
 10
3561.032923873589
 20
705.9949583116213
 10
3561.059006493613
 20
706.0005555602911
 10
3561.094108041451
 20
706.0080899599234
 10
3561.136878099367
 20
706.0172690752188
 10
3561.185675676987
 20
706.0277427288929
 10
3561.238623227999
 20
706.0391067269484
 10
3561.293686743901
 20
706.0509252104166
  0
LINE
  5
2B91
330
19
100
AcDbEntity
  8
AM_0
100
AcDbLine
 10
3561.293686743901
 20
706.0509252104166
 30
0.0
 11
3559.786441739724
 21
701.3806405219475
 31
0.0
  0
LWPOLYLINE
  5
2B92
330
19
100
AcDbEntity
  8
AM_0
100
AcDbPolyline
 90
        9
 70
   128
 43
0.0
 10
3559.786441739724
 20
701.3806405219475
 10
3559.748674746677
 20
701.4224196526447
 10
3559.712358754203
 20
701.4625913205782
 10
3559.678890746161
 20
701.4996132555607
 10
3559.649555947706
 20
701.5320642593542
 10
3559.625481259152
 20
701.5586963596979
 10
3559.607592415139
 20
701.5784851017634
 10
3559.596574869082
 20
701.5906705263296
 10
3559.592855166719
 20
701.5947851094643
  0
LINE
  5
2B93
330
19
100
AcDbEntity
  8
AM_0
100
AcDbLine
 10
3559.786441739724
 20
701.3806405219475
 30
0.0
 11
3554.988236170337
 21
700.3508119586113
 31
0.0
  0
LINE
  5
2B94
330
19
100
AcDbEntity
  8
AM_0
100
AcDbLine
 10
3558.002724316046
 20
709.6913794729153
 30
0.0
 11
3561.293686743901
 21
706.0509252104166
 31
0.0
  0
LINE
  5
2B95
330
19
100
AcDbEntity
  8
AM_0
100
AcDbLine
 10
3553.20451874666
 20
708.6615490469376
 30
0.0
 11
3558.002724316046
 21
709.6913794729153
 31
0.0
  0
LINE
  5
2B96
330
19
100
AcDbEntity
  8
AM_0
100
AcDbLine
 10
3551.697273742482
 20
703.99126622111
 30
0.0
 11
3553.20451874666
 21
708.6615490469376
 31
0.0
  0
LINE
  5
2B97
330
19
100
AcDbEntity
  8
AM_0
100
AcDbLine
 10
3554.988236170337
 20
700.3508119586113
 30
0.0
 11
3551.697273742482
 21
703.99126622111
 31
0.0
  0
CIRCLE
  5
2B98
330
19
100
AcDbEntity
  8
AM_0
100
AcDbCircle
 10
3556.49548005741
 20
705.0210951750887
 30
0.0
 40
7.749999999999873
  0
LINE
  5
2B99
330
19
100
AcDbEntity
  8
AM_0
100
AcDbLine
 10
3561.011438261792
 20
705.9903464022318
 30
0.0
 11
3557.914062406942
 21
709.4166560772101
 31
0.0
  0
LWPOLYLINE
  5
2B9A
330
19
100
AcDbEntity
  8
AM_0
100
AcDbPolyline
 90
        9
 70
   128
 43
0.0
 10
3557.914062406942
 20
709.4166560772101
 10
3557.915766727254
 20
709.4219348135593
 10
3557.920812632964
 20
709.4375679943005
 10
3557.92900454633
 20
709.4629558476845
 10
3557.940031405613
 20
709.4971204850117
 10
3557.953466665074
 20
709.538750604097
 10
3557.968796234652
 20
709.5862461927536
 10
3557.98542779319
 20
709.6377837213913
 10
3558.002724316046
 20
709.6913794729153
  0
LWPOLYLINE
  5
2B9B
330
19
100
AcDbEntity
  8
AM_0
100
AcDbPolyline
 90
        9
 70
   128
 43
0.0
 10
3551.697273742482
 20
703.99126622111
 10
3551.752337258384
 20
704.0030847045819
 10
3551.805284809396
 20
704.0144487026337
 10
3551.854082387015
 20
704.0249204936626
 10
3551.896852444932
 20
704.0341014716068
 10
3551.931953992769
 20
704.0416340085903
 10
3551.958036612794
 20
704.0472331199089
 10
3551.974098201916
 20
704.050679013435
 10
3551.979520361946
 20
704.0518431666533
  0
LINE
  5
2B9C
330
19
100
AcDbEntity
  8
AM_0
100
AcDbLine
 10
3551.979520361946
 20
704.0518431666533
 30
0.0
 11
3555.076896216795
 21
700.625533491675
 31
0.0
  0
LWPOLYLINE
  5
2B9D
330
19
100
AcDbEntity
  8
AM_0
100
AcDbPolyline
 90
        9
 70
   128
 43
0.0
 10
3554.988236170337
 20
700.3508119586113
 10
3555.005532693193
 20
700.4044077101389
 10
3555.02216425173
 20
700.4559433761278
 10
3555.037493821308
 20
700.5034389647881
 10
3555.05092908077
 20
700.5450690838734
 10
3555.061954077408
 20
700.5792355838457
 10
3555.070147853419
 20
700.6046215745846
 10
3555.075193759129
 20
700.6202547553221
 10
3555.076896216795
 20
700.625533491675
  0
LINE
  5
2B9E
330
19
100
AcDbEntity
  8
AM_0
100
AcDbLine
 10
3561.860292222425
 20
699.0865527394453
 30
0.0
 11
3561.050576161668
 21
698.4445380720535
 31
0.0
  0
ARC
  5
2B9F
330
19
100
AcDbEntity
  8
AM_0
100
AcDbCircle
 10
3556.49548005741
 20
705.0210951750887
 30
0.0
 40
8.000000000000515
100
AcDbArc
 50
312.1135080739477
 51
181.7365019999434
  0
LINE
  5
2BA0
330
19
100
AcDbEntity
  8
AM_0
100
AcDbLine
 10
3553.398103457019
 20
708.4474044594172
 30
0.0
 11
3551.979520361946
 21
704.0518431666533
 31
0.0
  0
LWPOLYLINE
  5
2BA1
330
19
100
AcDbEntity
  8
AM_0
100
AcDbPolyline
 90
        9
 70
   128
 43
0.0
 10
3553.398103457019
 20
708.4474044594172
 10
3553.394383754656
 20
708.4515190425554
 10
3553.383368071244
 20
708.4637063297669
 10
3553.36547922723
 20
708.4834950718323
 10
3553.341404538676
 20
708.5101253095308
 10
3553.312069740221
 20
708.5425763133208
 10
3553.278599869534
 20
708.5796001109484
 10
3553.242285739705
 20
708.6197717788818
 10
3553.20451874666
 20
708.6615490469376
  0
LINE
  5
2BA2
330
19
100
AcDbEntity
  8
AM_0
100
AcDbLine
 10
3557.914062406942
 20
709.4166560772101
 30
0.0
 11
3553.398103457019
 21
708.4474044594172
 31
0.0
  0
LINE
  5
2BA3
330
19
100
AcDbEntity
  8
AM_0
100
AcDbLine
 10
3555.076896216795
 20
700.625533491675
 30
0.0
 11
3559.592855166719
 21
701.5947851094643
 31
0.0
  0
LWPOLYLINE
  5
2BA4
330
19
100
AcDbEntity
  8
AM_0
100
AcDbPolyline
 90
        9
 70
   128
 43
0.0
 10
3551.979520361946
 20
704.0518431666533
 10
3551.984944384619
 20
704.0530073198715
 10
3552.001005973742
 20
704.0564550760428
 10
3552.027088593766
 20
704.0620523247162
 10
3552.062190141603
 20
704.0695867243448
 10
3552.10496019952
 20
704.0787658396403
 10
3552.15375777714
 20
704.0892394933144
 10
3552.206705328152
 20
704.1006034913698
 10
3552.261768844053
 20
704.1124219748417
  0
LINE
  5
2BA5
330
19
100
AcDbEntity
  8
AM_0
100
AcDbLine
 10
3552.261768844053
 20
704.1124219748417
 30
0.0
 11
3555.165558125899
 21
700.9002568873802
 31
0.0
  0
LWPOLYLINE
  5
2BA6
330
19
100
AcDbEntity
  8
AM_0
100
AcDbPolyline
 90
        9
 70
   128
 43
0.0
 10
3555.076896216795
 20
700.625533491675
 10
3555.078600537106
 20
700.6308122280279
 10
3555.083646442816
 20
700.6464454087654
 10
3555.091838356182
 20
700.6718332621458
 10
3555.102865215465
 20
700.705997899473
 10
3555.116300474927
 20
700.7476298812071
 10
3555.13162818186
 20
700.7951254698637
 10
3555.148261603043
 20
700.8466611358563
 10
3555.165558125899
 20
700.9002568873802
  0
LINE
  5
2BA7
330
19
100
AcDbEntity
  8
AM_0
100
AcDbLine
 10
3557.825402360485
 20
709.1419326815012
 30
0.0
 11
3553.591690030024
 21
708.233259871904
 31
0.0
  0
LWPOLYLINE
  5
2BA8
330
19
100
AcDbEntity
  8
AM_0
100
AcDbPolyline
 90
       10
 70
   128
 43
0.0
 10
3553.398103457019
 20
708.4474044594172
 10
3553.40104457371
 20
708.4441504183451
 10
3553.409778516815
 20
708.4344907406012
 10
3553.424040790722
 20
708.4187141361836
 10
3553.443395536467
 20
708.3973048928419
 10
3553.467256020829
 20
708.3709093484322
 10
3553.494897674843
 20
708.3403321656624
 10
3553.525480445549
 20
708.3065028044621
 10
3553.558074873016
 20
708.2704457196633
 10
3553.591690030024
 20
708.233259871904
  0
LWPOLYLINE
  5
2BA9
330
19
100
AcDbEntity
  8
AM_0
100
AcDbPolyline
 90
        9
 70
   128
 43
0.0
 10
3557.825402360485
 20
709.1419326815012
 10
3557.84269888334
 20
709.1955284330288
 10
3557.859330441877
 20
709.2470659616629
 10
3557.874660011455
 20
709.2945615503195
 10
3557.888095270917
 20
709.3361916694048
 10
3557.899120267555
 20
709.3703563067356
 10
3557.907314043567
 20
709.395744160116
 10
3557.912359949276
 20
709.4113773408571
 10
3557.914062406942
 20
709.4166560772101
  0
LINE
  5
2BAA
330
19
100
AcDbEntity
  8
AM_0
100
AcDbLine
 10
3559.399270456359
 20
701.8089296969811
 30
0.0
 11
3560.729191642329
 21
705.9297675940434
 31
0.0
  0
LWPOLYLINE
  5
2BAB
330
19
100
AcDbEntity
  8
AM_0
100
AcDbPolyline
 90
        9
 70
   128
 43
0.0
 10
3560.729191642329
 20
705.9297675940434
 10
3560.784255158231
 20
705.9415860775152
 10
3560.837202709243
 20
705.9529500755671
 10
3560.886000286863
 20
705.9634237292448
 10
3560.928770344779
 20
705.9726028445402
 10
3560.963871892616
 20
705.9801372441689
 10
3560.989954512641
 20
705.9857344928423
 10
3561.006016101763
 20
705.9891822490135
 10
3561.011438261792
 20
705.9903464022318
  0
LWPOLYLINE
  5
2BAC
330
19
100
AcDbEntity
  8
AM_0
100
AcDbPolyline
 90
        9
 70
   128
 43
0.0
 10
3559.399270456359
 20
701.8089296969811
 10
3559.437037449405
 20
701.767152428929
 10
3559.473351579234
 20
701.7269807609919
 10
3559.506819587275
 20
701.6899569633642
 10
3559.536156248376
 20
701.6575078222195
 10
3559.56023093693
 20
701.6308757218758
 10
3559.578119780943
 20
701.6110869798104
 10
3559.589135464355
 20
701.5988996925989
 10
3559.592855166719
 20
701.5947851094643
  0
LINE
  5
2BAD
330
19
100
AcDbEntity
  8
AM_0
100
AcDbLine
 10
3555.165558125899
 20
700.9002568873802
 30
0.0
 11
3559.399270456359
 21
701.8089296969811
 31
0.0
  0
LINE
  5
2BAE
330
19
100
AcDbEntity
  8
AM_0
100
AcDbLine
 10
3553.591690030024
 20
708.233259871904
 30
0.0
 11
3552.261768844053
 21
704.1124219748417
 31
0.0
  0
LINE
  5
2BAF
330
19
100
AcDbEntity
  8
AM_0
100
AcDbLine
 10
3560.729191642329
 20
705.9297675940434
 30
0.0
 11
3557.825402360485
 21
709.1419326815012
 31
0.0
  0
CIRCLE
  5
2BB0
330
19
100
AcDbEntity
  8
AM_0
100
AcDbCircle
 10
3556.49548005741
 20
705.0210951750887
 30
0.0
 40
3.249999999998482
  0
CIRCLE
  5
2BB1
330
19
100
AcDbEntity
  8
AM_0
100
AcDbCircle
 10
3556.49548005741
 20
705.0210951750887
 30
0.0
 40
3.500000000000143
  0
SPLINE
  5
2BB3
330
19
100
AcDbEntity
  8
AM_0
100
AcDbSpline
210
0.0
220
0.0
230
1.0
 70
     8
 71
     3
 72
    11
 73
     7
 74
     0
 42
0.000000001
 43
0.0000000001
 40
0.0
 40
0.0
 40
0.0
 40
0.0
 40
0.0032449362821172
 40
0.3197100445858052
 40
0.745589750475357
 40
1.0
 40
1.0
 40
1.0
 40
1.0
 10
3564.323940318153
 20
703.3733076158205
 30
0.0
 10
3564.32521174664
 20
703.3793566579261
 30
0.0
 10
3564.450480295218
 20
703.9753435596431
 30
0.0
 10
3564.6676050123
 20
705.3793907570252
 30
0.0
 10
3564.756368357181
 20
707.3018246421962
 30
0.0
 10
3564.577454641792
 20
708.6213656123655
 30
0.0
 10
3564.510545697138
 20
709.1148386451641
 30
0.0
  0
SPLINE
  5
2BB4
330
19
100
AcDbEntity
  8
AM_0
100
AcDbSpline
210
0.0
220
0.0
230
1.0
 70
     8
 71
     3
 72
    11
 73
     7
 74
     0
 42
0.000000001
 43
0.0000000001
 40
0.0
 40
0.0
 40
0.0
 40
0.0
 40
0.0032447192264532
 40
0.3197099477455901
 40
0.7455895987869019
 40
1.0
 40
1.0
 40
1.0
 40
1.0
 10
3551.130668263957
 20
710.9556386920849
 30
0.0
 10
3551.135254602734
 20
710.9597820631789
 30
0.0
 10
3551.587157534345
 20
711.3680383294413
 30
0.0
 10
3552.690979398599
 20
712.2625063575142
 30
0.0
 10
3554.307359771893
 20
713.3069908041471
 30
0.0
 10
3555.537561362746
 20
713.8166977104265
 30
0.0
 10
3555.997624065802
 20
714.0073145481983
 30
0.0
  0
ARC
  5
2BB6
330
19
100
AcDbEntity
  8
AM_0
100
AcDbCircle
 10
3556.49548005741
 20
705.0210951750887
 30
0.0
 40
9.000000000000009
100
AcDbArc
 50
27.0559493429138
 51
93.17106680501497
  0
LINE
  5
2BB7
330
19
100
AcDbEntity
  8
AM_0
100
AcDbLine
 10
3566.045488234684
 20
711.5521955046061
 30
0.0
 11
3564.323940318153
 21
703.3733076158205
 31
0.0
  0
ARC
  5
2BBA
330
19
100
AcDbEntity
  8
AM_0
100
AcDbCircle
 10
3565.556210193777
 20
711.6551824806811
 30
0.0
 40
0.5000000000008995
100
AcDbArc
 50
348.113508073591
 51
52.11350807377446
  0
LINE
  5
2BBC
330
19
100
AcDbEntity
  8
AM_0
100
AcDbLine
 10
3551.130668263957
 20
710.9556386920849
 30
0.0
 11
3554.600925188586
 21
714.0927429053227
 31
0.0
  0
LINE
  5
2BBD
330
19
100
AcDbEntity
  8
AM_0
100
AcDbLine
 10
3563.643532808945
 20
713.7769686731735
 30
0.0
 11
3565.863258209155
 21
712.0497974309365
 31
0.0
  0
LINE
  5
2BC2
330
19
100
AcDbEntity
  8
AM_0
100
AcDbLine
 10
3556.036663245484
 20
714.042604223192
 30
0.0
 11
3555.997624065802
 21
714.0073145481983
 31
0.0
  0
HATCH
  5
2BC4
330
19
100
AcDbEntity
  8
AM_8
100
AcDbHatch
 10
0.0
 20
0.0
 30
0.0
210
0.0
220
0.0
230
1.0
  2
ANSI31
 70
     0
 71
     0
 91
       10
 92
        0
 93
      101
 72
     2
 10
3576.197264642327
 20
739.1142818013432
 40
1.000000077770206
 50
181.9999712126208
 51
271.9999999999949
 73
     0
 72
     1
 10
3576.232164141744
 20
740.1136727060839
 11
3578.730641645041
 21
740.026423879066
 72
     2
 10
3578.695741648364
 20
739.027032974227
 40
1.000000095220217
 50
272.0000284734094
 51
361.9999999999094
 73
     0
 72
     1
 10
3579.695132570545
 20
738.992133474203
 11
3579.625333743527
 21
736.9933519709084
 72
     1
 10
3579.625333743527
 20
736.9933519709084
 11
3578.875790743526
 21
737.0195259709035
 72
     1
 10
3578.875790743526
 20
737.0195259709035
 11
3578.823441743527
 21
735.5204399709073
 72
     1
 10
3578.823441743527
 20
735.5204399709073
 11
3580.572438743528
 21
735.4593639709092
 72
     2
 10
3580.607338740203
 20
736.4587548757445
 40
1.000000095220136
 50
267.9999715267411
 51
358.0024339998803
 73
     1
 72
     1
 10
3581.606731144059
 20
736.4238978311878
 11
3581.733438835365
 21
740.0567518724238
 72
     2
 10
3579.234957956273
 20
740.143894868208
 40
2.500000120980391
 50
358.0024250913164
 51
440.9834980000123
 73
     1
 72
     1
 10
3579.626755292353
 20
742.6130030983877
 11
3533.290898975232
 21
749.965561987694
 72
     2
 10
3533.134180944946
 20
748.9779187968234
 40
0.9999998067432209
 50
80.9835482549174
 51
180.0
 73
     1
 72
     1
 10
3532.134181138203
 20
748.9779187968234
 11
3532.134181138203
 21
746.9479947968248
 72
     1
 10
3532.134181138203
 20
746.9479947968248
 11
3533.634181138203
 21
746.9479947968248
 72
     1
 10
3533.634181138203
 20
746.9479947968248
 11
3533.634181138203
 21
747.6979947968248
 72
     1
 10
3533.634181138203
 20
747.6979947968248
 11
3535.634181138203
 21
747.6979947968248
 72
     2
 10
3535.634181138203
 20
746.6979947968248
 40
1.000000000000057
 50
270.0000000000008
 51
360.0000000000008
 73
     0
 72
     1
 10
3536.634181138203
 20
746.6979947968248
 11
3536.634181138203
 21
744.1979947968248
 72
     2
 10
3535.634181138203
 20
744.1979947968248
 40
1.000000000000056
 50
0.0
 51
90.0
 73
     0
 72
     1
 10
3535.634181138203
 20
743.1979947968248
 11
3533.634181138203
 21
743.1979947968248
 72
     1
 10
3533.634181138203
 20
743.1979947968248
 11
3533.634181138203
 21
743.9479947968248
 72
     1
 10
3533.634181138203
 20
743.9479947968248
 11
3532.134181138203
 21
743.9479947968248
 72
     1
 10
3532.134181138203
 20
743.9479947968248
 11
3532.134181138203
 21
742.352160796825
 72
     2
 10
3530.134181138203
 20
742.352160796825
 40
2.000000000000001
 50
0.0
 51
90.0
 73
     0
 72
     1
 10
3530.134181138203
 20
740.352160796825
 11
3527.634181138203
 21
740.352160796825
 72
     2
 10
3527.634181138203
 20
739.352160796825
 40
1.0
 50
90.0
 51
180.0
 73
     1
 72
     1
 10
3526.634181138203
 20
739.352160796825
 11
3526.634181138203
 21
675.352160796825
 72
     1
 10
3526.634181138203
 20
675.352160796825
 11
3526.134181138203
 21
675.352160796825
 72
     1
 10
3526.134181138203
 20
675.352160796825
 11
3526.134181138203
 21
670.352160796825
 72
     1
 10
3526.134181138203
 20
670.352160796825
 11
3529.534596138204
 21
670.352160796825
 72
     2
 10
3529.534596138204
 20
671.3521612063414
 40
1.000000409517898
 50
270.0000000000008
 51
288.2249005642311
 73
     1
 72
     1
 10
3529.847344010126
 20
670.4023245953176
 11
3623.77185064714
 21
701.3282954729912
 72
     2
 10
3622.989983019276
 20
703.7028865675311
 40
2.499999970756375
 50
288.2248589999973
 51
357.9999940311144
 73
     1
 72
     1
 10
3625.488460048508
 20
703.6156375665123
 11
3625.584670462017
 21
706.3707398181614
 72
     2
 10
3625.084974751231
 20
706.3881895768936
 40
0.5000002974577887
 50
358.0000000000126
 51
447.9999735261365
 73
     1
 72
     1
 10
3625.102424740851
 20
706.8878852796151
 11
3622.853794740851
 21
706.9664092796193
 72
     1
 10
3622.853794740851
 20
706.9664092796193
 11
3622.801445740851
 21
705.4673222796191
 72
     1
 10
3622.801445740851
 20
705.4673222796191
 11
3623.550987578844
 21
705.4411483201948
 72
     1
 10
3623.550987578844
 20
705.4411483201948
 11
3623.481188389091
 21
703.4423663432244
 72
     2
 10
3622.481797484349
 20
703.4772658426409
 40
1.000000077770575
 50
1.999999999991368
 51
91.99997121249162
 73
     0
 72
     1
 10
3622.446898487063
 20
702.4778749203651
 11
3619.94842099036
 21
702.5651230933436
 72
     2
 10
3619.983320490385
 20
703.5645140155284
 40
1.000000095219922
 50
91.9999999999795
 51
182.0000284731787
 73
     0
 72
     1
 10
3618.983929585548
 20
703.599414012202
 11
3619.053728585547
 21
705.5981950122041
 72
     1
 10
3619.053728585547
 20
705.5981950122041
 11
3619.803272585547
 21
705.5720210122054
 72
     1
 10
3619.803272585547
 20
705.5720210122054
 11
3619.855621585548
 21
707.0711070122052
 72
     1
 10
3619.855621585548
 20
707.0711070122052
 11
3605.04275306906
 21
707.5883841473005
 72
     2
 10
3604.868255591065
 20
702.5914301702214
 40
4.999999841882435
 50
87.99999999999986
 51
94.36708335195952
 73
     1
 72
     1
 10
3604.487524579026
 20
707.5769133278845
 11
3567.892996579027
 21
704.782258327883
 72
     2
 10
3567.90770659345
 20
704.5326910831645
 40
0.250000388321976
 50
93.37323008175971
 51
214.7074595964691
 73
     1
 72
     1
 10
3567.702188794975
 20
704.3903442227456
 11
3568.044119592462
 21
703.8966717338335
 72
     2
 10
3567.63308495002
 20
703.6119783301328
 40
0.4999998113958076
 50
325.2925079998003
 51
415.292409909606
 73
     0
 72
     1
 10
3567.917779057409
 20
703.2009441750888
 11
3561.050576234808
 21
698.4445384153078
 72
     2
 10
3556.49548005741
 20
705.0210951750887
 40
7.999999999999601
 50
55.29250799994207
 51
178.2634980000044
 73
     0
 72
     2
 10
3548.249268931908
 20
704.7710951712834
 40
0.2499998744398709
 50
1.736489751014475
 51
90.0
 73
     1
 72
     1
 10
3548.249268931908
 20
705.0210950457222
 11
3547.891638931907
 21
705.0210950457222
 72
     2
 10
3547.891638931907
 20
705.2710952361849
 40
0.2500001904632512
 50
90.0
 51
155.8725731476244
 73
     0
 72
     1
 10
3547.663479105732
 20
705.1689033140428
 11
3546.507168310097
 21
707.7505421690548
 72
     2
 10
3551.070358105732
 20
709.7943863140426
 40
4.999999999999999
 50
155.8724820000259
 51
180.0
 73
     0
 72
     1
 10
3546.070358105733
 20
709.7943863140426
 11
3546.070358105733
 21
712.5210953140413
 72
     2
 10
3547.070358105733
 20
712.5210953140413
 40
1.0
 50
180.0
 51
270.0000000000008
 73
     0
 72
     1
 10
3547.070358105733
 20
713.5210953140413
 11
3547.656145105734
 21
713.5210953140413
 72
     2
 10
3547.656145105733
 20
712.5210955128714
 40
0.9999998011712162
 50
270.000000000079
 51
314.9999594858001
 73
     0
 72
     1
 10
3548.363251246325
 20
713.2282026534631
 11
3549.216805246324
 21
712.3746496534659
 72
     2
 10
3549.570358441622
 20
712.7282028487607
 40
0.4999997238091104
 50
224.9999999997429
 51
360.0000000000008
 73
     1
 72
     1
 10
3550.070358165432
 20
712.7282028487607
 11
3550.070358165432
 21
713.613275848762
 72
     2
 10
3549.570358165431
 20
713.613275848762
 40
0.5000000000000009
 50
0.0
 51
29.99999999998426
 73
     1
 72
     1
 10
3550.003370867324
 20
713.863275848762
 11
3548.966973165436
 21
715.6583688487517
 72
     2
 10
3548.750467033826
 20
715.5333687727798
 40
0.2499998480361986
 50
30.00004021282228
 51
119.9999999998971
 73
     1
 72
     1
 10
3548.625467109808
 20
715.7498749921215
 11
3547.979368109808
 21
715.3768496411758
 72
     2
 10
3547.72936817435
 20
715.8098625293824
 40
0.5000001290843977
 50
60.00001708010224
 51
180.0
 73
     0
 72
     1
 10
3547.229368045266
 20
715.8098625293824
 11
3547.229368045266
 21
718.5369435293833
 72
     2
 10
3546.729368045266
 20
718.5369435293833
 40
0.5000000000000004
 50
0.0
 51
90.0
 73
     1
 72
     1
 10
3546.729368045266
 20
719.0369435293833
 11
3546.320358045266
 21
719.0369435293833
 72
     2
 10
3546.320358045266
 20
719.2869435293833
 40
0.2500000000000002
 50
90.0
 51
180.0
 73
     0
 72
     1
 10
3546.070358045267
 20
719.2869435293833
 11
3546.070358045267
 21
720.8497585293844
 72
     2
 10
3545.820358045266
 20
720.8497585293844
 40
0.2499999999999976
 50
0.0
 51
33.69006800003068
 73
     1
 72
     1
 10
3546.028370617703
 20
720.9884335801617
 11
3545.662808472829
 21
721.5367774786064
 72
     2
 10
3545.870821181551
 20
721.6754526202385
 40
0.2500001637937186
 50
146.3099320002587
 51
213.690003962792
 73
     0
 72
     1
 10
3545.662808317836
 20
721.8141275293856
 11
3546.028370890274
 21
722.3624714786092
 72
     2
 10
3545.820358317836
 20
722.5011465293865
 40
0.2500000000000004
 50
326.3099320001436
 51
360.0000000000008
 73
     1
 72
     1
 10
3546.070358317836
 20
722.5011465293865
 11
3546.070358317836
 21
734.279501529385
 72
     2
 10
3548.070358317836
 20
734.279501529385
 40
2.0
 50
180.0
 51
270.0000000000008
 73
     0
 72
     2
 10
3548.070358317836
 20
735.279501529385
 40
0.9999999999999927
 50
270.0000000000008
 51
315.0001225646401
 73
     0
 72
     1
 10
3548.777465099023
 20
735.986605285354
 11
3550.057795622537
 21
734.7062788340882
 72
     2
 10
3550.234572317834
 20
734.8830555293862
 40
0.2499999999999984
 50
225.0000000002219
 51
360.0000000000008
 73
     1
 72
     1
 10
3550.484572317834
 20
734.8830555293862
 11
3550.484572317834
 21
735.779501529385
 72
     2
 10
3550.984572317834
 20
735.779501529385
 40
0.5000000000000004
 50
180.0
 51
270.0000000000008
 73
     0
 72
     1
 10
3550.984572317834
 20
736.279501529385
 11
3557.069320317836
 21
736.279501529385
 72
     2
 10
3557.069320317836
 20
735.279501529385
 40
0.9999999999999943
 50
270.0000000000008
 51
271.9999999999787
 73
     0
 72
     1
 10
3557.104219814538
 20
736.278892356404
 11
3561.234162317835
 21
736.1346715293839
 72
     2
 10
3561.216712300396
 20
735.6349760299927
 40
0.5000000952206379
 50
272.0000304730352
 51
362.000026473541
 73
     0
 72
     1
 10
3561.716407801004
 20
735.6175260474338
 11
3561.646608387495
 21
733.6187447957818
 72
     2
 10
3562.146304080842
 20
733.6012950376607
 40
0.5000002800082497
 50
178.0000000002647
 51
268.0000880480341
 73
     1
 72
     1
 10
3562.128855090615
 20
733.1015993174988
 11
3563.937892090613
 21
733.0384263174965
 72
     2
 10
3563.955342077613
 20
733.538121945192
 40
0.5000002223827772
 50
267.9999735261134
 51
372.9999419739563
 73
     1
 72
     1
 10
3564.442527440598
 20
733.6505970289945
 11
3564.037029408205
 21
735.4069995018217
 72
     2
 10
3564.524214730432
 20
735.519475095909
 40
0.5000002974577408
 50
166.9999999997869
 51
272.0000264736568
 73
     0
 72
     1
 10
3564.54166472005
 20
736.0191707986305
 11
3575.82526872005
 21
735.6251387986304
 72
     1
 10
3575.82526872005
 20
735.6251387986304
 11
3575.87761872005
 21
737.1242247986302
 72
     1
 10
3575.87761872005
 20
737.1242247986302
 11
3575.12807472005
 21
737.1503987986289
 72
     1
 10
3575.12807472005
 20
737.1503987986289
 11
3575.197873720051
 21
739.1491807986313
 97
        0
 92
        0
 93
       26
 72
     2
 10
3606.634181404571
 20
701.3521616134531
 40
2.500001125852831
 50
34.39194199998543
 51
109.1583343757506
 73
     0
 72
     2
 10
3605.715277287033
 20
698.7072376603173
 40
0.3000002125601219
 50
70.84162149065257
 51
198.2248339751498
 73
     1
 72
     1
 10
3605.430326109478
 20
698.6134136018554
 11
3605.55082522171
 21
698.2474473655566
 72
     2
 10
3605.313366026656
 20
698.1692605745848
 40
0.2500000871971312
 50
341.7751409999437
 51
432.6159108342245
 73
     0
 72
     1
 10
3605.388060000604
 20
697.9306796577985
 11
3592.861490923943
 21
694.0089377386139
 72
     2
 10
3592.56271693818
 20
694.963261857185
 40
1.000000208932108
 50
72.61602299994686
 51
196.7926434936103
 73
     0
 72
     1
 10
3591.605360138203
 20
695.2521707968262
 11
3593.939902631567
 21
702.9881289853256
 72
     2
 10
3594.897259049976
 20
702.6992198234475
 40
0.9999999078425522
 50
196.7926620000519
 51
266.027307975108
 73
     0
 72
     1
 10
3594.827978043591
 20
703.6968169153843
 11
3603.362969043589
 21
704.2895609153857
 72
     2
 10
3603.380290017467
 20
704.040161291523
 40
0.2500003770405461
 50
266.0271484095113
 51
341.7751410008497
 73
     0
 72
     1
 10
3603.617749487827
 20
704.1183481731387
 11
3604.038689375594
 21
702.8399194094382
 72
     2
 10
3604.323640596403
 20
702.9337444821431
 40
0.3000005708462679
 50
198.2250153804638
 51
325.6080875710956
 73
     1
 72
     2
 10
3606.634181404571
 20
701.3521616134531
 40
2.499999999999999
 50
214.3919420000074
 51
289.1583389999924
 73
     0
 72
     2
 10
3607.553084397074
 20
703.997084591876
 40
0.3000000484694719
 50
250.8418018987233
 51
378.2248339754375
 73
     1
 72
     1
 10
3607.838035418769
 20
704.0909085990206
 11
3607.774575306538
 21
704.2836428353185
 72
     2
 10
3608.012034776897
 20
704.3618297169378
 40
0.2500003770405557
 50
161.7751409999918
 51
266.0271484096268
 73
     0
 72
     1
 10
3607.994713803018
 20
704.6112293408078
 11
3615.431047803019
 21
705.1276713408079
 72
     2
 10
3615.500330380898
 20
704.1300743232823
 40
0.9999999424832965
 50
266.0272178560728
 51
362.0000412194377
 73
     0
 72
     1
 10
3616.499721125328
 20
704.0951741096105
 11
3616.429614298309
 21
702.0875816063126
 72
     2
 10
3615.430223376032
 20
702.1224806036007
 40
1.00000007777017
 50
1.999971212619988
 51
72.61602300008451
 73
     0
 72
     1
 10
3615.728997322607
 20
701.1681566101943
 11
3611.805517399268
 21
699.9398175293827
 72
     2
 10
3611.028638342525
 20
702.3160457029408
 40
2.500000280322736
 50
71.89546950733136
 51
73.33659201230566
 73
     0
 72
     1
 10
3611.745510290165
 20
699.9210308778711
 11
3609.682981290166
 21
699.2753068778693
 72
     2
 10
3609.608288271585
 20
699.5138879372207
 40
0.2499999378100887
 50
72.61612954920894
 51
161.7751409996822
 73
     0
 72
     1
 10
3609.370829218423
 20
699.4357011929678
 11
3609.229673330656
 21
699.8644019566709
 72
     2
 10
3608.944722353216
 20
699.7705779640964
 40
0.3000000018759631
 50
18.2248339757342
 51
145.6079796921803
 73
     1
 97
        0
 92
        0
 93
        8
 72
     2
 10
3577.610033407468
 20
690.2819668267948
 40
0.9999997782260404
 50
72.61602300007779
 51
161.7751359382322
 73
     0
 72
     1
 10
3576.660197196819
 20
689.9692197574368
 11
3573.049511747892
 21
700.9351427026304
 72
     2
 10
3573.999348142188
 20
701.2478897394467
 40
0.9999999424834433
 50
161.7751410000008
 51
266.0272508169646
 73
     0
 72
     1
 10
3573.930066138203
 20
702.2454867968263
 11
3590.560365138203
 21
703.4004377968231
 72
     2
 10
3590.629647764131
 20
702.4028407826409
 40
0.9999999424832371
 50
266.0272150964079
 51
376.7926677560581
 73
     0
 72
     1
 10
3591.58700418668
 20
702.1139315145774
 11
3588.905966680044
 21
693.2297957030823
 72
     2
 10
3587.948610421802
 20
693.5187047810105
 40
0.9999997302536647
 50
16.79266004647338
 51
72.61602300004593
 73
     0
 72
     1
 10
3588.247384264548
 20
692.5643811192494
 11
3577.908807264547
 21
689.3276431192498
 97
        0
 92
        0
 93
        8
 72
     2
 10
3569.934863017014
 20
699.2034139825591
 40
0.9999997782261001
 50
236.876399000091
 51
341.775135938233
 73
     0
 72
     1
 10
3570.884699227663
 20
699.5161610519172
 11
3574.264949676591
 21
689.2500861067238
 72
     2
 10
3573.315113233848
 20
688.9373388732201
 40
1.000000050013219
 50
341.7751311640765
 51
432.6160270215909
 73
     0
 72
     1
 10
3573.613887105148
 20
687.9830148853325
 11
3564.453883105146
 21
685.1152568853358
 72
     2
 10
3564.155109120089
 20
686.069580837604
 40
1.000000050012971
 50
72.61602019173313
 51
136.8007869999126
 73
     0
 72
     1
 10
3563.426131053517
 20
685.3850437104265
 11
3557.974480083631
 21
691.1906218033691
 72
     2
 10
3558.703458114821
 20
691.8751588326559
 40
0.9999999572130049
 50
136.8007897007917
 51
236.8763990001597
 73
     0
 72
     1
 10
3558.157011154491
 20
692.7126524947089
 11
3569.388416154491
 21
700.0409074947092
 97
        0
 92
        0
 93
        8
 72
     2
 10
3530.63418133423
 20
708.3688089288298
 40
1.000000181711838
 50
180.0
 51
309.7595965622131
 73
     0
 72
     1
 10
3531.273749218011
 20
709.1375437891402
 11
3550.005584232955
 21
693.5531223039507
 72
     2
 10
3549.366015980746
 20
692.7843877781852
 40
1.000000160167498
 50
309.7596250489406
 51
415.2925103227843
 73
     0
 72
     1
 10
3549.935403060789
 20
691.9623180284616
 11
3539.365887082963
 21
684.6415934334873
 72
     2
 10
3538.796500060788
 20
685.4636630284585
 40
1.0
 50
55.29250799989221
 51
130.1874160000976
 73
     0
 72
     2
 10
3533.634180942898
 20
679.3521608888914
 40
6.999999817304771
 50
49.81258515350525
 51
112.0243129999475
 73
     1
 72
     2
 10
3530.634180926743
 20
686.7683589288281
 40
0.999999774225075
 50
67.97567783758784
 51
180.0
 73
     0
 72
     1
 10
3529.634181152518
 20
686.7683589288281
 11
3529.634181152518
 21
708.3688089288298
 97
        0
 92
        0
 93
        8
 72
     2
 10
3554.87570378547
 20
689.3776297841214
 40
1.000000088174693
 50
236.8764076773607
 51
316.8007897008939
 73
     0
 72
     1
 10
3555.604681912129
 20
690.0621669030552
 11
3560.113542942242
 21
685.2605849959982
 72
     2
 10
3559.38456503406
 20
684.5760477001459
 40
1.000000050013027
 50
316.8007737425502
 51
432.6159968868969
 73
     0
 72
     1
 10
3559.683339407285
 20
683.6217238694007
 11
3541.925916330625
 21
678.062337950214
 72
     2
 10
3541.627142407285
 20
679.0166618693984
 40
0.9999999999999994
 50
72.61602299999322
 51
182.4035360001247
 73
     0
 72
     2
 10
3533.634180942898
 20
679.3521608888914
 40
6.999999535203755
 50
357.5964597062076
 51
369.4586599999797
 73
     1
 72
     2
 10
3541.525415739246
 20
680.6668478549655
 40
0.9999997416619265
 50
170.541364830396
 51
236.8763989999919
 73
     0
 72
     1
 10
3540.978968896703
 20
681.504341336491
 11
3554.329256880415
 21
690.2151236386053
 97
        0
 92
        0
 93
       18
 72
     2
 10
3541.570358822121
 20
708.455397629983
 40
1.999999955058771
 50
0.0
 51
136.5929008359896
 73
     0
 72
     1
 10
3540.117379789471
 20
707.0810425991003
 11
3534.8952591709
 21
712.601911159054
 72
     2
 10
3535.621748789471
 20
713.2890885991001
 40
1.0
 50
136.5929079999819
 51
180.0
 73
     0
 72
     1
 10
3534.621748789471
 20
713.2890885991001
 11
3534.621748789471
 21
714.1754515990979
 72
     2
 10
3534.121748789471
 20
714.1754515990979
 40
0.5000000000000003
 50
0.0
 51
90.0
 73
     1
 72
     1
 10
3534.121748789471
 20
714.6754515990979
 11
3531.176283789472
 21
714.6754515990979
 72
     1
 10
3531.176283789472
 20
714.6754515990979
 11
3530.108283789471
 21
715.3145075991015
 72
     2
 10
3530.621748907783
 20
716.1726177968267
 40
0.999999769581251
 50
120.8949243371894
 51
180.0
 73
     0
 72
     1
 10
3529.621749138202
 20
716.1726177968267
 11
3529.621749138202
 21
727.1782857968246
 72
     2
 10
3530.621749138202
 20
727.1782857968246
 40
0.9999999999999992
 50
180.0
 51
239.1051040000158
 73
     0
 72
     1
 10
3530.10828432598
 20
728.0363964462231
 11
3531.176284138203
 21
728.6754517968257
 72
     1
 10
3531.176284138203
 20
728.6754517968257
 11
3534.121749138202
 21
728.6754517968257
 72
     2
 10
3534.121749138202
 20
729.1754517968257
 40
0.5000000000000002
 50
270.0000000000008
 51
360.0000000000008
 73
     1
 72
     1
 10
3534.621749138202
 20
729.1754517968257
 11
3534.621749138202
 21
729.670119796825
 72
     2
 10
3535.621749138202
 20
729.670119796825
 40
0.9999999999999996
 50
180.0
 51
239.1051039999934
 73
     0
 72
     1
 10
3535.10828432598
 20
730.5282304462235
 11
3540.543429513759
 21
733.7804400956193
 72
     2
 10
3541.57035877718
 20
732.0642185808028
 40
2.000000000000003
 50
239.1051160526226
 51
359.9999985911492
 73
     0
 72
     1
 10
3543.57035877718
 20
732.064218629981
 11
3543.57035877718
 21
708.455397629983
 97
        0
 92
        0
 93
        8
 72
     2
 10
3556.7444951584
 20
742.4430627596776
 40
0.9999999577173415
 50
241.4655523717397
 51
276.2506720000849
 73
     0
 72
     1
 10
3556.853373687544
 20
743.4371177789435
 11
3572.360636687543
 21
741.7386117789429
 72
     2
 10
3572.251757696338
 20
740.7445571921999
 40
0.9999995780754953
 50
276.2507010150317
 51
361.9999954564694
 73
     0
 72
     1
 10
3573.251148104457
 20
740.7096577894736
 11
3573.181068931476
 21
738.7028472927668
 72
     2
 10
3572.181678104456
 20
738.737746789473
 40
0.9999999999999988
 50
2.000000000210449
 51
93.95033199994363
 73
     0
 72
     1
 10
3572.112786415295
 20
737.7401226442344
 11
3552.368596104456
 21
739.1035727894741
 72
     2
 10
3552.437488108711
 20
740.1011968510647
 40
0.999999938259853
 50
93.95035034078344
 51
241.4655709999733
 73
     0
 72
     1
 10
3551.959801383439
 20
740.9797270264244
 11
3556.266808138203
 21
743.3215927968231
 97
        0
 92
        0
 93
       16
 72
     2
 10
3536.083670063952
 20
681.852161100629
 40
0.5000002599205715
 50
314.4153796895267
 51
450.0000021588214
 73
     0
 72
     1
 10
3536.083670045113
 20
681.35216084071
 11
3535.755501045113
 21
681.35216084071
 72
     2
 10
3535.755501045113
 20
681.1021609732161
 40
0.2499998674903271
 50
90.0
 51
219.5212500507174
 73
     1
 72
     2
 10
3533.634180942898
 20
679.3521608888914
 40
2.5
 50
320.4788039999316
 51
399.5211960000057
 73
     0
 72
     2
 10
3535.755501045113
 20
677.6021608045667
 40
0.2499998674903271
 50
140.4787499486402
 51
270.0000000000008
 73
     1
 72
     1
 10
3535.755501045113
 20
677.3521609370764
 11
3536.083670045113
 21
677.3521609370764
 72
     2
 10
3536.083670033595
 20
676.8521606771574
 40
0.5000002599205718
 50
270.0000013198995
 51
405.5846178255389
 73
     0
 72
     2
 10
3533.634180942898
 20
679.3521608888914
 40
3.999999954794095
 50
45.58469099995819
 51
134.4153069811598
 73
     0
 72
     2
 10
3531.184691138202
 20
676.8521608868323
 40
0.4999999099925665
 50
134.415290766389
 51
270.0000000000008
 73
     0
 72
     1
 10
3531.184691138202
 20
677.352160796825
 11
3531.512860138203
 21
677.352160796825
 72
     2
 10
3531.512860138203
 20
677.6021610500102
 40
0.250000253185874
 50
270.0000000000008
 51
399.5211042073195
 73
     1
 72
     2
 10
3533.634180942898
 20
679.3521608888914
 40
2.5
 50
140.4788040000018
 51
217.3831980000356
 73
     0
 72
     2
 10
3531.40932108618
 20
681.0521607794108
 40
0.3000001803216056
 50
322.6168507291989
 51
450.0000000000008
 73
     1
 72
     1
 10
3531.40932108618
 20
681.3521609597337
 11
3531.18469108618
 21
681.3521609597337
 72
     2
 10
3531.18469108618
 20
681.8521608697265
 40
0.4999999099925665
 50
90.0
 51
225.5847092335374
 73
     0
 72
     2
 10
3533.634180942898
 20
679.3521608888914
 40
3.99999997604026
 50
225.5846922738091
 51
314.4153089999891
 73
     0
 97
        0
 92
        0
 93
       20
 72
     1
 10
3545.617272225287
 20
741.0523002796872
 11
3545.454026782686
 21
741.3525309683791
 72
     2
 10
3545.190467860934
 20
741.2092250109199
 40
0.2999998377953461
 50
28.53443085039831
 51
155.9175853495337
 73
     1
 72
     2
 10
3542.634180710367
 20
742.3517640782193
 40
2.500000075857457
 50
24.08237299999196
 51
98.84875757560914
 73
     0
 72
     2
 10
3542.20346525777
 20
739.5850900702499
 40
0.3000000790503459
 50
81.15113675913265
 51
208.5344308496977
 73
     1
 72
     1
 10
3541.939906124067
 20
739.4417839975504
 11
3542.115275681468
 21
739.119254686244
 72
     2
 10
3541.895643193982
 20
738.9998330355666
 40
0.2499999204183102
 50
331.4655709997227
 51
419.1048693256162
 73
     0
 72
     1
 10
3542.024010234846
 20
738.7853059672743
 11
3531.135214234846
 21
732.2698129672754
 72
     2
 10
3530.621749336838
 20
733.1279237968229
 40
1.000000198636446
 50
59.10510508213085
 51
180.0
 73
     0
 72
     1
 10
3529.621749138202
 20
733.1279237968229
 11
3529.621749138202
 21
734.6210147968268
 72
     1
 10
3529.621749138202
 20
734.6210147968268
 11
3529.634181138203
 21
734.6262287968239
 72
     1
 10
3529.634181138203
 20
734.6262287968239
 11
3529.634181138203
 21
734.9459257968265
 72
     2
 10
3530.634181138203
 20
734.9459257968265
 40
0.9999999999999775
 50
180.0
 51
235.3685039999536
 73
     0
 72
     1
 10
3530.065884993579
 20
735.768749892246
 11
3540.079551138203
 21
742.6848437968256
 72
     2
 10
3539.93747698123
 20
742.8905500241017
 40
0.2500002360400611
 50
304.6314922889384
 51
348.70140437499
 73
     1
 72
     2
 10
3542.634180710367
 20
742.3517640782193
 40
2.499999999999995
 50
191.2985980000102
 51
293.5881820000056
 73
     0
 72
     2
 10
3543.734620705397
 20
744.8719890668399
 40
0.2500003956215733
 50
246.4118672965236
 51
266.8182248258453
 73
     1
 72
     1
 10
3543.720744704707
 20
744.6223740544374
 11
3548.413925238453
 21
744.3614881157337
 72
     2
 10
3548.305046424471
 20
743.367433127667
 40
0.9999999577175501
 50
276.2506884177253
 51
421.4655233007044
 73
     0
 72
     1
 10
3548.782733890423
 20
742.4889033328909
 11
3545.956326890423
 21
740.9520893328918
 72
     2
 10
3545.836905018812
 20
741.1717220967657
 40
0.2500002687727192
 50
61.46555677452101
 51
151.4655710003628
 73
     0
 97
        0
 75
     0
 76
     1
 52
0.0
 41
1.5625
 77
     0
 78
     1
 53
45.0
 43
-177.9372474332249
 44
-17552.65578529942
 45
-3.507912547292638
 46
3.507912547292638
 79
     0
 98
        1
 10
-177.9372474332249
 20
-17552.65578529942
  0
HATCH
  5
2BC5
330
19
100
AcDbEntity
  8
AM_8
100
AcDbHatch
 10
0.0
 20
0.0
 30
0.0
210
0.0
220
0.0
230
1.0
  2
ANSI31
 70
     0
 71
     0
 91
        2
 92
        0
 93
       17
 72
     2
 10
3532.066533985128
 20
746.5650087368231
 40
0.2499999999996193
 50
90.0
 51
166.2258530021366
 73
     0
 72
     2
 10
3526.967514471537
 20
745.3150087368231
 40
4.999999999999956
 50
13.77414699803736
 51
70.00000000000765
 73
     1
 72
     1
 10
3528.677615188165
 20
750.0134718407535
 11
3520.553019507367
 21
752.970582834012
 72
     2
 10
3520.467514471536
 20
752.7356596788159
 40
0.2499999999997584
 50
70.00000000008197
 51
219.9999999999902
 73
     1
 72
     1
 10
3520.276003360756
 20
752.5749627763944
 11
3522.874702154359
 21
749.4779541530479
 72
     2
 10
3522.10865771124
 20
748.8351665433584
 40
1.000000000000557
 50
319.9999999998852
 51
395.9226806747751
 73
     0
 72
     2
 10
3526.967514471537
 20
745.3150087368231
 40
5.000000000000006
 50
144.0773193251031
 51
346.2258530019635
 73
     1
 72
     2
 10
3532.066533985129
 20
744.0650087368231
 40
0.249999999999835
 50
193.7741469978146
 51
270.0000000000008
 73
     0
 72
     1
 10
3532.066533985129
 20
744.3150087368231
 11
3533.634181138204
 21
744.3150087368267
 72
     1
 10
3533.634181138204
 20
744.3150087368267
 11
3533.995025056446
 21
743.6900087368231
 72
     2
 10
3534.211531407393
 20
743.8150087368231
 40
0.2500000000000587
 50
209.999999999959
 51
306.7331309779609
 73
     1
 72
     1
 10
3534.361053574771
 20
743.6146512526539
 11
3535.565603141052
 21
744.5135788001498
 72
     2
 10
3534.967514471536
 20
745.3150087368231
 40
0.9999999999998812
 50
306.7331309781482
 51
413.2668690218535
 73
     1
 72
     1
 10
3535.565603141052
 20
746.1164386734963
 11
3534.361053574771
 21
747.0153662209923
 72
     2
 10
3534.211531407393
 20
746.8150087368267
 40
0.249999999999674
 50
53.2668690215413
 51
150.0000000007118
 73
     1
 72
     1
 10
3533.995025056447
 20
746.9400087368231
 11
3533.634181138203
 21
746.3150087368231
 72
     1
 10
3533.634181138203
 20
746.3150087368231
 11
3532.066533985128
 21
746.3150087368231
 97
        0
 92
        0
 93
        1
 72
     2
 10
3526.967514471537
 20
745.3150087368231
 40
2.500000000000096
 50
0.0
 51
360.0
 73
     1
 97
        0
 75
     0
 76
     1
 52
90.0000000000002
 41
0.390625
 77
     0
 78
     1
 53
135.0000000000002
 43
-177.9372474332249
 44
-17552.65578529942
 45
-0.8769781368231566
 46
-0.8769781368231625
 79
     0
 98
        1
 10
-177.9372474332249
 20
-17552.65578529942
  0
HATCH
  5
2BC6
330
19
100
AcDbEntity
  8
AM_8
100
AcDbHatch
 10
0.0
 20
0.0
 30
0.0
210
0.0
220
0.0
230
1.0
  2
ANSI31
 70
     0
 71
     0
 91
        1
 92
        0
 93
       29
 72
     1
 10
3608.85285861705
 20
707.455332235033
 11
3618.780450449563
 21
707.1086528423257
 72
     2
 10
3618.78917532994
 20
707.358500548864
 40
0.2499999999998916
 50
267.9999985779817
 51
294.5650497550307
 73
     1
 72
     1
 10
3618.893106850861
 20
707.1311280814043
 11
3619.48837569878
 21
707.4032243356778
 72
     2
 10
3619.5923072197
 20
707.1758518682145
 40
0.2500000000003123
 50
245.4349502455071
 51
362.0000014218116
 73
     0
 72
     1
 10
3619.842154926238
 20
707.1671269878389
 11
3619.79228962313
 21
705.7391725544257
 72
     2
 10
3619.542441916593
 20
705.747897434805
 40
0.2499999999998956
 50
2.000001422651359
 51
69.38013647554273
 73
     0
 72
     1
 10
3619.630483452601
 20
705.5139130593889
 11
3619.348575080745
 21
705.4078391130934
 72
     2
 10
3619.436616616752
 20
705.1738547376845
 40
0.2500000000001348
 50
110.619863524947
 51
177.9999985773595
 73
     1
 72
     1
 10
3619.186768910214
 20
705.1825796180638
 11
3619.182149539762
 21
705.050298250062
 72
     2
 10
3619.681844952837
 20
705.0328484892889
 40
0.4999999999998939
 50
177.9999985756839
 51
229.7723708154087
 73
     1
 72
     1
 10
3619.358931987553
 20
704.6511061457495
 11
3620.416373047123
 21
703.7566247398026
 72
     2
 10
3621.147726765684
 20
704.4386230816999
 40
1.000000000000036
 50
222.9999985768032
 51
312.9999985773759
 73
     1
 72
     1
 10
3621.829725107589
 20
703.7072693631453
 11
3622.946986203253
 21
704.5258084423513
 72
     2
 10
3622.65148885752
 20
704.9291461651883
 40
0.4999999999996645
 50
306.2276263389351
 51
357.9999985756866
 73
     1
 72
     1
 10
3623.151184270596
 20
704.9116964044151
 11
3623.15580364105
 21
705.0439777724314
 72
     2
 10
3622.905955934511
 20
705.052702652818
 40
0.2500000000002031
 50
357.9999985756975
 51
425.3801336299383
 73
     1
 72
     1
 10
3623.010104941987
 20
705.2799755817832
 11
3622.73628263541
 21
705.4054560848272
 72
     2
 10
3622.840431642886
 20
705.632729013796
 40
0.2499999999995711
 50
114.6198663695258
 51
182.0000014226485
 73
     0
 72
     1
 10
3622.590583936348
 20
705.6414538941754
 11
3622.640449239473
 21
707.0694083275957
 72
     2
 10
3622.890296946011
 20
707.0606834472128
 40
0.2499999999999909
 50
182.0000014234781
 51
298.5650525999573
 73
     0
 72
     1
 10
3623.00983600743
 20
707.2802521444246
 11
3623.584674319596
 21
706.9672948186453
 72
     2
 10
3623.704213381015
 20
707.1868635158608
 40
0.2499999999998916
 50
241.4349474004431
 51
267.9999985770443
 73
     1
 72
     1
 10
3623.695488500634
 20
706.9370158093225
 11
3624.13620287096
 21
706.9216257134176
 72
     2
 10
3624.153652631714
 20
707.4213211264978
 40
0.4999999999997229
 50
267.99999857784
 51
357.9999985994635
 73
     1
 72
     1
 10
3624.653348044797
 20
707.403871365932
 11
3624.731522972974
 21
709.6425068164863
 72
     2
 10
3622.732741320669
 20
709.7123058595025
 40
2.000000000000113
 50
357.9999985778771
 51
447.9999985774218
 73
     1
 72
     1
 10
3622.802540363701
 20
711.7110875118087
 11
3609.310764210622
 21
712.1822310521748
 72
     1
 10
3609.310764210622
 20
712.1822310521748
 11
3608.161804696651
 21
708.424154150991
 72
     2
 10
3608.879033258181
 20
708.2048753546442
 40
0.75
 50
162.999998577691
 51
267.9999985778678
 73
     1
 97
        0
 75
     0
 76
     1
 52
90.0000000000002
 41
0.390625
 77
     0
 78
     1
 53
135.0000000000002
 43
-177.9372474332249
 44
-17552.65578529942
 45
-0.8769781368231566
 46
-0.8769781368231625
 79
     0
 98
        1
 10
-177.9372474332249
 20
-17552.65578529942
  0
HATCH
  5
2BC7
330
19
100
AcDbEntity
  8
AM_8
100
AcDbHatch
 10
0.0
 20
0.0
 30
0.0
210
0.0
220
0.0
230
1.0
  2
ANSI31
 70
     0
 71
     0
 91
        1
 92
        0
 93
       29
 72
     1
 10
3575.541647368148
 20
735.3157502661306
 11
3574.966809044489
 21
735.6287075707987
 72
     2
 10
3574.847269991134
 20
735.4091388691959
 40
0.2499999999998916
 50
61.43494950441259
 51
88.00000068128254
 73
     1
 72
     1
 10
3574.855994862339
 20
735.6589865760543
 11
3564.928403017099
 21
736.0056656043089
 72
     2
 10
3564.902228403485
 20
735.2561224837373
 40
0.75
 50
88.00000068123813
 51
193.0000006813662
 73
     1
 72
     1
 10
3564.171450856902
 20
735.0874091842888
 11
3565.055461321042
 21
731.2583393939567
 72
     1
 10
3565.055461321042
 20
731.2583393939567
 11
3578.547237491416
 21
730.7871963488833
 72
     2
 10
3578.61703646104
 20
732.7859780037506
 40
2.000000000000113
 50
268.0000006816869
 51
358.0000006812842
 73
     1
 72
     1
 10
3580.615818115908
 20
732.7161790341124
 11
3580.693992961904
 21
734.9548144875371
 72
     2
 10
3580.194297548194
 20
734.9722642301385
 40
0.4999999999997229
 50
358.000000659279
 51
448.0000006812313
 73
     1
 72
     1
 10
3580.211747290604
 20
735.4719596438554
 11
3579.771032919714
 21
735.4873497235567
 72
     2
 10
3579.762308048513
 20
735.2375020166983
 40
0.2499999999998916
 50
88.0000006821158
 51
114.5650518594644
 73
     1
 72
     1
 10
3579.658376519242
 20
735.464874480338
 11
3579.063107681316
 21
735.1927782042039
 72
     2
 10
3578.959176152045
 20
735.4201506678473
 40
0.2499999999999909
 50
65.43494814097703
 51
181.9999993186104
 73
     0
 72
     1
 10
3578.709328445186
 20
735.4288755390517
 11
3578.759193695842
 21
736.856829974302
 72
     2
 10
3579.009041402699
 20
736.8481051030976
 40
0.2499999999995711
 50
181.9999993186177
 51
249.3801343714225
 73
     0
 72
     1
 10
3578.920999858099
 20
737.0820894752796
 11
3579.202908226087
 21
737.1881634319361
 72
     2
 10
3579.114866681487
 20
737.4221478041181
 40
0.2500000000002031
 50
290.6198656285792
 51
358.0000006830576
 73
     1
 72
     1
 10
3579.364714388346
 20
737.4134229329211
 11
3579.369333753933
 21
737.5457043011047
 72
     2
 10
3578.869638340215
 20
737.5631540434988
 40
0.4999999999996645
 50
358.0000006830559
 51
409.7723729202381
 73
     1
 72
     1
 10
3579.192551291476
 20
737.9448963989016
 11
3578.13511019904
 21
738.8393777660094
 72
     2
 10
3577.403756505534
 20
738.157379397242
 40
1.000000000000036
 50
43.00000068180177
 51
133.0000006822424
 73
     1
 72
     1
 10
3576.721758136762
 20
738.8887330907419
 11
3575.604497071173
 21
738.0701939704995
 72
     2
 10
3575.899994431722
 20
737.6668562585182
 40
0.4999999999998939
 50
126.2276284436506
 51
178.0000006838883
 73
     1
 72
     1
 10
3575.400299018005
 20
737.684306000905
 11
3575.395679652418
 21
737.552024632736
 72
     2
 10
3575.645527359277
 20
737.5432997615353
 40
0.2500000000001348
 50
178.0000006822272
 51
245.3801357344986
 73
     1
 72
     1
 10
3575.541378360148
 20
737.3160268287429
 11
3575.815200671306
 21
737.1905463357689
 72
     2
 10
3575.711051672175
 20
736.9632734029765
 40
0.2499999999998956
 50
294.619864265882
 51
361.9999993186032
 73
     0
 72
     1
 10
3575.960899379035
 20
736.9545485317722
 11
3575.911034128362
 21
735.5265940965255
 72
     2
 10
3575.661186421502
 20
735.5353189677298
 40
0.2500000000003123
 50
1.999999318602386
 51
118.5650504958946
 73
     0
 97
        0
 75
     0
 76
     1
 52
90.0000000000002
 41
0.390625
 77
     0
 78
     1
 53
135.0000000000002
 43
-177.9372474332249
 44
-17552.65578529942
 45
-0.8769781368231566
 46
-0.8769781368231625
 79
     0
 98
        1
 10
-177.9372474332249
 20
-17552.65578529942
  0
LINE
  5
2FCC
330
19
100
AcDbEntity
  8
AM_0
100
AcDbLine
 10
3599.311114181059
 20
854.7739964613324
 30
0.0
 11
3596.811114181059
 21
849.7739964613324
 31
0.0
  0
LINE
  5
2FCD
330
19
100
AcDbEntity
  8
AM_0
100
AcDbLine
 10
3594.311114181059
 20
854.7739964613324
 30
0.0
 11
3599.311114181059
 21
854.7739964613324
 31
0.0
  0
LINE
  5
2FCE
330
19
100
AcDbEntity
  8
AM_0
100
AcDbLine
 10
3594.311114181059
 20
557.7739964613324
 30
0.0
 11
3599.311114181059
 21
557.7739964613324
 31
0.0
  0
LINE
  5
2FCF
330
19
100
AcDbEntity
  8
AM_0
100
AcDbLine
 10
3599.311114181059
 20
557.7739964613324
 30
0.0
 11
3596.811114181059
 21
562.7739964613324
 31
0.0
  0
LINE
  5
2FD0
330
19
100
AcDbEntity
  8
AM_0
100
AcDbLine
 10
3646.81111418106
 20
557.7739964613324
 30
0.0
 11
3546.811114181059
 21
557.7739964613324
 31
0.0
  0
LINE
  5
2FD1
330
19
100
AcDbEntity
  8
AM_0
100
AcDbLine
 10
3796.810114181059
 20
567.7739964613324
 30
0.0
 11
3796.810114181059
 21
844.7739964613324
 31
0.0
  0
LINE
  5
2FD2
330
19
100
AcDbEntity
  8
AM_0
100
AcDbLine
 10
3796.810114181059
 20
844.7739964613324
 30
0.0
 11
3396.810114181059
 21
844.7739964613324
 31
0.0
  0
LINE
  5
2FD3
330
19
100
AcDbEntity
  8
AM_0
100
AcDbLine
 10
3396.810114181059
 20
844.7739964613324
 30
0.0
 11
3396.810114181059
 21
567.7739964613324
 31
0.0
  0
LINE
  5
2FD4
330
19
100
AcDbEntity
  8
AM_0
100
AcDbLine
 10
3396.810114181059
 20
567.7739964613324
 30
0.0
 11
3796.810114181059
 21
567.7739964613324
 31
0.0
  0
LINE
  5
2FD5
330
19
100
AcDbEntity
  8
AM_0
100
AcDbLine
 10
3801.810114181059
 20
849.7739964613324
 30
0.0
 11
3391.810114181059
 21
849.7739964613324
 31
0.0
  0
LINE
  5
2FD6
330
19
100
AcDbEntity
  8
AM_0
100
AcDbLine
 10
3391.810114181059
 20
849.7739964613324
 30
0.0
 11
3391.810114181059
 21
562.7739964613324
 31
0.0
  0
LINE
  5
2FD7
330
19
100
AcDbEntity
  8
AM_0
100
AcDbLine
 10
3391.810114181059
 20
562.7739964613324
 30
0.0
 11
3801.810114181059
 21
562.7739964613324
 31
0.0
  0
LINE
  5
2FD8
330
19
100
AcDbEntity
  8
AM_0
100
AcDbLine
 10
3801.810114181059
 20
562.7739964613324
 30
0.0
 11
3801.810114181059
 21
849.7739964613324
 31
0.0
  0
LINE
  5
2FD9
330
19
100
AcDbEntity
  8
AM_0
100
AcDbLine
 10
3391.810114181059
 20
706.2839964613324
 30
0.0
 11
3386.810114181059
 21
703.7839964613324
 31
0.0
  0
LINE
  5
2FDA
330
19
100
AcDbEntity
  8
AM_0
100
AcDbLine
 10
3386.810114181059
 20
708.7839964613324
 30
0.0
 11
3386.810114181059
 21
703.7839964613324
 31
0.0
  0
LINE
  5
2FDB
330
19
100
AcDbEntity
  8
AM_0
100
AcDbLine
 10
3386.810114181059
 20
557.7739964613324
 30
0.0
 11
3401.810114181059
 21
557.7739964613324
 31
0.0
  0
LINE
  5
2FDC
330
19
100
AcDbEntity
  8
AM_0
100
AcDbLine
 10
3396.810114181059
 20
562.7739964613324
 30
0.0
 11
3396.810114181059
 21
567.7739964613324
 31
0.0
  0
LINE
  5
2FDD
330
19
100
AcDbEntity
  8
AM_0
100
AcDbLine
 10
3386.810114181059
 20
572.7739964613324
 30
0.0
 11
3386.810114181059
 21
557.7739964613324
 31
0.0
  0
LINE
  5
2FDE
330
19
100
AcDbEntity
  8
AM_0
100
AcDbLine
 10
3391.810114181059
 20
567.7739964613324
 30
0.0
 11
3396.810114181059
 21
567.7739964613324
 31
0.0
  0
LINE
  5
2FDF
330
19
100
AcDbEntity
  8
AM_0
100
AcDbLine
 10
3463.477114181059
 20
562.7739964613324
 30
0.0
 11
3463.477114181059
 21
567.7739964613324
 31
0.0
  0
LINE
  5
2FE0
330
19
100
AcDbEntity
  8
AM_0
100
AcDbLine
 10
3391.810114181059
 20
637.0239964613324
 30
0.0
 11
3396.810114181059
 21
637.0239964613324
 31
0.0
  0
LINE
  5
2FE1
330
19
100
AcDbEntity
  8
AM_0
100
AcDbLine
 10
3391.810114181059
 20
706.2739964613324
 30
0.0
 11
3396.810114181059
 21
706.2739964613324
 31
0.0
  0
LINE
  5
2FE2
330
19
100
AcDbEntity
  8
AM_0
100
AcDbLine
 10
3530.144114181059
 20
562.7739964613324
 30
0.0
 11
3530.144114181059
 21
567.7739964613324
 31
0.0
  0
LINE
  5
2FE3
330
19
100
AcDbEntity
  8
AM_0
100
AcDbLine
 10
3796.810114181059
 20
567.7739964613324
 30
0.0
 11
3801.810114181059
 21
567.7739964613324
 31
0.0
  0
LINE
  5
2FE4
330
19
100
AcDbEntity
  8
AM_0
100
AcDbLine
 10
3546.811114181059
 20
562.7739964613324
 30
0.0
 11
3546.811114181059
 21
557.7739964613324
 31
0.0
  0
LINE
  5
2FE5
330
19
100
AcDbEntity
  8
AM_0
100
AcDbLine
 10
3556.81111418106
 20
562.7739964613324
 30
0.0
 11
3556.81111418106
 21
557.7739964613324
 31
0.0
  0
LINE
  5
2FE6
330
19
100
AcDbEntity
  8
AM_0
100
AcDbLine
 10
3566.811114181059
 20
562.7739964613324
 30
0.0
 11
3566.811114181059
 21
557.7739964613324
 31
0.0
  0
LINE
  5
2FE7
330
19
100
AcDbEntity
  8
AM_0
100
AcDbLine
 10
3576.811114181059
 20
562.7739964613324
 30
0.0
 11
3576.811114181059
 21
557.7739964613324
 31
0.0
  0
LINE
  5
2FE8
330
19
100
AcDbEntity
  8
AM_0
100
AcDbLine
 10
3586.81111418106
 20
562.7739964613324
 30
0.0
 11
3586.81111418106
 21
557.7739964613324
 31
0.0
  0
LINE
  5
2FE9
330
19
100
AcDbEntity
  8
AM_0
100
AcDbLine
 10
3596.811114181059
 20
562.7739964613324
 30
0.0
 11
3594.311114181059
 21
557.7739964613324
 31
0.0
  0
LINE
  5
2FEA
330
19
100
AcDbEntity
  8
AM_0
100
AcDbLine
 10
3391.810114181059
 20
706.2839964613324
 30
0.0
 11
3386.810114181059
 21
708.7839964613324
 31
0.0
  0
LINE
  5
2FEB
330
19
100
AcDbEntity
  8
AM_0
100
AcDbLine
 10
3391.810114181059
 20
775.5239964613324
 30
0.0
 11
3396.810114181059
 21
775.5239964613324
 31
0.0
  0
LINE
  5
2FEC
330
19
100
AcDbEntity
  8
AM_0
100
AcDbLine
 10
3386.810114181059
 20
854.7739964613324
 30
0.0
 11
3401.810114181059
 21
854.7739964613324
 31
0.0
  0
LINE
  5
2FED
330
19
100
AcDbEntity
  8
AM_0
100
AcDbLine
 10
3396.810114181059
 20
844.7739964613324
 30
0.0
 11
3396.810114181059
 21
849.7739964613324
 31
0.0
  0
LINE
  5
2FEE
330
19
100
AcDbEntity
  8
AM_0
100
AcDbLine
 10
3386.810114181059
 20
839.7739964613324
 30
0.0
 11
3386.810114181059
 21
854.7739964613324
 31
0.0
  0
LINE
  5
2FEF
330
19
100
AcDbEntity
  8
AM_0
100
AcDbLine
 10
3391.810114181059
 20
844.7739964613324
 30
0.0
 11
3396.810114181059
 21
844.7739964613324
 31
0.0
  0
LINE
  5
2FF0
330
19
100
AcDbEntity
  8
AM_0
100
AcDbLine
 10
3391.810114181059
 20
849.7739964613324
 30
0.0
 11
3396.810114181059
 21
849.7739964613324
 31
0.0
  0
LINE
  5
2FF1
330
19
100
AcDbEntity
  8
AM_0
100
AcDbLine
 10
3463.477114181059
 20
844.7739964613324
 30
0.0
 11
3463.477114181059
 21
849.7739964613324
 31
0.0
  0
LINE
  5
2FF2
330
19
100
AcDbEntity
  8
AM_0
100
AcDbLine
 10
3530.144114181059
 20
844.7739964613324
 30
0.0
 11
3530.144114181059
 21
849.7739964613324
 31
0.0
  0
LINE
  5
2FF3
330
19
100
AcDbEntity
  8
AM_0
100
AcDbLine
 10
3596.811114181059
 20
844.7739964613324
 30
0.0
 11
3596.811114181059
 21
849.7739964613324
 31
0.0
  0
LINE
  5
2FF4
330
19
100
AcDbEntity
  8
AM_0
100
AcDbLine
 10
3596.811114181059
 20
849.7739964613324
 30
0.0
 11
3594.311114181059
 21
854.7739964613324
 31
0.0
  0
LINE
  5
2FF5
330
19
100
AcDbEntity
  8
AM_0
100
AcDbLine
 10
3806.81211418106
 20
708.7839964613324
 30
0.0
 11
3806.81211418106
 21
703.7839964613324
 31
0.0
  0
LINE
  5
2FF6
330
19
100
AcDbEntity
  8
AM_0
100
AcDbLine
 10
3801.81211418106
 20
706.2839964613324
 30
0.0
 11
3806.81211418106
 21
703.7839964613324
 31
0.0
  0
LINE
  5
2FF7
330
19
100
AcDbEntity
  8
AM_0
100
AcDbLine
 10
3606.811114181059
 20
562.7739964613324
 30
0.0
 11
3606.811114181059
 21
557.7739964613324
 31
0.0
  0
LINE
  5
2FF8
330
19
100
AcDbEntity
  8
AM_0
100
AcDbLine
 10
3616.811114181059
 20
562.7739964613324
 30
0.0
 11
3616.811114181059
 21
557.7739964613324
 31
0.0
  0
LINE
  5
2FF9
330
19
100
AcDbEntity
  8
AM_0
100
AcDbLine
 10
3626.811114181059
 20
562.7739964613324
 30
0.0
 11
3626.811114181059
 21
557.7739964613324
 31
0.0
  0
LINE
  5
2FFA
330
19
100
AcDbEntity
  8
AM_0
100
AcDbLine
 10
3636.811114181059
 20
562.7739964613324
 30
0.0
 11
3636.811114181059
 21
557.7739964613324
 31
0.0
  0
LINE
  5
2FFB
330
19
100
AcDbEntity
  8
AM_0
100
AcDbLine
 10
3646.811114181059
 20
562.7739964613324
 30
0.0
 11
3646.81111418106
 21
557.7739964613324
 31
0.0
  0
LINE
  5
2FFC
330
19
100
AcDbEntity
  8
AM_0
100
AcDbLine
 10
3796.812114181059
 20
637.0339964613324
 30
0.0
 11
3801.81211418106
 21
637.0339964613324
 31
0.0
  0
LINE
  5
2FFD
330
19
100
AcDbEntity
  8
AM_0
100
AcDbLine
 10
3806.810114181059
 20
557.7739964613324
 30
0.0
 11
3791.810114181059
 21
557.7739964613324
 31
0.0
  0
LINE
  5
2FFE
330
19
100
AcDbEntity
  8
AM_0
100
AcDbLine
 10
3796.810114181059
 20
567.7739964613324
 30
0.0
 11
3796.810114181059
 21
562.7739964613324
 31
0.0
  0
LINE
  5
2FFF
330
19
100
AcDbEntity
  8
AM_0
100
AcDbLine
 10
3730.14411418106
 20
562.7739964613324
 30
0.0
 11
3730.14411418106
 21
567.7739964613324
 31
0.0
  0
LINE
  5
3000
330
19
100
AcDbEntity
  8
AM_0
100
AcDbLine
 10
3806.810114181059
 20
572.7739964613324
 30
0.0
 11
3806.810114181059
 21
557.7739964613324
 31
0.0
  0
LINE
  5
3001
330
19
100
AcDbEntity
  8
AM_0
100
AcDbLine
 10
3596.810114181059
 20
562.7739964613324
 30
0.0
 11
3596.810114181059
 21
567.7739964613324
 31
0.0
  0
LINE
  5
3002
330
19
100
AcDbEntity
  8
AM_0
100
AcDbLine
 10
3663.47711418106
 20
562.7739964613324
 30
0.0
 11
3663.47711418106
 21
567.7739964613324
 31
0.0
  0
LINE
  5
3003
330
19
100
AcDbEntity
  8
AM_0
100
AcDbLine
 10
3796.812114181059
 20
706.2739964613324
 30
0.0
 11
3801.81211418106
 21
706.2739964613324
 31
0.0
  0
LINE
  5
3004
330
19
100
AcDbEntity
  8
AM_0
100
AcDbLine
 10
3663.478114181059
 20
844.7739964613324
 30
0.0
 11
3663.478114181059
 21
849.7739964613324
 31
0.0
  0
LINE
  5
3005
330
19
100
AcDbEntity
  8
AM_0
100
AcDbLine
 10
3801.81211418106
 20
706.2839964613324
 30
0.0
 11
3806.81211418106
 21
708.7839964613324
 31
0.0
  0
LINE
  5
3006
330
19
100
AcDbEntity
  8
AM_0
100
AcDbLine
 10
3796.812114181059
 20
775.5239964613324
 30
0.0
 11
3801.81211418106
 21
775.5239964613324
 31
0.0
  0
LINE
  5
3007
330
19
100
AcDbEntity
  8
AM_0
100
AcDbLine
 10
3806.810114181059
 20
854.7739964613324
 30
0.0
 11
3791.810114181059
 21
854.7739964613324
 31
0.0
  0
LINE
  5
3008
330
19
100
AcDbEntity
  8
AM_0
100
AcDbLine
 10
3730.145114181059
 20
844.7739964613324
 30
0.0
 11
3730.145114181059
 21
849.7739964613324
 31
0.0
  0
LINE
  5
3009
330
19
100
AcDbEntity
  8
AM_0
100
AcDbLine
 10
3796.812114181059
 20
844.7739964613324
 30
0.0
 11
3796.812114181059
 21
849.7739964613324
 31
0.0
  0
LINE
  5
300A
330
19
100
AcDbEntity
  8
AM_0
100
AcDbLine
 10
3806.810114181059
 20
839.7739964613324
 30
0.0
 11
3806.810114181059
 21
854.7739964613324
 31
0.0
  0
LINE
  5
300B
330
19
100
AcDbEntity
  8
AM_0
100
AcDbLine
 10
3796.812114181059
 20
844.7739964613324
 30
0.0
 11
3801.81211418106
 21
844.7739964613324
 31
0.0
  0
LINE
  5
300C
330
19
100
AcDbEntity
  8
AM_0
100
AcDbLine
 10
3796.812114181059
 20
849.7739964613324
 30
0.0
 11
3801.81211418106
 21
849.7739964613324
 31
0.0
  0
MTEXT
  5
300D
330
19
100
AcDbEntity
  8
AM_6
100
AcDbMText
 10
3393.34394366802
 20
602.8010139593681
 30
0.0
 40
3.0
 41
0.0
 71
     1
 72
     1
  1
D
  7
SLDTEXTSTYLE1
 73
     1
 44
1.0
  0
MTEXT
  5
300E
330
19
100
AcDbEntity
  8
AM_6
100
AcDbMText
 10
3425.571420926301
 20
566.3181238734156
 30
0.0
 40
3.0
 41
0.0
 71
     1
 72
     1
  1
1
  7
SLDTEXTSTYLE1
 73
     1
 44
1.0
  0
MTEXT
  5
300F
330
19
100
AcDbEntity
  8
AM_6
100
AcDbMText
 10
3393.34394366802
 20
672.0510139593681
 30
0.0
 40
3.0
 41
0.0
 71
     1
 72
     1
  1
C
  7
SLDTEXTSTYLE1
 73
     1
 44
1.0
  0
MTEXT
  5
3010
330
19
100
AcDbEntity
  8
AM_6
100
AcDbMText
 10
3492.238420926301
 20
566.3181238734156
 30
0.0
 40
3.0
 41
0.0
 71
     1
 72
     1
  1
2
  7
SLDTEXTSTYLE1
 73
     1
 44
1.0
  0
MTEXT
  5
3011
330
19
100
AcDbEntity
  8
AM_6
100
AcDbMText
 10
3558.905420926301
 20
566.3181238734156
 30
0.0
 40
3.0
 41
0.0
 71
     1
 72
     1
  1
3
  7
SLDTEXTSTYLE1
 73
     1
 44
1.0
  0
MTEXT
  5
3012
330
19
100
AcDbEntity
  8
AM_6
100
AcDbMText
 10
3393.34394366802
 20
741.3010139593681
 30
0.0
 40
3.0
 41
0.0
 71
     1
 72
     1
  1
B
  7
SLDTEXTSTYLE1
 73
     1
 44
1.0
  0
MTEXT
  5
3013
330
19
100
AcDbEntity
  8
AM_6
100
AcDbMText
 10
3393.34394366802
 20
810.5510139593681
 30
0.0
 40
3.0
 41
0.0
 71
     1
 72
     1
  1
A
  7
SLDTEXTSTYLE1
 73
     1
 44
1.0
  0
MTEXT
  5
3014
330
19
100
AcDbEntity
  8
AM_6
100
AcDbMText
 10
3425.571420926301
 20
848.3181238734156
 30
0.0
 40
3.0
 41
0.0
 71
     1
 72
     1
  1
1
  7
SLDTEXTSTYLE1
 73
     1
 44
1.0
  0
MTEXT
  5
3015
330
19
100
AcDbEntity
  8
AM_6
100
AcDbMText
 10
3492.238420926301
 20
848.3181238734156
 30
0.0
 40
3.0
 41
0.0
 71
     1
 72
     1
  1
2
  7
SLDTEXTSTYLE1
 73
     1
 44
1.0
  0
MTEXT
  5
3016
330
19
100
AcDbEntity
  8
AM_6
100
AcDbMText
 10
3558.905420926301
 20
848.3181238734156
 30
0.0
 40
3.0
 41
0.0
 71
     1
 72
     1
  1
3
  7
SLDTEXTSTYLE1
 73
     1
 44
1.0
  0
MTEXT
  5
3017
330
19
100
AcDbEntity
  8
AM_6
100
AcDbMText
 10
3625.572420926301
 20
848.3181238734156
 30
0.0
 40
3.0
 41
0.0
 71
     1
 72
     1
  1
4
  7
SLDTEXTSTYLE1
 73
     1
 44
1.0
  0
MTEXT
  5
3018
330
19
100
AcDbEntity
  8
AM_6
100
AcDbMText
 10
3692.239420926301
 20
848.3181238734156
 30
0.0
 40
3.0
 41
0.0
 71
     1
 72
     1
  1
5
  7
SLDTEXTSTYLE1
 73
     1
 44
1.0
  0
MTEXT
  5
3019
330
19
100
AcDbEntity
  8
AM_6
100
AcDbMText
 10
3798.34594366802
 20
741.3010139593681
 30
0.0
 40
3.0
 41
0.0
 71
     1
 72
     1
  1
B
  7
SLDTEXTSTYLE1
 73
     1
 44
1.0
  0
MTEXT
  5
301A
330
19
100
AcDbEntity
  8
AM_6
100
AcDbMText
 10
3758.906420926302
 20
848.3181238734156
 30
0.0
 40
3.0
 41
0.0
 71
     1
 72
     1
  1
6
  7
SLDTEXTSTYLE1
 73
     1
 44
1.0
  0
MTEXT
  5
301B
330
19
100
AcDbEntity
  8
AM_6
100
AcDbMText
 10
3798.34594366802
 20
810.5510139593681
 30
0.0
 40
3.0
 41
0.0
 71
     1
 72
     1
  1
A
  7
SLDTEXTSTYLE1
 73
     1
 44
1.0
  0
MTEXT
  5
301C
330
19
100
AcDbEntity
  8
AM_6
100
AcDbMText
 10
3798.34594366802
 20
602.8110139593681
 30
0.0
 40
3.0
 41
0.0
 71
     1
 72
     1
  1
D
  7
SLDTEXTSTYLE1
 73
     1
 44
1.0
  0
MTEXT
  5
301D
330
19
100
AcDbEntity
  8
AM_6
100
AcDbMText
 10
3798.34594366802
 20
672.0610139593681
 30
0.0
 40
3.0
 41
0.0
 71
     1
 72
     1
  1
C
  7
SLDTEXTSTYLE1
 73
     1
 44
1.0
  0
MTEXT
  5
301E
330
19
100
AcDbEntity
  8
AM_6
100
AcDbMText
 10
3692.238420926301
 20
566.3181238734156
 30
0.0
 40
3.0
 41
0.0
 71
     1
 72
     1
  1
5
  7
SLDTEXTSTYLE1
 73
     1
 44
1.0
  0
MTEXT
  5
301F
330
19
100
AcDbEntity
  8
AM_6
100
AcDbMText
 10
3758.905420926301
 20
566.3181238734156
 30
0.0
 40
3.0
 41
0.0
 71
     1
 72
     1
  1
6
  7
SLDTEXTSTYLE1
 73
     1
 44
1.0
  0
MTEXT
  5
3020
330
19
100
AcDbEntity
  8
AM_6
100
AcDbMText
 10
3625.571420926301
 20
566.3181238734156
 30
0.0
 40
3.0
 41
0.0
 71
     1
 72
     1
  1
4
  7
SLDTEXTSTYLE1
 73
     1
 44
1.0
  0
INSERT
  5
3021
330
19
100
AcDbEntity
  8
AM_0
100
AcDbBlockReference
 66
     1
  2
Cartiglio_LOGLI
 10
3596.800106153091
 20
556.9803695669697
 30
0.0
  0
ATTRIB
  5
3022
330
3021
100
AcDbEntity
  8
AM_0
 62
     7
370
    40
100
AcDbText
 10
3608.666547145433
 20
624.1144817320936
 30
0.0
 40
3.0
  1
xxx
 41
0.75
  7
SLDTEXTSTYLE0
 11
3608.666547145433
 21
622.6144817320936
 31
0.0
100
AcDbAttribute
  2
A-MATERIALE
 70
     0
 74
     1
  0
ATTRIB
  5
3023
330
3021
100
AcDbEntity
  8
AM_0
 62
     7
370
    40
100
AcDbText
 10
3763.747516692129
 20
590.0599267789029
 30
0.0
 40
3.5
  1
1
 41
0.75
  7
SLDTEXTSTYLE0
 11
3763.747516692129
 21
588.3099267789029
 31
0.0
100
AcDbAttribute
  2
AUTOATTR0
 70
     0
 74
     1
  0
ATTRIB
  5
3024
330
3021
100
AcDbEntity
  8
AM_0
 62
     7
370
    40
100
AcDbText
 10
3754.773065802087
 20
590.0392584682203
 30
0.0
 40
3.5
  1
1
 41
0.75
  7
SLDTEXTSTYLE0
 11
3754.773065802087
 21
588.2892584682203
 31
0.0
100
AcDbAttribute
  2
AUTOATTR1
 70
     0
 74
     1
  0
ATTRIB
  5
3025
330
3021
100
AcDbEntity
  8
AM_0
370
    40
100
AcDbText
 10
3736.76000139048
 20
590.2103454049965
 30
0.0
 40
3.5
  1
x:x
 41
0.75
  7
SLDTEXTSTYLE0
 11
3736.76000139048
 21
588.4603454049965
 31
0.0
100
AcDbAttribute
  2
AUTOATTR2
 70
     0
 74
     1
  0
ATTRIB
  5
3026
330
3021
100
AcDbEntity
  8
AM_0
 62
     7
370
    40
100
AcDbText
 10
3720.621296024491
 20
590.2103454049965
 30
0.0
 40
3.5
  1
A3
 41
0.75
  7
SLDTEXTSTYLE0
 11
3720.621296024491
 21
588.4603454049965
 31
0.0
100
AcDbAttribute
  2
AUTOATTR3
 70
     0
 74
     1
  0
ATTRIB
  5
3027
330
3021
100
AcDbEntity
  8
AM_6
100
AcDbText
 10
3608.568889719857
 20
612.8393280244626
 30
0.0
 40
3.0
  1

 41
0.75
  7
SLDTEXTSTYLE0
 11
3608.568889719857
 21
611.3393280244626
 31
0.0
100
AcDbAttribute
  2
A-TRATTAMENTO
 70
     0
 74
     1
  0
ATTRIB
  5
3028
330
3021
100
AcDbEntity
  8
AM_6
100
AcDbText
 10
3773.163027527215
 20
612.8971959672425
 30
0.0
 40
3.0
  1

 41
0.75
  7
SLDTEXTSTYLE0
 11
3773.163027527215
 21
611.3971959672425
 31
0.0
100
AcDbAttribute
  2
A-SMUSSI
 70
     0
 74
     1
  0
ATTRIB
  5
3029
330
3021
100
AcDbEntity
  8
AM_6
100
AcDbText
 10
3773.163027527215
 20
601.9563226249674
 30
0.0
 40
3.0
  1

 41
0.75
  7
SLDTEXTSTYLE0
 11
3773.163027527215
 21
600.4563226249674
 31
0.0
100
AcDbAttribute
  2
A-RAGGI
 70
     0
 74
     1
  0
ATTRIB
  5
302A
330
3021
100
AcDbEntity
  8
AM_6
100
AcDbText
 10
3733.736226016532
 20
623.2411339729141
 30
0.0
 40
3.0
  1

 41
0.75
  7
SLDTEXTSTYLE0
 11
3733.736226016532
 21
621.7411339729141
 31
0.0
100
AcDbAttribute
  2
A-PESO
 70
     0
 74
     1
  0
ATTRIB
  5
302B
330
3021
100
AcDbEntity
  8
AM_0
 62
     7
370
    40
100
AcDbText
 10
3753.077867900104
 20
623.2411337400835
 30
0.0
 40
3.0
  1
ISO 2768-mK
 41
0.75
  7
SLDTEXTSTYLE0
 11
3753.077867900104
 21
621.7411337400835
 31
0.0
100
AcDbAttribute
  2
A_TOLLERANZE
 70
     0
 74
     1
  0
ATTRIB
  5
302C
330
3021
100
AcDbEntity
  8
AM_0
 62
     7
370
    40
100
AcDbText
 10
3721.940787766237
 20
570.7849659370175
 30
0.0
 40
3.5
  1
0
 41
0.75
  7
SLDTEXTSTYLE0
 11
3721.940787766237
 21
569.0349659370175
 31
0.0
100
AcDbAttribute
  2
A-REV
 70
     0
 74
     1
  0
ATTRIB
  5
302D
330
3021
100
AcDbEntity
  8
AM_0
 62
     7
370
    40
100
AcDbText
 10
3721.74352214389
 20
579.9239949412776
 30
0.0
 40
3.5
  1
xxxx
 41
0.75
  7
SLDTEXTSTYLE0
 11
3721.74352214389
 21
578.1739949412776
 31
0.0
100
AcDbAttribute
  2
$PRP:"SW-FILE_NAME"
 70
     0
 74
     1
  0
ATTRIB
  5
302E
330
3021
100
AcDbEntity
  8
AM_0
370
    40
100
AcDbText
 10
3697.811229947189
 20
590.9951842137563
 30
0.0
 40
2.4
  1
99.99.9999
 41
0.75
  7
SLDTEXTSTYLE0
 11
3697.811229947189
 21
589.7951842137562
 31
0.0
100
AcDbAttribute
  2
A_DATA_DISEGNATO
 70
     0
 74
     1
  0
ATTRIB
  5
302F
330
3021
100
AcDbEntity
  8
AM_0
 62
     7
370
    40
100
AcDbText
 10
3680.790096712801
 20
590.8963555529828
 30
0.0
 40
2.4
  1
AT
 41
0.75
  7
SLDTEXTSTYLE0
 11
3680.790096712801
 21
589.6963555529827
 31
0.0
100
AcDbAttribute
  2
A_DISEGNATO
 70
     0
 74
     1
  0
ATTRIB
  5
3030
330
3021
100
AcDbEntity
  8
AM_6
100
AcDbText
 10
3680.790096712801
 20
580.475726442046
 30
0.0
 40
2.4
  1

 41
0.75
  7
SLDTEXTSTYLE0
 11
3680.790096712801
 21
579.275726442046
 31
0.0
100
AcDbAttribute
  2
A_VERIFICATO
 70
     0
 74
     1
  0
ATTRIB
  5
3031
330
3021
100
AcDbEntity
  8
AM_6
100
AcDbText
 10
3697.749264686311
 20
580.475726442046
 30
0.0
 40
2.4
  1

 41
0.75
  7
SLDTEXTSTYLE0
 11
3697.749264686311
 21
579.275726442046
 31
0.0
100
AcDbAttribute
  2
A_DATA_VERIFICATO
 70
     0
 74
     1
  0
ATTRIB
  5
3032
330
3021
100
AcDbEntity
  8
AM_0
 62
     7
370
    40
100
AcDbText
 10
3609.102852935516
 20
601.4030030371149
 30
0.0
 40
3.5
  1
xxxx
 41
0.75
  7
SLDTEXTSTYLE0
 11
3609.102852935516
 21
599.6530030371149
 31
0.0
100
AcDbAttribute
  2
A-DESCRIZIONE
 70
     0
 74
     1
  0
ATTRIB
  5
3033
330
3021
100
AcDbEntity
  8
AM_6
100
AcDbText
 10
3680.832267601704
 20
624.1144819649243
 30
0.0
 40
3.0
  1

 41
0.75
  7
SLDTEXTSTYLE0
 11
3680.832267601704
 21
622.6144819649243
 31
0.0
100
AcDbAttribute
  2
A-LUNGHEZZA
 70
     0
 74
     1
  0
ATTRIB
  5
3034
330
3021
100
AcDbEntity
  8
AM_6
100
AcDbText
 10
3680.832267601704
 20
612.8393280244626
 30
0.0
 40
3.0
  1

 41
0.75
  7
SLDTEXTSTYLE0
 11
3680.832267601704
 21
611.3393280244626
 31
0.0
100
AcDbAttribute
  2
A-COD_COM
 70
     0
 74
     1
  0
SEQEND
  5
3035
330
3021
100
AcDbEntity
  8
AM_0
  0
VIEWPORT
  5
1
330
16
100
AcDbEntity
 67
     1
  8
0
100
AcDbViewport
 10
204.8003468862656
 20
128.4918433255422
 30
0.0
 40
553.9343171003345
 41
306.6154045196296
 68
     1
 69
     1
 12
204.8003468862656
 22
128.4918433255422
 13
0.0
 23
0.0
 14
10.0
 24
10.0
 15
10.0
 25
10.0
 16
0.0
 26
0.0
 36
1.0
 17
0.0
 27
0.0
 37
0.0
 42
50.0
 43
0.0
 44
0.0
 45
306.6154045196296
 50
0.0
 51
0.0
 72
   100
 90
    32800
  1

281
     0
 71
     1
 74
     0
110
0.0
120
0.0
130
0.0
111
1.0
121
0.0
131
0.0
112
0.0
122
1.0
132
0.0
 79
     0
146
0.0
  0
LINE
  5
1C20
330
16
100
AcDbEntity
 67
     1
  8
AM_0
100
AcDbLine
 10
205.0012906913828
 20
277.0007665923893
 30
0.0
 11
202.5012906913828
 21
272.0007665923893
 31
0.0
  0
LINE
  5
1C21
330
16
100
AcDbEntity
 67
     1
  8
AM_0
100
AcDbLine
 10
200.0012906913828
 20
277.0007665923893
 30
0.0
 11
205.0012906913828
 21
277.0007665923893
 31
0.0
  0
LINE
  5
1C22
330
16
100
AcDbEntity
 67
     1
  8
AM_0
100
AcDbLine
 10
200.0012906913828
 20
-19.99923340761075
 30
0.0
 11
205.0012906913828
 21
-19.99923340761075
 31
0.0
  0
LINE
  5
1C23
330
16
100
AcDbEntity
 67
     1
  8
AM_0
100
AcDbLine
 10
205.0012906913828
 20
-19.99923340761075
 30
0.0
 11
202.5012906913828
 21
-14.99923340761075
 31
0.0
  0
LINE
  5
1C24
330
16
100
AcDbEntity
 67
     1
  8
AM_0
100
AcDbLine
 10
252.501290691383
 20
-19.99923340761075
 30
0.0
 11
152.5012906913828
 21
-19.99923340761075
 31
0.0
  0
LINE
  5
1C25
330
16
100
AcDbEntity
 67
     1
  8
AM_0
100
AcDbLine
 10
402.5002906913833
 20
-9.999233407610745
 30
0.0
 11
402.5002906913833
 21
267.0007665923893
 31
0.0
  0
LINE
  5
1C26
330
16
100
AcDbEntity
 67
     1
  8
AM_0
100
AcDbLine
 10
402.5002906913833
 20
267.0007665923893
 30
0.0
 11
2.500290691383043
 21
267.0007665923893
 31
0.0
  0
LINE
  5
1C27
330
16
100
AcDbEntity
 67
     1
  8
AM_0
100
AcDbLine
 10
2.500290691383043
 20
267.0007665923893
 30
0.0
 11
2.500290691383043
 21
-9.999233407610745
 31
0.0
  0
LINE
  5
1C28
330
16
100
AcDbEntity
 67
     1
  8
AM_0
100
AcDbLine
 10
2.500290691383043
 20
-9.999233407610745
 30
0.0
 11
402.5002906913833
 21
-9.999233407610745
 31
0.0
  0
LINE
  5
1C29
330
16
100
AcDbEntity
 67
     1
  8
AM_0
100
AcDbLine
 10
407.500290691383
 20
272.0007665923893
 30
0.0
 11
-2.499709308616957
 21
272.0007665923893
 31
0.0
  0
LINE
  5
1C2A
330
16
100
AcDbEntity
 67
     1
  8
AM_0
100
AcDbLine
 10
-2.499709308616957
 20
272.0007665923893
 30
0.0
 11
-2.499709308616957
 21
-14.99923340761075
 31
0.0
  0
LINE
  5
1C2B
330
16
100
AcDbEntity
 67
     1
  8
AM_0
100
AcDbLine
 10
-2.499709308616957
 20
-14.99923340761075
 30
0.0
 11
407.500290691383
 21
-14.99923340761075
 31
0.0
  0
LINE
  5
1C2C
330
16
100
AcDbEntity
 67
     1
  8
AM_0
100
AcDbLine
 10
407.500290691383
 20
-14.99923340761075
 30
0.0
 11
407.500290691383
 21
272.0007665923893
 31
0.0
  0
LINE
  5
1C2D
330
16
100
AcDbEntity
 67
     1
  8
AM_0
100
AcDbLine
 10
-2.499709308616957
 20
128.5107665923892
 30
0.0
 11
-7.499709308616957
 21
126.0107665923892
 31
0.0
  0
LINE
  5
1C2E
330
16
100
AcDbEntity
 67
     1
  8
AM_0
100
AcDbLine
 10
-7.499709308616957
 20
131.0107665923892
 30
0.0
 11
-7.499709308616957
 21
126.0107665923892
 31
0.0
  0
LINE
  5
1C2F
330
16
100
AcDbEntity
 67
     1
  8
AM_0
100
AcDbLine
 10
-7.499709308616957
 20
-19.99923340761075
 30
0.0
 11
7.500290691383043
 21
-19.99923340761075
 31
0.0
  0
LINE
  5
1C30
330
16
100
AcDbEntity
 67
     1
  8
AM_0
100
AcDbLine
 10
2.500290691383043
 20
-14.99923340761075
 30
0.0
 11
2.500290691383043
 21
-9.999233407610745
 31
0.0
  0
LINE
  5
1C31
330
16
100
AcDbEntity
 67
     1
  8
AM_0
100
AcDbLine
 10
-7.499709308616957
 20
-4.999233407610745
 30
0.0
 11
-7.499709308616957
 21
-19.99923340761075
 31
0.0
  0
LINE
  5
1C32
330
16
100
AcDbEntity
 67
     1
  8
AM_0
100
AcDbLine
 10
-2.499709308616957
 20
-9.999233407610745
 30
0.0
 11
2.500290691383043
 21
-9.999233407610745
 31
0.0
  0
LINE
  5
1C33
330
16
100
AcDbEntity
 67
     1
  8
AM_0
100
AcDbLine
 10
69.16729069138296
 20
-14.99923340761075
 30
0.0
 11
69.16729069138296
 21
-9.999233407610745
 31
0.0
  0
LINE
  5
1C34
330
16
100
AcDbEntity
 67
     1
  8
AM_0
100
AcDbLine
 10
-2.499709308616957
 20
59.25076659238925
 30
0.0
 11
2.500290691383043
 21
59.25076659238925
 31
0.0
  0
LINE
  5
1C35
330
16
100
AcDbEntity
 67
     1
  8
AM_0
100
AcDbLine
 10
-2.499709308616957
 20
128.5007665923893
 30
0.0
 11
2.500290691383043
 21
128.5007665923893
 31
0.0
  0
LINE
  5
1C36
330
16
100
AcDbEntity
 67
     1
  8
AM_0
100
AcDbLine
 10
135.8342906913829
 20
-14.99923340761075
 30
0.0
 11
135.8342906913829
 21
-9.999233407610745
 31
0.0
  0
LINE
  5
1C37
330
16
100
AcDbEntity
 67
     1
  8
AM_0
100
AcDbLine
 10
402.5002906913833
 20
-9.999233407610745
 30
0.0
 11
407.500290691383
 21
-9.999233407610745
 31
0.0
  0
LINE
  5
1C38
330
16
100
AcDbEntity
 67
     1
  8
AM_0
100
AcDbLine
 10
152.5012906913828
 20
-14.99923340761075
 30
0.0
 11
152.5012906913828
 21
-19.99923340761075
 31
0.0
  0
LINE
  5
1C39
330
16
100
AcDbEntity
 67
     1
  8
AM_0
100
AcDbLine
 10
162.501290691383
 20
-14.99923340761075
 30
0.0
 11
162.501290691383
 21
-19.99923340761075
 31
0.0
  0
LINE
  5
1C3A
330
16
100
AcDbEntity
 67
     1
  8
AM_0
100
AcDbLine
 10
172.5012906913828
 20
-14.99923340761075
 30
0.0
 11
172.5012906913828
 21
-19.99923340761075
 31
0.0
  0
LINE
  5
1C3B
330
16
100
AcDbEntity
 67
     1
  8
AM_0
100
AcDbLine
 10
182.5012906913828
 20
-14.99923340761075
 30
0.0
 11
182.5012906913828
 21
-19.99923340761075
 31
0.0
  0
LINE
  5
1C3C
330
16
100
AcDbEntity
 67
     1
  8
AM_0
100
AcDbLine
 10
192.501290691383
 20
-14.99923340761075
 30
0.0
 11
192.501290691383
 21
-19.99923340761075
 31
0.0
  0
LINE
  5
1C3D
330
16
100
AcDbEntity
 67
     1
  8
AM_0
100
AcDbLine
 10
202.5012906913828
 20
-14.99923340761075
 30
0.0
 11
200.0012906913828
 21
-19.99923340761075
 31
0.0
  0
LINE
  5
1C3E
330
16
100
AcDbEntity
 67
     1
  8
AM_0
100
AcDbLine
 10
-2.499709308616957
 20
128.5107665923892
 30
0.0
 11
-7.499709308616957
 21
131.0107665923892
 31
0.0
  0
LINE
  5
1C3F
330
16
100
AcDbEntity
 67
     1
  8
AM_0
100
AcDbLine
 10
-2.499709308616957
 20
197.7507665923893
 30
0.0
 11
2.500290691383043
 21
197.7507665923893
 31
0.0
  0
LINE
  5
1C40
330
16
100
AcDbEntity
 67
     1
  8
AM_0
100
AcDbLine
 10
-7.499709308616957
 20
277.0007665923893
 30
0.0
 11
7.500290691383043
 21
277.0007665923893
 31
0.0
  0
LINE
  5
1C41
330
16
100
AcDbEntity
 67
     1
  8
AM_0
100
AcDbLine
 10
2.500290691383043
 20
267.0007665923893
 30
0.0
 11
2.500290691383043
 21
272.0007665923893
 31
0.0
  0
LINE
  5
1C42
330
16
100
AcDbEntity
 67
     1
  8
AM_0
100
AcDbLine
 10
-7.499709308616957
 20
262.0007665923893
 30
0.0
 11
-7.499709308616957
 21
277.0007665923893
 31
0.0
  0
LINE
  5
1C43
330
16
100
AcDbEntity
 67
     1
  8
AM_0
100
AcDbLine
 10
-2.499709308616957
 20
267.0007665923893
 30
0.0
 11
2.500290691383043
 21
267.0007665923893
 31
0.0
  0
LINE
  5
1C44
330
16
100
AcDbEntity
 67
     1
  8
AM_0
100
AcDbLine
 10
-2.499709308616957
 20
272.0007665923893
 30
0.0
 11
2.500290691383043
 21
272.0007665923893
 31
0.0
  0
LINE
  5
1C45
330
16
100
AcDbEntity
 67
     1
  8
AM_0
100
AcDbLine
 10
69.16729069138296
 20
267.0007665923893
 30
0.0
 11
69.16729069138296
 21
272.0007665923893
 31
0.0
  0
LINE
  5
1C46
330
16
100
AcDbEntity
 67
     1
  8
AM_0
100
AcDbLine
 10
135.8342906913829
 20
267.0007665923893
 30
0.0
 11
135.8342906913829
 21
272.0007665923893
 31
0.0
  0
LINE
  5
1C47
330
16
100
AcDbEntity
 67
     1
  8
AM_0
100
AcDbLine
 10
202.5012906913828
 20
267.0007665923893
 30
0.0
 11
202.5012906913828
 21
272.0007665923893
 31
0.0
  0
LINE
  5
1C48
330
16
100
AcDbEntity
 67
     1
  8
AM_0
100
AcDbLine
 10
202.5012906913828
 20
272.0007665923893
 30
0.0
 11
200.0012906913828
 21
277.0007665923893
 31
0.0
  0
LINE
  5
1C49
330
16
100
AcDbEntity
 67
     1
  8
AM_0
100
AcDbLine
 10
412.5022906913832
 20
131.0107665923892
 30
0.0
 11
412.5022906913832
 21
126.0107665923892
 31
0.0
  0
LINE
  5
1C4A
330
16
100
AcDbEntity
 67
     1
  8
AM_0
100
AcDbLine
 10
407.5022906913832
 20
128.5107665923892
 30
0.0
 11
412.5022906913832
 21
126.0107665923892
 31
0.0
  0
LINE
  5
1C4B
330
16
100
AcDbEntity
 67
     1
  8
AM_0
100
AcDbLine
 10
212.5012906913828
 20
-14.99923340761075
 30
0.0
 11
212.5012906913828
 21
-19.99923340761075
 31
0.0
  0
LINE
  5
1C4C
330
16
100
AcDbEntity
 67
     1
  8
AM_0
100
AcDbLine
 10
222.5012906913828
 20
-14.99923340761075
 30
0.0
 11
222.5012906913828
 21
-19.99923340761075
 31
0.0
  0
LINE
  5
1C4D
330
16
100
AcDbEntity
 67
     1
  8
AM_0
100
AcDbLine
 10
232.5012906913828
 20
-14.99923340761075
 30
0.0
 11
232.5012906913828
 21
-19.99923340761075
 31
0.0
  0
LINE
  5
1C4E
330
16
100
AcDbEntity
 67
     1
  8
AM_0
100
AcDbLine
 10
242.5012906913828
 20
-14.99923340761075
 30
0.0
 11
242.5012906913828
 21
-19.99923340761075
 31
0.0
  0
LINE
  5
1C4F
330
16
100
AcDbEntity
 67
     1
  8
AM_0
100
AcDbLine
 10
252.5012906913828
 20
-14.99923340761075
 30
0.0
 11
252.501290691383
 21
-19.99923340761075
 31
0.0
  0
LINE
  5
1C50
330
16
100
AcDbEntity
 67
     1
  8
AM_0
100
AcDbLine
 10
402.502290691383
 20
59.26076659238925
 30
0.0
 11
407.5022906913832
 21
59.26076659238925
 31
0.0
  0
LINE
  5
1C51
330
16
100
AcDbEntity
 67
     1
  8
AM_0
100
AcDbLine
 10
412.500290691383
 20
-19.99923340761075
 30
0.0
 11
397.5002906913833
 21
-19.99923340761075
 31
0.0
  0
LINE
  5
1C52
330
16
100
AcDbEntity
 67
     1
  8
AM_0
100
AcDbLine
 10
402.5002906913833
 20
-9.999233407610745
 30
0.0
 11
402.5002906913833
 21
-14.99923340761075
 31
0.0
  0
LINE
  5
1C53
330
16
100
AcDbEntity
 67
     1
  8
AM_0
100
AcDbLine
 10
335.8342906913833
 20
-14.99923340761075
 30
0.0
 11
335.8342906913833
 21
-9.999233407610745
 31
0.0
  0
LINE
  5
1C54
330
16
100
AcDbEntity
 67
     1
  8
AM_0
100
AcDbLine
 10
412.500290691383
 20
-4.999233407610745
 30
0.0
 11
412.500290691383
 21
-19.99923340761075
 31
0.0
  0
LINE
  5
1C55
330
16
100
AcDbEntity
 67
     1
  8
AM_0
100
AcDbLine
 10
202.500290691383
 20
-14.99923340761075
 30
0.0
 11
202.500290691383
 21
-9.999233407610745
 31
0.0
  0
LINE
  5
1C56
330
16
100
AcDbEntity
 67
     1
  8
AM_0
100
AcDbLine
 10
269.1672906913832
 20
-14.99923340761075
 30
0.0
 11
269.1672906913832
 21
-9.999233407610745
 31
0.0
  0
LINE
  5
1C57
330
16
100
AcDbEntity
 67
     1
  8
AM_0
100
AcDbLine
 10
402.502290691383
 20
128.5007665923893
 30
0.0
 11
407.5022906913832
 21
128.5007665923893
 31
0.0
  0
LINE
  5
1C58
330
16
100
AcDbEntity
 67
     1
  8
AM_0
100
AcDbLine
 10
269.1682906913829
 20
267.0007665923893
 30
0.0
 11
269.1682906913829
 21
272.0007665923893
 31
0.0
  0
LINE
  5
1C59
330
16
100
AcDbEntity
 67
     1
  8
AM_0
100
AcDbLine
 10
407.5022906913832
 20
128.5107665923892
 30
0.0
 11
412.5022906913832
 21
131.0107665923892
 31
0.0
  0
LINE
  5
1C5A
330
16
100
AcDbEntity
 67
     1
  8
AM_0
100
AcDbLine
 10
402.502290691383
 20
197.7507665923893
 30
0.0
 11
407.5022906913832
 21
197.7507665923893
 31
0.0
  0
LINE
  5
1C5B
330
16
100
AcDbEntity
 67
     1
  8
AM_0
100
AcDbLine
 10
412.500290691383
 20
277.0007665923893
 30
0.0
 11
397.5002906913833
 21
277.0007665923893
 31
0.0
  0
LINE
  5
1C5C
330
16
100
AcDbEntity
 67
     1
  8
AM_0
100
AcDbLine
 10
335.8352906913831
 20
267.0007665923893
 30
0.0
 11
335.8352906913831
 21
272.0007665923893
 31
0.0
  0
LINE
  5
1C5D
330
16
100
AcDbEntity
 67
     1
  8
AM_0
100
AcDbLine
 10
402.502290691383
 20
267.0007665923893
 30
0.0
 11
402.502290691383
 21
272.0007665923893
 31
0.0
  0
LINE
  5
1C5E
330
16
100
AcDbEntity
 67
     1
  8
AM_0
100
AcDbLine
 10
412.500290691383
 20
262.0007665923893
 30
0.0
 11
412.500290691383
 21
277.0007665923893
 31
0.0
  0
LINE
  5
1C5F
330
16
100
AcDbEntity
 67
     1
  8
AM_0
100
AcDbLine
 10
402.502290691383
 20
267.0007665923893
 30
0.0
 11
407.5022906913832
 21
267.0007665923893
 31
0.0
  0
LINE
  5
1C60
330
16
100
AcDbEntity
 67
     1
  8
AM_0
100
AcDbLine
 10
402.502290691383
 20
272.0007665923893
 30
0.0
 11
407.5022906913832
 21
272.0007665923893
 31
0.0
  0
MTEXT
  5
1C61
330
16
100
AcDbEntity
 67
     1
  8
AM_6
100
AcDbMText
 10
-0.9658798216566993
 20
25.02778409042492
 30
0.0
 40
3.0
 41
0.0
 71
     1
 72
     1
  1
D
  7
SLDTEXTSTYLE1
 73
     1
 44
1.0
  0
MTEXT
  5
1C62
330
16
100
AcDbEntity
 67
     1
  8
AM_6
100
AcDbMText
 10
31.26159743662492
 20
-11.45510599552756
 30
0.0
 40
3.0
 41
0.0
 71
     1
 72
     1
  1
1
  7
SLDTEXTSTYLE1
 73
     1
 44
1.0
  0
MTEXT
  5
1C63
330
16
100
AcDbEntity
 67
     1
  8
AM_6
100
AcDbMText
 10
-0.9658798216566993
 20
94.27778409042492
 30
0.0
 40
3.0
 41
0.0
 71
     1
 72
     1
  1
C
  7
SLDTEXTSTYLE1
 73
     1
 44
1.0
  0
MTEXT
  5
1C64
330
16
100
AcDbEntity
 67
     1
  8
AM_6
100
AcDbMText
 10
97.92859743662507
 20
-11.45510599552756
 30
0.0
 40
3.0
 41
0.0
 71
     1
 72
     1
  1
2
  7
SLDTEXTSTYLE1
 73
     1
 44
1.0
  0
MTEXT
  5
1C65
330
16
100
AcDbEntity
 67
     1
  8
AM_6
100
AcDbMText
 10
164.5955974366252
 20
-11.45510599552756
 30
0.0
 40
3.0
 41
0.0
 71
     1
 72
     1
  1
3
  7
SLDTEXTSTYLE1
 73
     1
 44
1.0
  0
MTEXT
  5
1C66
330
16
100
AcDbEntity
 67
     1
  8
AM_6
100
AcDbMText
 10
-0.9658798216566993
 20
163.5277840904249
 30
0.0
 40
3.0
 41
0.0
 71
     1
 72
     1
  1
B
  7
SLDTEXTSTYLE1
 73
     1
 44
1.0
  0
MTEXT
  5
1C67
330
16
100
AcDbEntity
 67
     1
  8
AM_6
100
AcDbMText
 10
-0.9658798216566993
 20
232.7777840904249
 30
0.0
 40
3.0
 41
0.0
 71
     1
 72
     1
  1
A
  7
SLDTEXTSTYLE1
 73
     1
 44
1.0
  0
MTEXT
  5
1C68
330
16
100
AcDbEntity
 67
     1
  8
AM_6
100
AcDbMText
 10
31.26159743662492
 20
270.5448940044724
 30
0.0
 40
3.0
 41
0.0
 71
     1
 72
     1
  1
1
  7
SLDTEXTSTYLE1
 73
     1
 44
1.0
  0
MTEXT
  5
1C69
330
16
100
AcDbEntity
 67
     1
  8
AM_6
100
AcDbMText
 10
97.92859743662507
 20
270.5448940044724
 30
0.0
 40
3.0
 41
0.0
 71
     1
 72
     1
  1
2
  7
SLDTEXTSTYLE1
 73
     1
 44
1.0
  0
MTEXT
  5
1C6A
330
16
100
AcDbEntity
 67
     1
  8
AM_6
100
AcDbMText
 10
164.5955974366252
 20
270.5448940044724
 30
0.0
 40
3.0
 41
0.0
 71
     1
 72
     1
  1
3
  7
SLDTEXTSTYLE1
 73
     1
 44
1.0
  0
MTEXT
  5
1C6B
330
16
100
AcDbEntity
 67
     1
  8
AM_6
100
AcDbMText
 10
231.2625974366249
 20
270.5448940044724
 30
0.0
 40
3.0
 41
0.0
 71
     1
 72
     1
  1
4
  7
SLDTEXTSTYLE1
 73
     1
 44
1.0
  0
MTEXT
  5
1C6C
330
16
100
AcDbEntity
 67
     1
  8
AM_6
100
AcDbMText
 10
297.9295974366248
 20
270.5448940044724
 30
0.0
 40
3.0
 41
0.0
 71
     1
 72
     1
  1
5
  7
SLDTEXTSTYLE1
 73
     1
 44
1.0
  0
MTEXT
  5
1C6D
330
16
100
AcDbEntity
 67
     1
  8
AM_6
100
AcDbMText
 10
404.0361201783433
 20
163.5277840904249
 30
0.0
 40
3.0
 41
0.0
 71
     1
 72
     1
  1
B
  7
SLDTEXTSTYLE1
 73
     1
 44
1.0
  0
MTEXT
  5
1C6E
330
16
100
AcDbEntity
 67
     1
  8
AM_6
100
AcDbMText
 10
364.596597436625
 20
270.5448940044724
 30
0.0
 40
3.0
 41
0.0
 71
     1
 72
     1
  1
6
  7
SLDTEXTSTYLE1
 73
     1
 44
1.0
  0
MTEXT
  5
1C6F
330
16
100
AcDbEntity
 67
     1
  8
AM_6
100
AcDbMText
 10
404.0361201783433
 20
232.7777840904249
 30
0.0
 40
3.0
 41
0.0
 71
     1
 72
     1
  1
A
  7
SLDTEXTSTYLE1
 73
     1
 44
1.0
  0
MTEXT
  5
1C70
330
16
100
AcDbEntity
 67
     1
  8
AM_6
100
AcDbMText
 10
404.0361201783435
 20
25.03778409042491
 30
0.0
 40
3.0
 41
0.0
 71
     1
 72
     1
  1
D
  7
SLDTEXTSTYLE1
 73
     1
 44
1.0
  0
MTEXT
  5
1C71
330
16
100
AcDbEntity
 67
     1
  8
AM_6
100
AcDbMText
 10
404.0361201783435
 20
94.2877840904249
 30
0.0
 40
3.0
 41
0.0
 71
     1
 72
     1
  1
C
  7
SLDTEXTSTYLE1
 73
     1
 44
1.0
  0
MTEXT
  5
1C72
330
16
100
AcDbEntity
 67
     1
  8
AM_6
100
AcDbMText
 10
297.9285974366251
 20
-11.45510599552756
 30
0.0
 40
3.0
 41
0.0
 71
     1
 72
     1
  1
5
  7
SLDTEXTSTYLE1
 73
     1
 44
1.0
  0
MTEXT
  5
1C73
330
16
100
AcDbEntity
 67
     1
  8
AM_6
100
AcDbMText
 10
364.5955974366252
 20
-11.45510599552756
 30
0.0
 40
3.0
 41
0.0
 71
     1
 72
     1
  1
6
  7
SLDTEXTSTYLE1
 73
     1
 44
1.0
  0
MTEXT
  5
1C74
330
16
100
AcDbEntity
 67
     1
  8
AM_6
100
AcDbMText
 10
231.2615974366252
 20
-11.45510599552756
 30
0.0
 40
3.0
 41
0.0
 71
     1
 72
     1
  1
4
  7
SLDTEXTSTYLE1
 73
     1
 44
1.0
  0
INSERT
  5
1C75
330
16
100
AcDbEntity
 67
     1
  8
AM_0
100
AcDbBlockReference
 66
     1
  2
Cartiglio_LOGLI
 10
202.4902826634145
 20
-20.79286030197352
 30
0.0
  0
ATTRIB
  5
1C76
330
1C75
100
AcDbEntity
 67
     1
  8
AM_0
 62
     7
370
    40
100
AcDbText
 10
214.3567236557567
 20
45.84125186315043
 30
0.0
 40
3.0
  1
6060 T6
 41
0.75
  7
SLDTEXTSTYLE0
 11
214.3567236557567
 21
44.84125186315043
 31
0.0
100
AcDbAttribute
  2
A-MATERIALE
 70
     0
 74
     1
  0
ATTRIB
  5
1C77
330
1C75
100
AcDbEntity
 67
     1
  8
AM_0
 62
     7
370
    40
100
AcDbText
 10
369.4376932024527
 20
11.70336357662635
 30
0.0
 40
3.5
  1
1
 41
0.75
  7
SLDTEXTSTYLE0
 11
369.4376932024527
 21
10.53669690995969
 31
0.0
100
AcDbAttribute
  2
AUTOATTR0
 70
     0
 74
     1
  0
ATTRIB
  5
1C78
330
1C75
100
AcDbEntity
 67
     1
  8
AM_0
 62
     7
370
    40
100
AcDbText
 10
360.4632423124106
 20
11.68269526594376
 30
0.0
 40
3.5
  1
1
 41
0.75
  7
SLDTEXTSTYLE0
 11
360.4632423124106
 21
10.51602859927709
 31
0.0
100
AcDbAttribute
  2
AUTOATTR1
 70
     0
 74
     1
  0
ATTRIB
  5
1C79
330
1C75
100
AcDbEntity
 67
     1
  8
AM_0
370
    40
100
AcDbText
 10
342.4501779008035
 20
11.85378220271995
 30
0.0
 40
3.5
  1
1:1
 41
0.75
  7
SLDTEXTSTYLE0
 11
342.4501779008035
 21
10.68711553605328
 31
0.0
100
AcDbAttribute
  2
AUTOATTR2
 70
     0
 74
     1
  0
ATTRIB
  5
1C7A
330
1C75
100
AcDbEntity
 67
     1
  8
AM_0
 62
     7
370
    40
100
AcDbText
 10
326.3114725348144
 20
11.85378220271995
 30
0.0
 40
3.5
  1
A3
 41
0.75
  7
SLDTEXTSTYLE0
 11
326.3114725348144
 21
10.68711553605328
 31
0.0
100
AcDbAttribute
  2
AUTOATTR3
 70
     0
 74
     1
  0
ATTRIB
  5
1C7B
330
1C75
100
AcDbEntity
 67
     1
  8
AM_6
100
AcDbText
 10
214.2590662301802
 20
34.5660981555194
 30
0.0
 40
3.0
  1

 41
0.75
  7
SLDTEXTSTYLE0
 11
214.2590662301802
 21
33.5660981555194
 31
0.0
100
AcDbAttribute
  2
A-TRATTAMENTO
 70
     0
 74
     1
  0
ATTRIB
  5
1C7C
330
1C75
100
AcDbEntity
 67
     1
  8
AM_6
100
AcDbText
 10
378.8532040375387
 20
34.62396609829932
 30
0.0
 40
3.0
  1

 41
0.75
  7
SLDTEXTSTYLE0
 11
378.8532040375387
 21
33.62396609829932
 31
0.0
100
AcDbAttribute
  2
A-SMUSSI
 70
     0
 74
     1
  0
ATTRIB
  5
1C7D
330
1C75
100
AcDbEntity
 67
     1
  8
AM_6
100
AcDbText
 10
378.8532040375387
 20
23.68309275602417
 30
0.0
 40
3.0
  1

 41
0.75
  7
SLDTEXTSTYLE0
 11
378.8532040375387
 21
22.68309275602417
 31
0.0
100
AcDbAttribute
  2
A-RAGGI
 70
     0
 74
     1
  0
ATTRIB
  5
1C7E
330
1C75
100
AcDbEntity
 67
     1
  8
AM_6
100
AcDbText
 10
339.426402526856
 20
44.96790410397091
 30
0.0
 40
3.0
  1

 41
0.75
  7
SLDTEXTSTYLE0
 11
339.426402526856
 21
43.96790410397091
 31
0.0
100
AcDbAttribute
  2
A-PESO
 70
     0
 74
     1
  0
ATTRIB
  5
1C7F
330
1C75
100
AcDbEntity
 67
     1
  8
AM_0
 62
     7
370
    40
100
AcDbText
 10
358.7680444104274
 20
44.96790387114027
 30
0.0
 40
3.0
  1
ISO 2768-mK
 41
0.75
  7
SLDTEXTSTYLE0
 11
358.7680444104274
 21
43.96790387114027
 31
0.0
100
AcDbAttribute
  2
A_TOLLERANZE
 70
     0
 74
     1
  0
ATTRIB
  5
1C80
330
1C75
100
AcDbEntity
 67
     1
  8
AM_0
 62
     7
370
    40
100
AcDbText
 10
327.6309642765602
 20
-7.571597265258978
 30
0.0
 40
3.5
  1
0
 41
0.75
  7
SLDTEXTSTYLE0
 11
327.6309642765602
 21
-8.738263931925644
 31
0.0
100
AcDbAttribute
  2
A-REV
 70
     0
 74
     1
  0
ATTRIB
  5
1C81
330
1C75
100
AcDbEntity
 67
     1
  8
AM_0
 62
     7
370
    40
100
AcDbText
 10
327.4336986542141
 20
1.567431739001032
 30
0.0
 40
3.5
  1
xxxx
 41
0.75
  7
SLDTEXTSTYLE0
 11
327.4336986542141
 21
0.4007650723343659
 31
0.0
100
AcDbAttribute
  2
$PRP:"SW-FILE_NAME"
 70
     0
 74
     1
  0
ATTRIB
  5
1C82
330
1C75
100
AcDbEntity
 67
     1
  8
AM_0
370
    40
100
AcDbText
 10
303.5014064575128
 20
12.82195434481303
 30
0.0
 40
2.4
  1
04.04.2017
 41
0.75
  7
SLDTEXTSTYLE0
 11
303.5014064575128
 21
12.02195434481303
 31
0.0
100
AcDbAttribute
  2
A_DATA_DISEGNATO
 70
     0
 74
     1
  0
ATTRIB
  5
1C83
330
1C75
100
AcDbEntity
 67
     1
  8
AM_0
 62
     7
370
    40
100
AcDbText
 10
286.4802732231249
 20
12.72312568403952
 30
0.0
 40
2.4
  1
MP
 41
0.75
  7
SLDTEXTSTYLE0
 11
286.4802732231249
 21
11.92312568403952
 31
0.0
100
AcDbAttribute
  2
A_DISEGNATO
 70
     0
 74
     1
  0
ATTRIB
  5
1C84
330
1C75
100
AcDbEntity
 67
     1
  8
AM_6
100
AcDbText
 10
286.4802732231249
 20
2.302496573102803
 30
0.0
 40
2.4
  1

 41
0.75
  7
SLDTEXTSTYLE0
 11
286.4802732231249
 21
1.502496573102803
 31
0.0
100
AcDbAttribute
  2
A_VERIFICATO
 70
     0
 74
     1
  0
ATTRIB
  5
1C85
330
1C75
100
AcDbEntity
 67
     1
  8
AM_6
100
AcDbText
 10
303.4394411966343
 20
2.302496573102803
 30
0.0
 40
2.4
  1

 41
0.75
  7
SLDTEXTSTYLE0
 11
303.4394411966343
 21
1.502496573102803
 31
0.0
100
AcDbAttribute
  2
A_DATA_VERIFICATO
 70
     0
 74
     1
  0
ATTRIB
  5
1C86
330
1C75
100
AcDbEntity
 67
     1
  8
AM_0
 62
     7
370
    40
100
AcDbText
 10
214.7930294458395
 20
23.04643983483838
 30
0.0
 40
3.5
  1
Schema foratura profilo pensilina
 41
0.75
  7
SLDTEXTSTYLE0
 11
214.7930294458395
 21
21.87977316817171
 31
0.0
100
AcDbAttribute
  2
A-DESCRIZIONE
 70
     0
 74
     1
  0
ATTRIB
  5
1C87
330
1C75
100
AcDbEntity
 67
     1
  8
AM_6
100
AcDbText
 10
286.5224441120274
 20
45.84125209598108
 30
0.0
 40
3.0
  1

 41
0.75
  7
SLDTEXTSTYLE0
 11
286.5224441120274
 21
44.84125209598108
 31
0.0
100
AcDbAttribute
  2
A-LUNGHEZZA
 70
     0
 74
     1
  0
ATTRIB
  5
1C88
330
1C75
100
AcDbEntity
 67
     1
  8
AM_6
100
AcDbText
 10
286.5224441120274
 20
34.5660981555194
 30
0.0
 40
3.0
  1

 41
0.75
  7
SLDTEXTSTYLE0
 11
286.5224441120274
 21
33.5660981555194
 31
0.0
100
AcDbAttribute
  2
A-COD_COM
 70
     0
 74
     1
  0
SEQEND
  5
1C89
330
1C75
100
AcDbEntity
 67
     1
  8
AM_0
  0
VIEWPORT
  5
1CB3
102
{ACAD_XDICTIONARY
360
1CB4
102
}
330
16
100
AcDbEntity
 67
     1
  8
DEFPOINTS
100
AcDbViewport
 10
202.5002906913832
 20
179.6878632111931
 30
0.0
 40
400.0000000000002
 41
174.6258067623924
 68
     2
 69
     2
 12
3723.395666418513
 22
1690.020795499154
 13
0.0
 23
0.0
 14
10.0
 24
10.0
 15
10.0
 25
10.0
 16
0.0
 26
0.0
 36
1.0
 17
0.0
 27
0.0
 37
0.0
 42
50.0
 43
0.0
 44
0.0
 45
174.6258143003203
 50
0.0
 51
0.0
 72
   100
 90
   819232
  1

281
     0
 71
     1
 74
     0
110
0.0
120
0.0
130
0.0
111
1.0
121
0.0
131
0.0
112
0.0
122
1.0
132
0.0
 79
     0
146
0.0
  0
VIEWPORT
  5
1CF5
102
{ACAD_XDICTIONARY
360
1CF6
102
}
330
16
100
AcDbEntity
 67
     1
  8
DEFPOINTS
100
AcDbViewport
 10
139.1873408819381
 20
59.25076659238924
 30
0.0
 40
273.3741003811101
 41
138.5
 68
     3
 69
     3
 12
3621.176188234558
 22
1328.813821370258
 13
0.0
 23
0.0
 14
10.0
 24
10.0
 15
10.0
 25
10.0
 16
0.0
 26
0.0
 36
1.0
 17
0.0
 27
0.0
 37
0.0
 42
50.0
 43
0.0
 44
0.0
 45
138.4999996352429
 50
0.0
 51
0.0
 72
   100
 90
   819232
  1

281
     0
 71
     1
 74
     0
110
0.0
120
0.0
130
0.0
111
1.0
121
0.0
131
0.0
112
0.0
122
1.0
132
0.0
 79
     0
146
0.0
  0
ENDSEC
  0
SECTION
  2
OBJECTS
  0
DICTIONARY
  5
D
330
0
100
AcDbDictionary
281
     1
  3
ACAD_CIP_PREVIOUS_PRODUCT_INFO
350
141
  3
ACAD_DETAILVIEWSTYLE
350
13A
  3
ACAD_GROUP
350
E
  3
ACAD_IMAGE_VARS
350
2EB6
  3
ACAD_LAYOUT
350
5D
  3
ACAD_MLINESTYLE
350
F
  3
ACAD_PLOTSETTINGS
350
5E
  3
ACAD_PLOTSTYLENAME
350
5B
  3
ACAD_SCALELIST
350
124
  3
ACAD_SECTIONVIEWSTYLE
350
138
  3
AcDbVariableDictionary
350
99
  3
AcDsDecomposeData
350
303E
  3
AEC_PROPERTY_SET_DEFS
350
651
  3
APPDATA
350
2EB4
  3
CONTENTDICTIONARY
350
51
  3
DWGPROPS
350
3039
  0
DICTIONARY
  5
147
330
3
100
AcDbDictionary
280
     1
281
     1
  3
ACAD_LAYERSTATES
360
148
  0
DICTIONARY
  5
A65
330
10
100
AcDbDictionary
280
     1
281
     1
  3
ADSK_XREC_LAYER_RECONCILED
360
A66
  0
DICTIONARY
  5
A67
330
24
100
AcDbDictionary
280
     1
281
     1
  3
ADSK_XREC_LAYER_RECONCILED
360
A68
  0
DICTIONARY
  5
A69
330
25
100
AcDbDictionary
280
     1
281
     1
  3
ADSK_XREC_LAYER_RECONCILED
360
A6A
  0
DICTIONARY
  5
A6B
330
26
100
AcDbDictionary
280
     1
281
     1
  3
ADSK_XREC_LAYER_RECONCILED
360
A6C
  0
DICTIONARY
  5
A6D
330
27
100
AcDbDictionary
280
     1
281
     1
  3
ADSK_XREC_LAYER_RECONCILED
360
A6E
  0
DICTIONARY
  5
A6F
330
28
100
AcDbDictionary
280
     1
281
     1
  3
ADSK_XREC_LAYER_RECONCILED
360
A70
  0
DICTIONARY
  5
A71
330
29
100
AcDbDictionary
280
     1
281
     1
  3
ADSK_XREC_LAYER_RECONCILED
360
A72
  0
DICTIONARY
  5
A73
330
2A
100
AcDbDictionary
280
     1
281
     1
  3
ADSK_XREC_LAYER_RECONCILED
360
A74
  0
DICTIONARY
  5
A75
330
2B
100
AcDbDictionary
280
     1
281
     1
  3
ADSK_XREC_LAYER_RECONCILED
360
A76
  0
DICTIONARY
  5
A77
330
2C
100
AcDbDictionary
280
     1
281
     1
  3
ADSK_XREC_LAYER_RECONCILED
360
A78
  0
DICTIONARY
  5
A79
330
2D
100
AcDbDictionary
280
     1
281
     1
  3
ADSK_XREC_LAYER_RECONCILED
360
A7A
  0
DICTIONARY
  5
A7B
330
2E
100
AcDbDictionary
280
     1
281
     1
  3
ADSK_XREC_LAYER_RECONCILED
360
A7C
  0
DICTIONARY
  5
A7D
330
2F
100
AcDbDictionary
280
     1
281
     1
  3
ADSK_XREC_LAYER_RECONCILED
360
A7E
  0
DICTIONARY
  5
A7F
330
30
100
AcDbDictionary
280
     1
281
     1
  3
ADSK_XREC_LAYER_RECONCILED
360
A80
  0
DICTIONARY
  5
A81
330
31
100
AcDbDictionary
280
     1
281
     1
  3
ADSK_XREC_LAYER_RECONCILED
360
A82
  0
DICTIONARY
  5
A83
330
32
100
AcDbDictionary
280
     1
281
     1
  3
ADSK_XREC_LAYER_RECONCILED
360
A84
  0
DICTIONARY
  5
A85
330
34
100
AcDbDictionary
280
     1
281
     1
  3
ADSK_XREC_LAYER_RECONCILED
360
A86
  0
DICTIONARY
  5
A87
330
35
100
AcDbDictionary
280
     1
281
     1
  3
ADSK_XREC_LAYER_RECONCILED
360
A88
  0
DICTIONARY
  5
A89
330
345
100
AcDbDictionary
280
     1
281
     1
  3
ADSK_XREC_LAYER_RECONCILED
360
A8A
  0
DICTIONARY
  5
D4D
330
19
100
AcDbDictionary
280
     1
281
     1
  3
ACAD_SORTENTS
360
D4E
  0
DICTIONARY
  5
189
330
188
100
AcDbDictionary
280
     1
281
     1
  3
ACAD_SORTENTS
360
18A
  0
DICTIONARY
  5
1A3
330
1A2
100
AcDbDictionary
280
     1
281
     1
  3
ACAD_SORTENTS
360
1A4
  0
DICTIONARY
  5
273B
330
B69
100
AcDbDictionary
280
     1
281
     1
  3
AcDbBlockTableRecordData
360
2EA1
  0
DICTIONARY
  5
1CB4
330
1CB3
100
AcDbDictionary
280
     1
281
     1
  3
ASDK_XREC_ANNOTATION_SCALE_INFO
360
1CB5
  0
DICTIONARY
  5
1CF6
330
1CF5
100
AcDbDictionary
280
     1
281
     1
  3
ASDK_XREC_ANNOTATION_SCALE_INFO
360
1CF7
  0
XRECORD
  5
141
102
{ACAD_REACTORS
330
D
102
}
330
D
100
AcDbXrecord
280
     1
300
ACD
300
2013
300
ACD_F_S
  0
DICTIONARY
  5
13A
102
{ACAD_REACTORS
330
D
102
}
330
D
100
AcDbDictionary
281
     1
  3
Metric50
350
13B
  0
DICTIONARY
  5
E
102
{ACAD_REACTORS
330
D
102
}
330
D
100
AcDbDictionary
281
     1
  0
RASTERVARIABLES
  5
2EB6
102
{ACAD_REACTORS
330
D
102
}
330
D
100
AcDbRasterVariables
 90
        0
 70
     1
 71
     1
 72
     0
  0
DICTIONARY
  5
5D
102
{ACAD_REACTORS
330
D
102
}
330
D
100
AcDbDictionary
281
     1
  3
Layout1
350
60
  3
Model
350
5F
  0
DICTIONARY
  5
F
102
{ACAD_REACTORS
330
D
102
}
330
D
100
AcDbDictionary
281
     1
  3
STANDARD
350
1C
  0
DICTIONARY
  5
5E
102
{ACAD_REACTORS
330
D
102
}
330
D
100
AcDbDictionary
281
     1
  0
ACDBDICTIONARYWDFLT
  5
5B
102
{ACAD_REACTORS
330
D
102
}
330
D
100
AcDbDictionary
281
     1
  3
Normal
350
5C
100
AcDbDictionaryWithDefault
340
5C
  0
DICTIONARY
  5
124
102
{ACAD_REACTORS
330
D
102
}
330
D
100
AcDbDictionary
281
     1
  3
A0
350
125
  3
A1
350
126
  3
A2
350
127
  3
A3
350
128
  3
A4
350
129
  3
A5
350
12A
  3
A6
350
12B
  3
A7
350
12C
  3
A8
350
12D
  3
A9
350
12E
  3
B0
350
12F
  3
B1
350
130
  3
B2
350
131
  3
B3
350
132
  3
B4
350
133
  3
B5
350
134
  3
B6
350
135
  0
DICTIONARY
  5
138
102
{ACAD_REACTORS
330
D
102
}
330
D
100
AcDbDictionary
281
     1
  3
Metric50
350
139
  0
DICTIONARY
  5
99
102
{ACAD_REACTORS
330
D
102
}
330
D
100
AcDbDictionary
281
     1
  3
DIMASSOC
350
2753
  3
INDEXCTL
350
2751
  3
SORTENTS
350
2750
  0
DICTIONARY
  5
303E
102
{ACAD_REACTORS
330
D
102
}
330
D
100
AcDbDictionary
281
     1
  3
AcDsRecords
350
303F
  3
AcDsSchemas
350
3040
1001
ACAD
1070
     2
  0
DICTIONARY
  5
651
102
{ACAD_REACTORS
330
D
102
}
330
D
100
AcDbDictionary
281
     1
  0
DICTIONARY
  5
2EB4
102
{ACAD_REACTORS
330
D
102
}
330
D
100
AcDbDictionary
281
     1
  0
DICTIONARY
  5
51
102
{ACAD_REACTORS
330
D
102
}
330
D
100
AcDbDictionary
281
     1
  0
XRECORD
  5
3039
102
{ACAD_REACTORS
330
D
102
}
330
D
100
AcDbXrecord
280
     1
  1
DWGPROPS COOKIE
  2

  3

  4

  6

  7

  8
Paolo
  9

300
=
301
=
302
=
303
=
304
=
305
=
306
=
307
=
308
=
309
=
 40
0.0
 41
2457847.408807442
 42
2458148.669399942
  1

 90
        0
  0
DICTIONARY
  5
148
102
{ACAD_REACTORS
330
147
102
}
330
147
100
AcDbDictionary
281
     1
  0
XRECORD
  5
A66
102
{ACAD_REACTORS
330
A65
102
}
330
A65
100
AcDbXrecord
280
     1
290
     1
  0
XRECORD
  5
A68
102
{ACAD_REACTORS
330
A67
102
}
330
A67
100
AcDbXrecord
280
     1
290
     1
  0
XRECORD
  5
A6A
102
{ACAD_REACTORS
330
A69
102
}
330
A69
100
AcDbXrecord
280
     1
290
     1
  0
XRECORD
  5
A6C
102
{ACAD_REACTORS
330
A6B
102
}
330
A6B
100
AcDbXrecord
280
     1
290
     1
  0
XRECORD
  5
A6E
102
{ACAD_REACTORS
330
A6D
102
}
330
A6D
100
AcDbXrecord
280
     1
290
     1
  0
XRECORD
  5
A70
102
{ACAD_REACTORS
330
A6F
102
}
330
A6F
100
AcDbXrecord
280
     1
290
     1
  0
XRECORD
  5
A72
102
{ACAD_REACTORS
330
A71
102
}
330
A71
100
AcDbXrecord
280
     1
290
     1
  0
XRECORD
  5
A74
102
{ACAD_REACTORS
330
A73
102
}
330
A73
100
AcDbXrecord
280
     1
290
     1
  0
XRECORD
  5
A76
102
{ACAD_REACTORS
330
A75
102
}
330
A75
100
AcDbXrecord
280
     1
290
     1
  0
XRECORD
  5
A78
102
{ACAD_REACTORS
330
A77
102
}
330
A77
100
AcDbXrecord
280
     1
290
     1
  0
XRECORD
  5
A7A
102
{ACAD_REACTORS
330
A79
102
}
330
A79
100
AcDbXrecord
280
     1
290
     1
  0
XRECORD
  5
A7C
102
{ACAD_REACTORS
330
A7B
102
}
330
A7B
100
AcDbXrecord
280
     1
290
     1
  0
XRECORD
  5
A7E
102
{ACAD_REACTORS
330
A7D
102
}
330
A7D
100
AcDbXrecord
280
     1
290
     1
  0
XRECORD
  5
A80
102
{ACAD_REACTORS
330
A7F
102
}
330
A7F
100
AcDbXrecord
280
     1
290
     1
  0
XRECORD
  5
A82
102
{ACAD_REACTORS
330
A81
102
}
330
A81
100
AcDbXrecord
280
     1
290
     1
  0
XRECORD
  5
A84
102
{ACAD_REACTORS
330
A83
102
}
330
A83
100
AcDbXrecord
280
     1
290
     1
  0
XRECORD
  5
A86
102
{ACAD_REACTORS
330
A85
102
}
330
A85
100
AcDbXrecord
280
     1
290
     1
  0
XRECORD
  5
A88
102
{ACAD_REACTORS
330
A87
102
}
330
A87
100
AcDbXrecord
280
     1
290
     1
  0
XRECORD
  5
A8A
102
{ACAD_REACTORS
330
A89
102
}
330
A89
100
AcDbXrecord
280
     1
290
     1
  0
SORTENTSTABLE
  5
D4E
102
{ACAD_REACTORS
330
D4D
102
}
330
D4D
100
AcDbSortentsTable
330
19
331
0
  5
2E37
331
2A06
  5
2A06
331
2A07
  5
2A07
331
2A08
  5
2A08
331
2A09
  5
2A09
331
2A0A
  5
2A0A
331
2A0B
  5
2A0B
331
2A0C
  5
2A0C
331
2A0D
  5
2A0D
331
2A0E
  5
2A0E
331
2A0F
  5
2A0F
331
2A10
  5
2A10
331
2A11
  5
2A11
331
2A12
  5
2A12
331
2A13
  5
2A13
331
2A14
  5
2A14
331
2A15
  5
2A15
331
2A16
  5
2A16
331
2A17
  5
2A17
331
2A18
  5
2A18
331
2A19
  5
2A19
331
2A1A
  5
2A1A
331
2A1B
  5
2A1B
331
2A1C
  5
2A1C
331
2A1D
  5
2A1D
331
2A1E
  5
2A1E
331
2A1F
  5
2A1F
331
2A20
  5
2A20
331
2A21
  5
2A21
331
2A22
  5
2A22
331
2A23
  5
2A23
331
2A24
  5
2A24
331
2A25
  5
2A25
331
2A26
  5
2A26
331
2A27
  5
2A27
331
2A28
  5
2A28
331
2A29
  5
2A29
331
2A2A
  5
2A2A
331
2A2B
  5
2A2B
331
2A2C
  5
2A2C
331
2A2D
  5
2A2D
331
2A2E
  5
2A2E
331
2A2F
  5
2A2F
331
2A30
  5
2A30
331
2A31
  5
2A31
331
2A32
  5
2A32
331
2A33
  5
2A33
331
2A34
  5
2A34
331
2A35
  5
2A35
331
2A36
  5
2A36
331
2A37
  5
2A37
331
2A38
  5
2A38
331
2A39
  5
2A39
331
2A3A
  5
2A3A
331
2A3B
  5
2A3B
331
2A3C
  5
2A3C
331
2A3D
  5
2A3D
331
2A3E
  5
2A3E
331
2A3F
  5
2A3F
331
2A40
  5
2A40
331
2A41
  5
2A41
331
2A42
  5
2A42
331
2A43
  5
2A43
331
2A44
  5
2A44
331
2A45
  5
2A45
331
2A46
  5
2A46
331
2A47
  5
2A47
331
2A48
  5
2A48
331
2A49
  5
2A49
331
2A4A
  5
2A4A
331
2A4B
  5
2A4B
331
2A4C
  5
2A4C
331
2A4D
  5
2A4D
331
2A4E
  5
2A4E
331
2A4F
  5
2A4F
331
2A50
  5
2A50
331
2A51
  5
2A51
331
2A52
  5
2A52
331
2A53
  5
2A53
331
2A54
  5
2A54
331
2A55
  5
2A55
331
2A56
  5
2A56
331
2A57
  5
2A57
331
2A58
  5
2A58
331
2A59
  5
2A59
331
2A5A
  5
2A5A
331
2A5B
  5
2A5B
331
2A5C
  5
2A5C
331
2A5D
  5
2A5D
331
2A5E
  5
2A5E
331
2A5F
  5
2A5F
331
2A60
  5
2A60
331
2A61
  5
2A61
331
2A62
  5
2A62
331
2A63
  5
2A63
331
2A64
  5
2A64
331
2A65
  5
2A65
331
2A66
  5
2A66
331
2A67
  5
2A67
331
2A68
  5
2A68
331
2A69
  5
2A69
331
2A6A
  5
2A6A
331
2A6B
  5
2A6B
331
2A6C
  5
2A6C
331
2A6D
  5
2A6D
331
2A6E
  5
2A6E
331
2A6F
  5
2A6F
331
2A70
  5
2A70
331
2A71
  5
2A71
331
2A72
  5
2A72
331
2A73
  5
2A73
331
2A74
  5
2A74
331
2A75
  5
2A75
331
2A76
  5
2A76
331
2A77
  5
2A77
331
2A78
  5
2A78
331
2A79
  5
2A79
331
2A7A
  5
2A7A
331
2A7B
  5
2A7B
331
2A7C
  5
2A7C
331
2A7D
  5
2A7D
331
2A7E
  5
2A7E
331
2A7F
  5
2A7F
331
2A80
  5
2A80
331
2A81
  5
2A81
331
2A82
  5
2A82
331
2A83
  5
2A83
331
2A84
  5
2A84
331
2A85
  5
2A85
331
2A86
  5
2A86
331
2A87
  5
2A87
331
2A88
  5
2A88
331
2A89
  5
2A89
331
2A8A
  5
2A8A
331
2A8B
  5
2A8B
331
2A8C
  5
2A8C
331
2A8D
  5
2A8D
331
2A8E
  5
2A8E
331
2A8F
  5
2A8F
331
2A90
  5
2A90
331
2A91
  5
2A91
331
2A92
  5
2A92
331
2A93
  5
2A93
331
2A94
  5
2A94
331
2A95
  5
2A95
331
2A96
  5
2A96
331
2A97
  5
2A97
331
2A98
  5
2A98
331
2A99
  5
2A99
331
2A9A
  5
2A9A
331
2A9B
  5
2A9B
331
2A9C
  5
2A9C
331
2A9D
  5
2A9D
331
2A9E
  5
2A9E
331
2A9F
  5
2A9F
331
2AA0
  5
2AA0
331
2AA1
  5
2AA1
331
2AA2
  5
2AA2
331
2AA3
  5
2AA3
331
2AA4
  5
2AA4
331
2AA5
  5
2AA5
331
2AA6
  5
2AA6
331
2AA7
  5
2AA7
331
2AA8
  5
2AA8
331
2AA9
  5
2AA9
331
2AAA
  5
2AAA
331
2AAB
  5
2AAB
331
2AAC
  5
2AAC
331
2AAD
  5
2AAD
331
2AAE
  5
2AAE
331
2AAF
  5
2AAF
331
2AB0
  5
2AB0
331
2AB1
  5
2AB1
331
2AB2
  5
2AB2
331
2AB3
  5
2AB3
331
2AB4
  5
2AB4
331
2AB5
  5
2AB5
331
2AB6
  5
2AB6
331
2AB7
  5
2AB7
331
2AB8
  5
2AB8
331
2AB9
  5
2AB9
331
2ABA
  5
2ABA
331
2ABB
  5
2ABB
331
2ABC
  5
2ABC
331
2ABD
  5
2ABD
331
2ABE
  5
2ABE
331
2ABF
  5
2ABF
331
2AC0
  5
2AC0
331
2AC1
  5
2AC1
331
2AC2
  5
2AC2
331
2AC3
  5
2AC3
331
2AC4
  5
2AC4
331
2AC5
  5
2AC5
331
2AC6
  5
2AC6
331
2AC7
  5
2AC7
331
2AC8
  5
2AC8
331
2AC9
  5
2AC9
331
2ACA
  5
2ACA
331
2ACB
  5
2ACB
331
2ACC
  5
2ACC
331
2ACD
  5
2ACD
331
2ACE
  5
2ACE
331
2ACF
  5
2ACF
331
2AD0
  5
2AD0
331
2AD1
  5
2AD1
331
2AD2
  5
2AD2
331
2AD3
  5
2AD3
331
2AD4
  5
2AD4
331
2AD5
  5
2AD5
331
2AD6
  5
2AD6
331
2AD7
  5
2AD7
331
2AD8
  5
2AD8
331
2AD9
  5
2AD9
331
2ADA
  5
2ADA
331
2ADB
  5
2ADB
331
2ADC
  5
2ADC
331
2ADD
  5
2ADD
331
2ADE
  5
2ADE
331
2ADF
  5
2ADF
331
2AE0
  5
2AE0
331
2AE1
  5
2AE1
331
2AE2
  5
2AE2
331
2AE3
  5
2AE3
331
2AE4
  5
2AE4
331
2AE5
  5
2AE5
331
2AE6
  5
2AE6
331
2AE7
  5
2AE7
331
2AE8
  5
2AE8
331
2AE9
  5
2AE9
331
2AEA
  5
2AEA
331
2AEB
  5
2AEB
331
2AEC
  5
2AEC
331
2AED
  5
2AED
331
2AEE
  5
2AEE
331
2AEF
  5
2AEF
331
2AF0
  5
2AF0
331
2AF1
  5
2AF1
331
2AF2
  5
2AF2
331
2AF3
  5
2AF3
331
2AF4
  5
2AF4
331
2AF5
  5
2AF5
331
2AF6
  5
2AF6
331
2AF7
  5
2AF7
331
2AF8
  5
2AF8
331
2AF9
  5
2AF9
331
2AFA
  5
2AFA
331
2AFB
  5
2AFB
331
2AFC
  5
2AFC
331
2AFD
  5
2AFD
331
2AFE
  5
2AFE
331
2AFF
  5
2AFF
331
2B00
  5
2B00
331
2B01
  5
2B01
331
2B02
  5
2B02
331
2B03
  5
2B03
331
2B04
  5
2B04
331
2B05
  5
2B05
331
2B06
  5
2B06
331
2B07
  5
2B07
331
2B08
  5
2B08
331
2B09
  5
2B09
331
2B0A
  5
2B0A
331
2B0B
  5
2B0B
331
2B0C
  5
2B0C
331
2B0D
  5
2B0D
331
2B0E
  5
2B0E
331
2B0F
  5
2B0F
331
2B10
  5
2B10
331
2B11
  5
2B11
331
2B12
  5
2B12
331
2B13
  5
2B13
331
2B14
  5
2B14
331
2B15
  5
2B15
331
2B16
  5
2B16
331
2B17
  5
2B17
331
2B18
  5
2B18
331
2B19
  5
2B19
331
2B1A
  5
2B1A
331
2B1B
  5
2B1B
331
2B1C
  5
2B1C
331
2B1D
  5
2B1D
331
2B1E
  5
2B1E
331
2B1F
  5
2B1F
331
2B20
  5
2B20
331
2B21
  5
2B21
331
2B22
  5
2B22
331
2B23
  5
2B23
331
2B24
  5
2B24
331
2B25
  5
2B25
331
2B26
  5
2B26
331
2B27
  5
2B27
331
2B28
  5
2B28
331
2B29
  5
2B29
331
2B2A
  5
2B2A
331
2B2B
  5
2B2B
331
2B2C
  5
2B2C
331
2B2D
  5
2B2D
331
2B2E
  5
2B2E
331
2B2F
  5
2B2F
331
2B30
  5
2B30
331
2B31
  5
2B31
331
2B32
  5
2B32
331
2B33
  5
2B33
331
2B34
  5
2B34
331
2B35
  5
2B35
331
2B36
  5
2B36
331
2B37
  5
2B37
331
2B38
  5
2B38
331
2B39
  5
2B39
331
2B3A
  5
2B3A
331
2B3B
  5
2B3B
331
2B3C
  5
2B3C
331
2B3D
  5
2B3D
331
2B3E
  5
2B3E
331
2B3F
  5
2B3F
331
2B40
  5
2B40
331
2B41
  5
2B41
331
2B42
  5
2B42
331
2B43
  5
2B43
331
2B44
  5
2B44
331
2B45
  5
2B45
331
2B46
  5
2B46
331
2B47
  5
2B47
331
2B48
  5
2B48
331
2B49
  5
2B49
331
2B4A
  5
2B4A
331
2B4B
  5
2B4B
331
2B4C
  5
2B4C
331
2B4D
  5
2B4D
331
2B4E
  5
2B4E
331
2B4F
  5
2B4F
331
2B50
  5
2B50
331
2B51
  5
2B51
331
2B52
  5
2B52
331
2B53
  5
2B53
331
2B54
  5
2B54
331
2B55
  5
2B55
331
2B56
  5
2B56
331
2B57
  5
2B57
331
2B58
  5
2B58
331
2B59
  5
2B59
331
2B5A
  5
2B5A
331
2B5B
  5
2B5B
331
2B5C
  5
2B5C
331
2B5D
  5
2B5D
331
2B5E
  5
2B5E
331
2B5F
  5
2B5F
331
2B60
  5
2B60
331
2B61
  5
2B61
331
2B62
  5
2B62
331
2B63
  5
2B63
331
2B64
  5
2B64
331
2B65
  5
2B65
331
2B66
  5
2B66
331
2B67
  5
2B67
331
2B6B
  5
2B6B
331
2B6F
  5
2B6F
331
2B73
  5
2B73
331
2B76
  5
2B76
331
2B79
  5
2B79
331
2B7C
  5
2B7C
331
2B7E
  5
2B7E
331
2B82
  5
2B82
331
2B85
  5
2B85
331
2B87
  5
2B87
331
2B88
  5
2B88
331
2B89
  5
2B89
331
2B8A
  5
2B8A
331
2B8C
  5
2B8C
331
2B8D
  5
2B8D
331
2B8F
  5
2B8F
331
2B90
  5
2B90
331
2B91
  5
2B91
331
2B92
  5
2B92
331
2B93
  5
2B93
331
2B94
  5
2B94
331
2B95
  5
2B95
331
2B96
  5
2B96
331
2B97
  5
2B97
331
2B98
  5
2B98
331
2B99
  5
2B99
331
2B9A
  5
2B9A
331
2B9B
  5
2B9B
331
2B9C
  5
2B9C
331
2B9D
  5
2B9D
331
2B9E
  5
2B9E
331
2B9F
  5
2B9F
331
2BA0
  5
2BA0
331
2BA1
  5
2BA1
331
2BA2
  5
2BA2
331
2BA3
  5
2BA3
331
2BA4
  5
2BA4
331
2BA5
  5
2BA5
331
2BA6
  5
2BA6
331
2BA7
  5
2BA7
331
2BA8
  5
2BA8
331
2BA9
  5
2BA9
331
2BAA
  5
2BAA
331
2BAB
  5
2BAB
331
2BAC
  5
2BAC
331
2BAD
  5
2BAD
331
2BAE
  5
2BAE
331
2BAF
  5
2BAF
331
2BB0
  5
2BB0
331
2BB1
  5
2BB1
331
2BB3
  5
2BB3
331
2BB4
  5
2BB4
331
2BB6
  5
2BB6
331
2BB7
  5
2BB7
331
2BBA
  5
2BBA
331
2BBC
  5
2BBC
331
2BBD
  5
2BBD
331
2BC2
  5
2BC2
331
2BC4
  5
2BC4
331
2BC5
  5
2BC5
331
2BC6
  5
2BC6
331
2BC7
  5
2BC7
  0
SORTENTSTABLE
  5
18A
102
{ACAD_REACTORS
330
189
102
}
330
189
100
AcDbSortentsTable
330
188
331
18C
  5
134
331
18D
  5
135
331
18E
  5
136
331
18F
  5
137
331
190
  5
138
331
191
  5
139
331
192
  5
13A
331
193
  5
13B
331
194
  5
13C
331
195
  5
13D
331
196
  5
13E
331
197
  5
13F
331
198
  5
140
331
199
  5
141
331
19A
  5
142
331
19B
  5
143
331
19C
  5
144
331
19D
  5
145
331
19E
  5
12E
331
19F
  5
132
331
1A0
  5
133
  0
SORTENTSTABLE
  5
1A4
102
{ACAD_REACTORS
330
1A3
102
}
330
1A3
100
AcDbSortentsTable
330
1A2
331
1AA
  5
115
331
1AB
  5
116
331
1AC
  5
114
  0
DICTIONARY
  5
2EA1
102
{ACAD_REACTORS
330
273B
102
}
330
273B
100
AcDbDictionary
280
     1
281
     1
  0
XRECORD
  5
1CB5
102
{ACAD_REACTORS
330
1CB4
102
}
330
1CB4
100
AcDbXrecord
280
     1
 90
        1
340
125
  0
XRECORD
  5
1CF7
102
{ACAD_REACTORS
330
1CF6
102
}
330
1CF6
100
AcDbXrecord
280
     1
 90
        1
340
125
  0
ACDBDETAILVIEWSTYLE
  5
13B
102
{ACAD_REACTORS
330
13A
102
}
102
{ACAD_XDICTIONARY
360
167
102
}
330
13A
100
AcDbModelDocViewStyle
 70
     0
  3
Metric50
290
     0
100
AcDbDetailViewStyle
 70
     0
 71
     0
 90
        3
 71
     1
340
11
 40
5.0
340
0
 40
5.0
300

 40
0.0
280
     1
 71
     2
340
15
 90
       25
 71
     3
340
11
 40
5.0
 90
        0
 40
15.0
 90
        1
300
%<\AcVar ViewDetailId>% (%<\AcVar ViewScale \f "%sn">%)
 71
     4
340
15
 90
       25
340
15
 90
       25
280
     0
  0
LAYOUT
  5
60
102
{ACAD_REACTORS
330
5D
102
}
102
{ACAD_XDICTIONARY
360
303A
102
}
330
5D
100
AcDbPlotSettings
  1

  2
DWG To PDF.pc3
  4
ISO_full_bleed_A3_(420.00_x_297.00_MM)
  6

 40
0.793749988079071
 41
0.793749988079071
 42
0.79376220703125
 43
0.79376220703125
 44
420.0
 45
297.0
 46
-0.8065734803825535
 47
-0.8028198182688016
 48
0.0
 49
0.0
140
0.0
141
0.0
142
1.0
143
1.0
 70
   692
 72
     1
 73
     0
 74
     1
  7
Logli_LM_Istruzioni.ctb
 75
    16
147
1.0
148
7.510985358980179
149
20.01722650464762
100
AcDbLayout
  1
Layout1
 70
     1
 71
     1
 10
-7.498161866676696
 20
-20.00815667445789
 11
412.5018381333233
 21
276.9918433255421
 12
0.0
 22
0.0
 32
0.0
 14
-7.499709308616957
 24
-19.99923340761075
 34
0.0
 15
412.5022906913832
 25
277.0007665923893
 35
0.0
146
0.0
 13
0.0
 23
0.0
 33
0.0
 16
1.0
 26
0.0
 36
0.0
 17
0.0
 27
1.0
 37
0.0
 76
     0
330
16
331
1
1001
ACAD_PSEXT
1000
DWG To PDF.pc3
1000
DWG To PDF
1000
File
1000

1070
     0
  0
LAYOUT
  5
5F
102
{ACAD_REACTORS
330
5D
102
}
102
{ACAD_XDICTIONARY
360
303C
102
}
330
5D
100
AcDbPlotSettings
  1

  2
none_device
  4
Letter_(8.50_x_11.00_Inches)
  6

 40
6.349999904632568
 41
6.349999904632568
 42
6.350006103515625
 43
6.350006103515625
 44
215.8999938964844
 45
279.3999938964844
 46
0.0
 47
0.0
 48
0.0
 49
0.0
140
0.0
141
0.0
142
1.0
143
302.9560372591149
 70
 11952
 72
     0
 73
     1
 74
     0
  7

 75
     0
147
0.0033008089525039
148
6254.869811320755
149
4434.018646734856
100
AcDbLayout
  1
Model
 70
     1
 71
     0
 10
0.0
 20
0.0
 11
12.0
 21
9.0
 12
0.0
 22
0.0
 32
0.0
 14
3386.810114181059
 24
556.7033695669696
 34
0.0
 15
3806.81211418106
 25
854.7739964613324
 35
0.0
146
0.0
 13
0.0
 23
0.0
 33
0.0
 16
1.0
 26
0.0
 36
0.0
 17
0.0
 27
1.0
 37
0.0
 76
     0
330
19
331
F1
  0
MLINESTYLE
  5
1C
102
{ACAD_REACTORS
330
F
102
}
330
F
100
AcDbMlineStyle
  2
STANDARD
 70
     0
  3

 62
     0
 51
90.0
 52
90.0
 71
     2
 49
0.5
 62
   256
  6
BYLAYER
 49
-0.5
 62
   256
  6
BYLAYER
  0
ACDBPLACEHOLDER
  5
5C
102
{ACAD_REACTORS
330
5B
102
}
330
5B
  0
SCALE
  5
125
102
{ACAD_REACTORS
330
124
102
}
330
124
100
AcDbScale
 70
     0
300
1:1
140
1.0
141
1.0
290
     1
  0
SCALE
  5
126
102
{ACAD_REACTORS
330
124
102
}
330
124
100
AcDbScale
 70
     0
300
1:2
140
1.0
141
2.0
290
     0
  0
SCALE
  5
127
102
{ACAD_REACTORS
330
124
102
}
330
124
100
AcDbScale
 70
     0
300
1:4
140
1.0
141
4.0
290
     0
  0
SCALE
  5
128
102
{ACAD_REACTORS
330
124
102
}
330
124
100
AcDbScale
 70
     0
300
1:5
140
1.0
141
5.0
290
     0
  0
SCALE
  5
129
102
{ACAD_REACTORS
330
124
102
}
330
124
100
AcDbScale
 70
     0
300
1:8
140
1.0
141
8.0
290
     0
  0
SCALE
  5
12A
102
{ACAD_REACTORS
330
124
102
}
330
124
100
AcDbScale
 70
     0
300
1:10
140
1.0
141
10.0
290
     0
  0
SCALE
  5
12B
102
{ACAD_REACTORS
330
124
102
}
330
124
100
AcDbScale
 70
     0
300
1:16
140
1.0
141
16.0
290
     0
  0
SCALE
  5
12C
102
{ACAD_REACTORS
330
124
102
}
330
124
100
AcDbScale
 70
     0
300
1:20
140
1.0
141
20.0
290
     0
  0
SCALE
  5
12D
102
{ACAD_REACTORS
330
124
102
}
330
124
100
AcDbScale
 70
     0
300
1:30
140
1.0
141
30.0
290
     0
  0
SCALE
  5
12E
102
{ACAD_REACTORS
330
124
102
}
330
124
100
AcDbScale
 70
     0
300
1:40
140
1.0
141
40.0
290
     0
  0
SCALE
  5
12F
102
{ACAD_REACTORS
330
124
102
}
330
124
100
AcDbScale
 70
     0
300
1:50
140
1.0
141
50.0
290
     0
  0
SCALE
  5
130
102
{ACAD_REACTORS
330
124
102
}
330
124
100
AcDbScale
 70
     0
300
1:100
140
1.0
141
100.0
290
     0
  0
SCALE
  5
131
102
{ACAD_REACTORS
330
124
102
}
330
124
100
AcDbScale
 70
     0
300
2:1
140
2.0
141
1.0
290
     0
  0
SCALE
  5
132
102
{ACAD_REACTORS
330
124
102
}
330
124
100
AcDbScale
 70
     0
300
4:1
140
4.0
141
1.0
290
     0
  0
SCALE
  5
133
102
{ACAD_REACTORS
330
124
102
}
330
124
100
AcDbScale
 70
     0
300
8:1
140
8.0
141
1.0
290
     0
  0
SCALE
  5
134
102
{ACAD_REACTORS
330
124
102
}
330
124
100
AcDbScale
 70
     0
300
10:1
140
10.0
141
1.0
290
     0
  0
SCALE
  5
135
102
{ACAD_REACTORS
330
124
102
}
330
124
100
AcDbScale
 70
     0
300
100:1
140
100.0
141
1.0
290
     0
  0
ACDBSECTIONVIEWSTYLE
  5
139
102
{ACAD_REACTORS
330
138
102
}
102
{ACAD_XDICTIONARY
360
165
102
}
330
138
100
AcDbModelDocViewStyle
 70
     0
  3
Metric50
290
     0
100
AcDbSectionViewStyle
 70
     0
 71
     0
 90
      102
 71
     1
340
11
 40
5.0
340
0
340
0
 40
5.0
300
I, O, Q, S, X, Z
 40
10.0
 90
        0
 40
2.5
 90
        0
 71
     2
340
15
 90
       25
340
15
 90
       50
 40
5.0
 40
2.5
 40
5.0
 71
     3
340
11
 40
5.0
 90
        0
 40
15.0
 90
        1
300
%<\AcVar ViewSectionStartId>%-%<\AcVar ViewSectionEndId>% (%<\AcVar ViewScale \f "%sn">%)
 71
     4
300
ANSI31
 40
1.0
 90
        0
290
     0
290
     0
 90
        6
 40
0.0
 40
1.570796326794897
 40
0.2617993877991494
 40
1.308996938995747
 40
-0.2617993877991494
 40
1.832595714594046
  0
DICTIONARYVAR
  5
2753
102
{ACAD_REACTORS
330
99
102
}
330
99
100
DictionaryVariables
280
     0
  1
1
  0
DICTIONARYVAR
  5
2751
102
{ACAD_REACTORS
330
99
102
}
330
99
100
DictionaryVariables
280
     0
  1
0
  0
DICTIONARYVAR
  5
2750
102
{ACAD_REACTORS
330
99
102
}
330
99
100
DictionaryVariables
280
     0
  1
127
  0
DICTIONARY
  5
303F
102
{ACAD_REACTORS
330
303E
102
}
330
303E
100
AcDbDictionary
281
     1
  0
DICTIONARY
  5
3040
102
{ACAD_REACTORS
330
303E
102
}
330
303E
100
AcDbDictionary
281
     1
  3
8796083537400
350
3041
  3
8796083537416
350
3042
  3
8796083537432
350
3043
  3
8796083537448
350
3044
  3
8796083537464
350
3045
  3
8796083537480
350
3046
  0
DICTIONARY
  5
167
330
13B
100
AcDbDictionary
280
     1
281
     1
  3
ACAD_XREC_ROUNDTRIP
360
3037
  0
DICTIONARY
  5
303A
330
60
100
AcDbDictionary
280
     1
281
     1
  3
ADSK_XREC_LAYOUTTHUMBNAIL
360
303B
  0
DICTIONARY
  5
303C
330
5F
100
AcDbDictionary
280
     1
281
     1
  3
ADSK_XREC_LAYOUTTHUMBNAIL
360
303D
  0
DICTIONARY
  5
165
330
139
100
AcDbDictionary
280
     1
281
     1
  3
ACAD_XREC_ROUNDTRIP
360
3038
  0
XRECORD
  5
3041
102
{ACAD_REACTORS
330
3040
102
}
330
3040
100
AcDbXrecord
280
     1
  1
AcDb_Thumbnail_Schema
102
{ATTRRECORD
341
3043
  2
AcDbDs::TreatedAsObjectData
280
     1
291
     1
102
ATTRRECORD}
102
{ATTRRECORD
341
3044
  2
AcDbDs::Legacy
280
     1
291
     1
102
ATTRRECORD}
  2
AcDbDs::ID
280
    10
 91
        8
102
{ATTRRECORD
341
3045
  2
AcDs:Indexable
280
     1
291
     1
102
ATTRRECORD}
102
{ATTRRECORD
341
3046
  2
AcDbDs::HandleAttribute
280
     7
282
     1
102
ATTRRECORD}
  2
Thumbnail_Data
280
    15
 91
        0
  0
XRECORD
  5
3042
102
{ACAD_REACTORS
330
3040
102
}
330
3040
100
AcDbXrecord
280
     1
  1
AcDb3DSolid_ASM_Data
102
{ATTRRECORD
341
3043
  2
AcDbDs::TreatedAsObjectData
280
     1
291
     1
102
ATTRRECORD}
102
{ATTRRECORD
341
3044
  2
AcDbDs::Legacy
280
     1
291
     1
102
ATTRRECORD}
  2
AcDbDs::ID
280
    10
 91
        8
102
{ATTRRECORD
341
3045
  2
AcDs:Indexable
280
     1
291
     1
102
ATTRRECORD}
102
{ATTRRECORD
341
3046
  2
AcDbDs::HandleAttribute
280
     7
282
     1
102
ATTRRECORD}
  2
ASM_Data
280
    15
 91
        0
  0
XRECORD
  5
3043
102
{ACAD_REACTORS
330
3040
102
}
330
3040
100
AcDbXrecord
280
     1
  1
AcDbDs::TreatedAsObjectDataSchema
  2
AcDbDs::TreatedAsObjectData
280
     1
 91
        0
  0
XRECORD
  5
3044
102
{ACAD_REACTORS
330
3040
102
}
330
3040
100
AcDbXrecord
280
     1
  1
AcDbDs::LegacySchema
  2
AcDbDs::Legacy
280
     1
 91
        0
  0
XRECORD
  5
3045
102
{ACAD_REACTORS
330
3040
102
}
330
3040
100
AcDbXrecord
280
     1
  1
AcDbDs::IndexedPropertySchema
  2
AcDs:Indexable
280
     1
 91
        0
  0
XRECORD
  5
3046
102
{ACAD_REACTORS
330
3040
102
}
330
3040
100
AcDbXrecord
280
     1
  1
AcDbDs::HandleAttributeSchema
  2
AcDbDs::HandleAttribute
280
     7
 91
        1
284
     1
  0
XRECORD
  5
3037
102
{ACAD_REACTORS
330
167
102
}
330
167
100
AcDbXrecord
280
     1
102
DISPLAYNAME
  1
Metric50
102
FLAGS
 90
        0
  0
XRECORD
  5
303B
102
{ACAD_REACTORS
330
303A
102
}
330
303A
100
AcDbXrecord
280
     1
310
89504E470D0A1A0A0000000D49484452000000B80000007F08030000006B00F8F900000300504C5445FFFFFF000000C8C8C80000000000000000000000000000000000000000000000000000330000660000990000CC0000FF0033000033330033660033990033CC0033FF0066000066330066660066990066CC0066FF0099
310
000099330099660099990099CC0099FF00CC0000CC3300CC6600CC9900CCCC00CCFF00FF0000FF3300FF6600FF9900FFCC00FFFF3300003300333300663300993300CC3300FF3333003333333333663333993333CC3333FF3366003366333366663366993366CC3366FF3399003399333399663399993399CC3399FF33CC00
310
33CC3333CC6633CC9933CCCC33CCFF33FF0033FF3333FF6633FF9933FFCC33FFFF6600006600336600666600996600CC6600FF6633006633336633666633996633CC6633FF6666006666336666666666996666CC6666FF6699006699336699666699996699CC6699FF66CC0066CC3366CC6666CC9966CCCC66CCFF66FF0066
310
FF3366FF6666FF9966FFCC66FFFF9900009900339900669900999900CC9900FF9933009933339933669933999933CC9933FF9966009966339966669966999966CC9966FF9999009999339999669999999999CC9999FF99CC0099CC3399CC6699CC9999CCCC99CCFF99FF0099FF3399FF6699FF9999FFCC99FFFFCC0000CC00
310
33CC0066CC0099CC00CCCC00FFCC3300CC3333CC3366CC3399CC33CCCC33FFCC6600CC6633CC6666CC6699CC66CCCC66FFCC9900CC9933CC9966CC9999CC99CCCC99FFCCCC00CCCC33CCCC66CCCC99CCCCCCCCCCFFCCFF00CCFF33CCFF66CCFF99CCFFCCCCFFFFFF0000FF0033FF0066FF0099FF00CCFF00FFFF3300FF3333
310
FF3366FF3399FF33CCFF33FFFF6600FF6633FF6666FF6699FF66CCFF66FFFF9900FF9933FF9966FF9999FF99CCFF99FFFFCC00FFCC33FFCC66FFCC99FFCCCCFFCCFFFFFF00FFFF33FFFF66FFFF99FFFFCCFFFFFF0000000D0D0D1A1A1A2828283535354343435050505D5D5D6B6B6B787878868686939393A1A1A1AEAEAEBB
310
BBBBC9C9C9D6D6D6E4E4E4F1F1F1FFFFFF000000000000000000000000000000000000000000000000000000000000B0E2D23500000009704859730000000100000001013822F4400000050D49444154789CED9C4D7AE3200C86D9CF4572C29CC1A762E35DCF90954E3236FF3F020B224849FD3DD38E6D1CF15A1620B01B01
310
468259A36C3ABBECD67D2DC32CDBDFB09442F0C8ED3B7A7DA66CEF2BAB1B6DAA300287E7324A3CFE148BE829D60717EB813BDDE0E375837749E6A27EB407BCB18A6B4B7F1DFC3225225741B5D4046E8CA2E017E91CAD0A00B2253AB8378A815FC9543121FFABA82754C81A9287D74285B90E5EE1E0FB3AE07B9CAD2F04BE47
310
07D701FF9218BFC1C33A78F58DE0C840DC273E4BB951047C446DFCC2C0B9EF2AAFCAA1F2695FD2F455E0DC7795579550E1AE83575F060EEB80C3408FF359CA8D0E0C1535C831D9CA8D8E0397EAAE32932BA3E3C0DD547C35F0C0D7FCE06224B86AF1526D30F72C528C073F73077E74691AFCB85029EC706906F810F229E023
310
1E8AF3839F3967EEE370BDF23DFB46B3C0C5B2E0DC8AC1D5DAE122E0D1DAE1B2E0CB86CA0D7E83177583C7BAC18B1A998F0FD598B54318B2321EE9AB42A54BE9B3765EFFE6AA800F77DA5B0AC0D52B154B81BBB799E143AFA8768103D83781ADC7A7AB0F5C84AFF12C06EE75833732747DE806EFD60D5E17FFC83405FC4C42
310
B8B3D609E03A7B222DA36DDB4667E810053C7FCDF22A5A4E6A29A8E8E33C1E9F72B85CD4B3B0935AA5F52779F545D3E9E04A4578072E36802AF91C70F0E0DAE385047813169CD68A19C0F7FD23696D97F2D5DA5CE6199AF6B8541BEAB19DF576E275E37130DB04E77508F2D5DA0BF0034A3D4E4FE680EEE4C7637B9C02F5FB
310
D81E044E8E71E7F1C397AF43C19C387A42A23A70DB38077ABC1D5C8A977403BF73F509BE6D8A3A0027F5E483C1835EE595672C86D9EC2870DB915F6A3CB8D2EB65405DB1620ECD6C9B7EE44E1C3A27795C87C0E1CF4D7847BB41C948450C355919097E741256B6B3387E6DBAFF78E4E00DD8C33D0EB68D2AACA32F09C972F0
310
06CD05172B819BC6A9BA0BDD009373FAC4091E8C88D20D99BAE4F8792199E11BB3A231E01203F72327C7BB051CE09018D1394904AEF214913A5C4417DBC6D0079EBFE999F3C4E0665894BE3CA5D52146BE05C31BA781B23D4B9CAD84330BBDF70BC183B7E8A25990BD06754312F0FD143E7F3B97BAF1627B744F05400497C1
310
445338724D18678AFE421070DC794F352D408ADDD10C9CECF10CDC500691632FC4B5DBE44DB872D753FCDBA3E0298FFDB8B3D00D1E878B102E42A4FF14028E113680031378E07D29D33E320147D1A8E0585957E314D6C1E658469DD5E61A55A57166276007DA1A6708EEFA3B05EF9A23FEA9C25EA48AC7D1EFC6D9F5662BB8
310
A5D7FF5716E318430539D0012E6D88845DC865B5BF015CB851BF9A95E0BD4A21C6716526C3B23E70422E85354E74082A0EF93978F30024D250A17F4984DD730FB0C322F36D0C85749E1E2AB5B5433FD527E6AD850108B22D1B2A6DE08445CF38EEC8D936115C7080139EBA21B7B410EE2D8DF31C52741A087ACBFC33E30F36
310
745162FC02C0AF7B26A6F3CB282559491AA837545B5467D8660D3E576B07BF3AA170A66E27F023F27CEBE927629ECBF814EC0AC3E9730F0EEDE0BD02CD1D80BBA20EF00E8FBF01FEEFE03EC9718F23711666872A567CCF36151C14F84FF6E71236C6773FD5B11B58D3F1C13209DC702B707BD32DB89F1E841B85A99EB517ED
310
8D03C7DD760A05473AA6D8DECCC659D0EF06CF26EA3E80B1ECF02AC2E7C538026EF5CC0F250E4504517B580DDC0DC7EB827FE615D56A2C57A23CF478949D6717193AB0AF6CD8F7D6AEA46ACAD9289762443FD901D6EA6AAB7B744B4D0E7BBF9E73FB3F535BCB0A4A2115510000000049454E44AE426082
  0
XRECORD
  5
303D
102
{ACAD_REACTORS
330
303C
102
}
330
303C
100
AcDbXrecord
280
     1
310
89504E470D0A1A0A0000000D49484452000001000000008D08030000006FF554E600000300504C5445212830000000C8C8C80000000000000000000000000000000000000000000000000000330000660000990000CC0000FF0033000033330033660033990033CC0033FF0066000066330066660066990066CC0066FF0099
310
000099330099660099990099CC0099FF00CC0000CC3300CC6600CC9900CCCC00CCFF00FF0000FF3300FF6600FF9900FFCC00FFFF3300003300333300663300993300CC3300FF3333003333333333663333993333CC3333FF3366003366333366663366993366CC3366FF3399003399333399663399993399CC3399FF33CC00
310
33CC3333CC6633CC9933CCCC33CCFF33FF0033FF3333FF6633FF9933FFCC33FFFF6600006600336600666600996600CC6600FF6633006633336633666633996633CC6633FF6666006666336666666666996666CC6666FF6699006699336699666699996699CC6699FF66CC0066CC3366CC6666CC9966CCCC66CCFF66FF0066
310
FF3366FF6666FF9966FFCC66FFFF9900009900339900669900999900CC9900FF9933009933339933669933999933CC9933FF9966009966339966669966999966CC9966FF9999009999339999669999999999CC9999FF99CC0099CC3399CC6699CC9999CCCC99CCFF99FF0099FF3399FF6699FF9999FFCC99FFFFCC0000CC00
310
33CC0066CC0099CC00CCCC00FFCC3300CC3333CC3366CC3399CC33CCCC33FFCC6600CC6633CC6666CC6699CC66CCCC66FFCC9900CC9933CC9966CC9999CC99CCCC99FFCCCC00CCCC33CCCC66CCCC99CCCCCCCCCCFFCCFF00CCFF33CCFF66CCFF99CCFFCCCCFFFFFF0000FF0033FF0066FF0099FF00CCFF00FFFF3300FF3333
310
FF3366FF3399FF33CCFF33FFFF6600FF6633FF6666FF6699FF66CCFF66FFFF9900FF9933FF9966FF9999FF99CCFF99FFFFCC00FFCC33FFCC66FFCC99FFCCCCFFCCFFFFFF00FFFF33FFFF66FFFF99FFFFCCFFFFFF0000000D0D0D1A1A1A2828283535354343435050505D5D5D6B6B6B787878868686939393A1A1A1AEAEAEBB
310
BBBBC9C9C9D6D6D6E4E4E4F1F1F1FFFFFF000000000000000000000000000000000000000000000000000000000000B21171F600000009704859730000000100000001013822F440000001BC49444154789CEDDBCD71C3201086610A7101BAA8BDD4E0AAF6A2365C842EDCC39F137BE2410A36B342FB3E17334E46864F2023
310
819D03000000000000000000000000D0CC1F8E883CBFD13980BE873F3E02D845BB961D8521779538ECE4CEFF293C9434F40D40B569FB740E208D02F7D0CD7F3EF0F7A35FBD55FD6397FFEF231CFEEA6202562F87B997E5AFDF83EA9EC1E92FF45B2CB73DF9E034B60BED7C000000000000000000000000A06B49B46BA127B7
310
DD6E02F786B72730F63EA565B964AE3D80B21B71CCCDD28B4BCD9FE7D92F73F4FF00549BB64FA5B68B941E108A734D2580D211C6DC2C1D7BC09784147C1903D5145E86510E2F636E964E432034E1E237AE82950012AF3CCCAB3613087CF345B0FF5EECAEEE27DEEC3C8099A0337DF68349A6C147F1BBA6DB4DBB0ACACC0700
310
DBD6355D03B7264CE7B5AEE945869FD2B52AB3654925EDCA6828CD16D7DAFC701F1C7F3D3BE2ADE0A3F6B3EFFD3538F263AFBE24063089D1D647F957D3A60338F463DF6DD66F87591829AF4613F8C0C2C8D8CA33D1506A7F2A3AB41C8084080C07F0B43062CDEE8591D37A7F6164702C8CC4084CCF049DDD4950C6C2080B23
310
E603000000000000007032DF008342DC64AAE50B0000000049454E44AE426082
  0
XRECORD
  5
3038
102
{ACAD_REACTORS
330
165
102
}
330
165
100
AcDbXrecord
280
     1
102
DISPLAYNAME
  1
Metric50
102
FLAGS
 90
        0
  0
ENDSEC
  0
EOF
