  0
SECTION
  2
HEADER
  9
$ACADVER
  1
AC1015
  9
$ACADMAINTVER
 70
    20
  9
$DWGCODEPAGE
  3
ANSI_1252
  9
$INSBASE
 10
0.0
 20
0.0
 30
0.0
  9
$EXTMIN
 10
-39.13787748564255
 20
-117.5881799873758
 30
-0.0000610304997082
  9
$EXTMAX
 10
254.604492972843
 20
335.5751960489144
 30
0.000091555062788
  9
$LIMMIN
 10
0.0
 20
0.0
  9
$LIMMAX
 10
420.0
 20
297.0
  9
$ORTHOMODE
 70
     0
  9
$REGENMODE
 70
     1
  9
$FILLMODE
 70
     1
  9
$QTEXTMODE
 70
     0
  9
$MIRRTEXT
 70
     1
  9
$LTSCALE
 40
1.0
  9
$ATTMODE
 70
     1
  9
$TEXTSIZE
 40
2.5
  9
$TRACEWID
 40
1.0
  9
$TEXTSTYLE
  7
STANDARD
  9
$CLAYER
  8
HAWA1
  9
$CELTYPE
  6
BYLAYER
  9
$CECOLOR
 62
   256
  9
$CELTSCALE
 40
1.0
  9
$DISPSILH
 70
     0
  9
$DIMSCALE
 40
1.0
  9
$DIMASZ
 40
2.0
  9
$DIMEXO
 40
2.0
  9
$DIMDLI
 40
0.0
  9
$DIMRND
 40
0.0
  9
$DIMDLE
 40
1.0
  9
$DIMEXE
 40
1.0
  9
$DIMTP
 40
0.0
  9
$DIMTM
 40
0.0
  9
$DIMTXT
 40
3.5
  9
$DIMCEN
 40
0.0
  9
$DIMTSZ
 40
0.0
  9
$DIMTOL
 70
     0
  9
$DIMLIM
 70
     0
  9
$DIMTIH
 70
     0
  9
$DIMTOH
 70
     0
  9
$DIMSE1
 70
     0
  9
$DIMSE2
 70
     0
  9
$DIMTAD
 70
     1
  9
$DIMZIN
 70
     8
  9
$DIMBLK
  1

  9
$DIMASO
 70
     1
  9
$DIMSHO
 70
     1
  9
$DIMPOST
  1

  9
$DIMAPOST
  1

  9
$DIMALT
 70
     1
  9
$DIMALTD
 70
     5
  9
$DIMALTF
 40
0.039370078740157
  9
$DIMLFAC
 40
1.0
  9
$DIMTOFL
 70
     1
  9
$DIMTVP
 40
0.0
  9
$DIMTIX
 70
     0
  9
$DIMSOXD
 70
     0
  9
$DIMSAH
 70
     1
  9
$DIMBLK1
  1
Oblique
  9
$DIMBLK2
  1
Oblique
  9
$DIMSTYLE
  2
HAWA-Strich
  9
$DIMCLRD
 70
   256
  9
$DIMCLRE
 70
   256
  9
$DIMCLRT
 70
   256
  9
$DIMTFAC
 40
0.7114285714285719
  9
$DIMGAP
 40
1.0
  9
$DIMJUST
 70
     0
  9
$DIMSD1
 70
     0
  9
$DIMSD2
 70
     0
  9
$DIMTOLJ
 70
     1
  9
$DIMTZIN
 70
     8
  9
$DIMALTZ
 70
     8
  9
$DIMALTTZ
 70
     8
  9
$DIMUPT
 70
     0
  9
$DIMDEC
 70
     1
  9
$DIMTDEC
 70
     1
  9
$DIMALTU
 70
     4
  9
$DIMALTTD
 70
     5
  9
$DIMTXSTY
  7
Beschlag
  9
$DIMAUNIT
 70
     0
  9
$DIMADEC
 70
     1
  9
$DIMALTRND
 40
0.0
  9
$DIMAZIN
 70
     2
  9
$DIMDSEP
 70
    46
  9
$DIMATFIT
 70
     3
  9
$DIMFRAC
 70
     0
  9
$DIMLDRBLK
  1
Oblique
  9
$DIMLUNIT
 70
     2
  9
$DIMLWD
 70
    -2
  9
$DIMLWE
 70
    -2
  9
$DIMTMOVE
 70
     0
  9
$LUNITS
 70
     2
  9
$LUPREC
 70
     4
  9
$SKETCHINC
 40
1.0
  9
$FILLETRAD
 40
2.5
  9
$AUNITS
 70
     0
  9
$AUPREC
 70
     0
  9
$MENU
  1
.
  9
$ELEVATION
 40
0.0
  9
$PELEVATION
 40
0.0
  9
$THICKNESS
 40
0.0
  9
$LIMCHECK
 70
     0
  9
$CHAMFERA
 40
2.5
  9
$CHAMFERB
 40
2.5
  9
$CHAMFERC
 40
0.0
  9
$CHAMFERD
 40
0.0
  9
$SKPOLY
 70
     0
  9
$TDCREATE
 40
2447893.000000000
  9
$TDUCREATE
 40
2447892.958333333
  9
$TDUPDATE
 40
2455265.468857003
  9
$TDUUPDATE
 40
2455265.427190336
  9
$TDINDWG
 40
0.0009053935
  9
$TDUSRTIMER
 40
0.0009053935
  9
$USRTIMER
 70
     1
  9
$ANGBASE
 50
0.0
  9
$ANGDIR
 70
     0
  9
$PDMODE
 70
     0
  9
$PDSIZE
 40
0.0
  9
$PLINEWID
 40
0.0
  9
$SPLFRAME
 70
     0
  9
$SPLINETYPE
 70
     6
  9
$SPLINESEGS
 70
     8
  9
$HANDSEED
  5
2F1
  9
$SURFTAB1
 70
     6
  9
$SURFTAB2
 70
     6
  9
$SURFTYPE
 70
     6
  9
$SURFU
 70
     6
  9
$SURFV
 70
     6
  9
$UCSBASE
  2

  9
$UCSNAME
  2

  9
$UCSORG
 10
0.0
 20
0.0
 30
0.0
  9
$UCSXDIR
 10
1.0
 20
0.0
 30
0.0
  9
$UCSYDIR
 10
0.0
 20
1.0
 30
0.0
  9
$UCSORTHOREF
  2

  9
$UCSORTHOVIEW
 70
     0
  9
$UCSORGTOP
 10
0.0
 20
0.0
 30
0.0
  9
$UCSORGBOTTOM
 10
0.0
 20
0.0
 30
0.0
  9
$UCSORGLEFT
 10
0.0
 20
0.0
 30
0.0
  9
$UCSORGRIGHT
 10
0.0
 20
0.0
 30
0.0
  9
$UCSORGFRONT
 10
0.0
 20
0.0
 30
0.0
  9
$UCSORGBACK
 10
0.0
 20
0.0
 30
0.0
  9
$PUCSBASE
  2

  9
$PUCSNAME
  2

  9
$PUCSORG
 10
0.0
 20
0.0
 30
0.0
  9
$PUCSXDIR
 10
1.0
 20
0.0
 30
0.0
  9
$PUCSYDIR
 10
0.0
 20
1.0
 30
0.0
  9
$PUCSORTHOREF
  2

  9
$PUCSORTHOVIEW
 70
     0
  9
$PUCSORGTOP
 10
0.0
 20
0.0
 30
0.0
  9
$PUCSORGBOTTOM
 10
0.0
 20
0.0
 30
0.0
  9
$PUCSORGLEFT
 10
0.0
 20
0.0
 30
0.0
  9
$PUCSORGRIGHT
 10
0.0
 20
0.0
 30
0.0
  9
$PUCSORGFRONT
 10
0.0
 20
0.0
 30
0.0
  9
$PUCSORGBACK
 10
0.0
 20
0.0
 30
0.0
  9
$USERI1
 70
     0
  9
$USERI2
 70
     0
  9
$USERI3
 70
     0
  9
$USERI4
 70
     0
  9
$USERI5
 70
     0
  9
$USERR1
 40
0.0
  9
$USERR2
 40
0.0
  9
$USERR3
 40
0.0
  9
$USERR4
 40
0.0
  9
$USERR5
 40
0.0
  9
$WORLDVIEW
 70
     1
  9
$SHADEDGE
 70
     3
  9
$SHADEDIF
 70
    70
  9
$TILEMODE
 70
     1
  9
$MAXACTVP
 70
    48
  9
$PINSBASE
 10
0.0
 20
0.0
 30
0.0
  9
$PLIMCHECK
 70
     0
  9
$PEXTMIN
 10
0.0
 20
0.0
 30
0.0
  9
$PEXTMAX
 10
149.57724
 20
187.065292
 30
2.0
  9
$PLIMMIN
 10
0.0
 20
0.0
  9
$PLIMMAX
 10
420.0
 20
297.0
  9
$UNITMODE
 70
     0
  9
$VISRETAIN
 70
     0
  9
$PLINEGEN
 70
     0
  9
$PSLTSCALE
 70
     1
  9
$TREEDEPTH
 70
  3020
  9
$CMLSTYLE
  2
STANDARD
  9
$CMLJUST
 70
     0
  9
$CMLSCALE
 40
20.0
  9
$PROXYGRAPHICS
 70
     1
  9
$MEASUREMENT
 70
     1
  9
$CELWEIGHT
370
    -1
  9
$ENDCAPS
280
     0
  9
$JOINSTYLE
280
     0
  9
$LWDISPLAY
290
     0
  9
$INSUNITS
 70
     0
  9
$HYPERLINKBASE
  1

  9
$STYLESHEET
  1

  9
$XEDIT
290
     1
  9
$CEPSNTYPE
380
     0
  9
$PSTYLEMODE
290
     1
  9
$FINGERPRINTGUID
  2
{E28A7980-54B1-4FBB-9F53-AF457A2B72DE}
  9
$VERSIONGUID
  2
{EC168975-C923-454D-8882-AC6E2A2C084E}
  9
$EXTNAMES
290
     1
  9
$PSVPSCALE
 40
0.0
  9
$OLESTARTUP
290
     0
  0
ENDSEC
  0
SECTION
  2
CLASSES
  0
CLASS
  1
IMAGE
  2
AcDbRasterImage
  3
ISM
 90
    34943
280
     0
281
     1
  0
CLASS
  1
DICTIONARYVAR
  2
AcDbDictionaryVar
  3
ObjectDBX Classes
 90
        0
280
     0
281
     0
  0
CLASS
  1
RASTERVARIABLES
  2
AcDbRasterVariables
  3
ISM
 90
    32768
280
     0
281
     0
  0
CLASS
  1
IMAGEDEF
  2
AcDbRasterImageDef
  3
ISM
 90
    32768
280
     0
281
     0
  0
CLASS
  1
IMAGEDEF_REACTOR
  2
AcDbRasterImageDefReactor
  3
ISM
 90
    32769
280
     0
281
     0
  0
CLASS
  1
IDBUFFER
  2
AcDbIdBuffer
  3
ObjectDBX Classes
 90
    32768
280
     0
281
     0
  0
CLASS
  1
SPATIAL_FILTER
  2
AcDbSpatialFilter
  3
ObjectDBX Classes
 90
    32768
280
     0
281
     0
  0
CLASS
  1
SORTENTSTABLE
  2
AcDbSortentsTable
  3
ObjectDBX Classes
 90
    32768
280
     0
281
     0
  0
CLASS
  1
LAYER_INDEX
  2
AcDbLayerIndex
  3
ObjectDBX Classes
 90
    32768
280
     0
281
     0
  0
CLASS
  1
SPATIAL_INDEX
  2
AcDbSpatialIndex
  3
ObjectDBX Classes
 90
    32768
280
     0
281
     0
  0
CLASS
  1
OBJECT_PTR
  2
CAseDLPNTableRecord
  3
ASE-LPNTableRecord
 90
    32769
280
     0
281
     0
  0
CLASS
  1
LAYOUT
  2
AcDbLayout
  3
ObjectDBX Classes
 90
        0
280
     0
281
     0
  0
CLASS
  1
PLOTSETTINGS
  2
AcDbPlotSettings
  3
ObjectDBX Classes
 90
    32768
280
     0
281
     0
  0
CLASS
  1
ACDBDICTIONARYWDFLT
  2
AcDbDictionaryWithDefault
  3
ObjectDBX Classes
 90
        0
280
     0
281
     0
  0
CLASS
  1
ACDBPLACEHOLDER
  2
AcDbPlaceHolder
  3
ObjectDBX Classes
 90
        0
280
     0
281
     0
  0
CLASS
  1
VBA_PROJECT
  2
AcDbVbaProject
  3
acad
 90
    32768
280
     0
281
     0
  0
CLASS
  1
WIPEOUT
  2
AcDbWipeout
  3
"WipeOut|Product Desc: Object Enabler for WipeOut entity                        |Company: Autodesk, Inc.                        |WEB Address: www.autodesk.com"
 90
    34943
280
     0
281
     1
  0
CLASS
  1
WIPEOUTVARIABLES
  2
AcDbWipeoutVariables
  3
"WipeOut|Product Desc:     WipeOut Dbx Application|Company:          Autodesk, Inc.|WEB Address:      www.autodesk.com"
 90
    32768
280
     0
281
     0
  0
CLASS
  1
RTEXT
  2
RText
  3
RText|AutoCAD Express Tool|expresstools@autodesk.com
 90
    32768
280
     0
281
     1
  0
CLASS
  1
ARCALIGNEDTEXT
  2
AcDbArcAlignedText
  3
ATEXT|AutoCAD Express Tool|expresstools@autodesk.com
 90
    32768
280
     0
281
     1
  0
CLASS
  1
MATERIAL
  2
AcDbMaterial
  3
ObjectDBX Classes
 90
     1024
280
     0
281
     0
  0
CLASS
  1
VISUALSTYLE
  2
AcDbVisualStyle
  3
ObjectDBX Classes
 90
     4095
280
     0
281
     0
  0
CLASS
  1
TABLESTYLE
  2
AcDbTableStyle
  3
ObjectDBX Classes
 90
     4095
280
     0
281
     0
  0
ENDSEC
  0
SECTION
  2
TABLES
  0
TABLE
  2
VPORT
  5
7
330
0
100
AcDbSymbolTable
 70
     1
  0
VPORT
  5
15
330
7
100
AcDbSymbolTableRecord
100
AcDbViewportTableRecord
  2
*ACTIVE
 70
     0
 10
0.0
 20
0.0
 11
1.0
 21
1.0
 12
107.7333077436001
 22
108.9935080307693
 13
0.0
 23
0.0
 14
1.0
 24
1.0
 15
0.0
 25
0.0
 16
0.0
 26
0.0
 36
1.0
 17
0.0
 27
0.0
 37
0.0
 40
455.995647136517
 41
1.591240875912408
 42
50.0
 43
0.0
 44
0.0
 50
0.0
 51
0.0
 71
     0
 72
   100
 73
     1
 74
     1
 75
     0
 76
     0
 77
     0
 78
     0
281
     0
 65
     1
110
0.0
120
0.0
130
0.0
111
1.0
121
0.0
131
0.0
112
0.0
122
1.0
132
0.0
 79
     0
146
0.0
  0
ENDTAB
  0
TABLE
  2
LTYPE
  5
4
330
0
100
AcDbSymbolTable
 70
     8
  0
LTYPE
  5
11
330
4
100
AcDbSymbolTableRecord
100
AcDbLinetypeTableRecord
  2
BYBLOCK
 70
     0
  3

 72
    65
 73
     0
 40
0.0
  0
LTYPE
  5
12
330
4
100
AcDbSymbolTableRecord
100
AcDbLinetypeTableRecord
  2
BYLAYER
 70
     0
  3

 72
    65
 73
     0
 40
0.0
  0
LTYPE
  5
13
330
4
100
AcDbSymbolTableRecord
100
AcDbLinetypeTableRecord
  2
CONTINUOUS
 70
     0
  3
Solid line
 72
    65
 73
     0
 40
0.0
  0
LTYPE
  5
1D
330
4
100
AcDbSymbolTableRecord
100
AcDbLinetypeTableRecord
  2
DASHED
 70
     0
  3
__ __ __ __ __ __ __ __ __ __ __ __ __ __ __ __
 72
    65
 73
     2
 40
15.0
 49
12.0
 74
     0
 49
-3.0
 74
     0
  0
LTYPE
  5
1E
330
4
100
AcDbSymbolTableRecord
100
AcDbLinetypeTableRecord
  2
DASHDOT
 70
     0
  3
 __ . __ . __ . __ . __ . __ . __ . 
 72
    65
 73
     4
 40
18.5
 49
12.0
 74
     0
 49
-3.0
 74
     0
 49
0.5
 74
     0
 49
-3.0
 74
     0
  0
LTYPE
  5
1F
330
4
100
AcDbSymbolTableRecord
100
AcDbLinetypeTableRecord
  2
DOT
 70
     0
  3
 . . . . . . . . . . . . . . . .
 72
    65
 73
     2
 40
3.5
 49
0.5
 74
     0
 49
-3.0
 74
     0
  0
LTYPE
  5
20
330
4
100
AcDbSymbolTableRecord
100
AcDbLinetypeTableRecord
  2
DASHSPACE
 70
     0
  3
__    __    __    __    __   
 72
    65
 73
     2
 40
30.0
 49
12.0
 74
     0
 49
-18.0
 74
     0
  0
LTYPE
  5
21
330
4
100
AcDbSymbolTableRecord
100
AcDbLinetypeTableRecord
  2
DASHDOT2
 70
     0
  3
__ . . __ . . __ . . __ 
 72
    65
 73
     6
 40
22.0
 49
12.0
 74
     0
 49
-3.0
 74
     0
 49
0.5
 74
     0
 49
-3.0
 74
     0
 49
0.5
 74
     0
 49
-3.0
 74
     0
  0
LTYPE
  5
22
330
4
100
AcDbSymbolTableRecord
100
AcDbLinetypeTableRecord
  2
PHANTOM
 70
     0
  3
____________    ____    ____   _
 72
    65
 73
     6
 40
20.0
 49
10.0
 74
     0
 49
-2.0
 74
     0
 49
2.0
 74
     0
 49
-2.0
 74
     0
 49
2.0
 74
     0
 49
-2.0
 74
     0
  0
LTYPE
  5
23
330
4
100
AcDbSymbolTableRecord
100
AcDbLinetypeTableRecord
  2
AXES
 70
     0
  3
________  __  ________  __  _____
 72
    65
 73
     4
 40
24.0
 49
15.0
 74
     0
 49
-3.0
 74
     0
 49
3.0
 74
     0
 49
-3.0
 74
     0
  0
ENDTAB
  0
TABLE
  2
LAYER
  5
2
330
0
100
AcDbSymbolTable
 70
     6
  0
LAYER
  5
178
330
2
100
AcDbSymbolTableRecord
100
AcDbLayerTableRecord
  2
0
 70
     0
 62
     7
  6
CONTINUOUS
370
    -3
390
17A
  0
LAYER
  5
176
330
2
100
AcDbSymbolTableRecord
100
AcDbLayerTableRecord
  2
Hawa5
 70
     0
 62
     1
  6
CONTINUOUS
370
    -3
390
17A
  0
LAYER
  5
177
330
2
100
AcDbSymbolTableRecord
100
AcDbLayerTableRecord
  2
Hawa6
 70
     0
 62
     3
  6
CONTINUOUS
370
    -3
390
17A
  0
LAYER
  5
14
330
2
100
AcDbSymbolTableRecord
100
AcDbLayerTableRecord
  2
HAWA1
 70
     0
 62
     2
  6
CONTINUOUS
370
     0
390
17A
  0
LAYER
  5
19F
330
2
100
AcDbSymbolTableRecord
100
AcDbLayerTableRecord
  2
Defpoints
 70
     0
 62
     7
  6
CONTINUOUS
290
     0
370
    -3
390
17A
  0
LAYER
  5
1A0
330
2
100
AcDbSymbolTableRecord
100
AcDbLayerTableRecord
  2
1
 70
     0
 62
     7
  6
CONTINUOUS
370
    -3
390
17A
  0
ENDTAB
  0
TABLE
  2
STYLE
  5
3
330
0
100
AcDbSymbolTable
 70
     3
  0
STYLE
  5
17
330
3
100
AcDbSymbolTableRecord
100
AcDbTextStyleTableRecord
  2
STANDARD
 70
     0
 40
0.0
 41
1.0
 50
0.0
 71
     0
 42
2.5
  3
isocp.shx
  4

  0
STYLE
  5
24
330
3
100
AcDbSymbolTableRecord
100
AcDbTextStyleTableRecord
  2
GDT
 70
     0
 40
0.0
 41
1.0
 50
0.0
 71
     0
 42
2.5
  3
amgdt.shx
  4

  0
STYLE
  5
1A1
330
3
100
AcDbSymbolTableRecord
100
AcDbTextStyleTableRecord
  2
Beschlag
 70
     0
 40
0.0
 41
0.9
 50
0.0
 71
     0
 42
3.5
  3
ARIAL.TTF
  4

1001
ACAD
1000
Arial
1071
       34
  0
ENDTAB
  0
TABLE
  2
VIEW
  5
5
330
0
100
AcDbSymbolTable
 70
     0
  0
ENDTAB
  0
TABLE
  2
UCS
  5
6
330
0
100
AcDbSymbolTable
 70
     0
  0
ENDTAB
  0
TABLE
  2
APPID
  5
8
330
0
100
AcDbSymbolTable
 70
     2
  0
APPID
  5
16
330
8
100
AcDbSymbolTableRecord
100
AcDbRegAppTableRecord
  2
ACAD
 70
     0
  0
APPID
  5
1A3
330
8
100
AcDbSymbolTableRecord
100
AcDbRegAppTableRecord
  2
ACAD_PSEXT
 70
     0
  0
ENDTAB
  0
TABLE
  2
DIMSTYLE
  5
9
330
0
100
AcDbSymbolTable
 70
     2
100
AcDbDimStyleTable
 71
     1
340
1A2
  0
DIMSTYLE
105
18
330
9
100
AcDbSymbolTableRecord
100
AcDbDimStyleTableRecord
  2
STANDARD
 70
     0
 41
2.5
 42
0.625
 43
3.75
 44
1.25
 73
     0
 74
     0
 77
     1
 78
     8
140
2.5
141
2.5
143
0.03937
147
0.625
171
     3
172
     1
271
     2
272
     2
274
     3
283
     0
284
     8
289
     0
340
17
  0
DIMSTYLE
105
1A2
102
{ACAD_REACTORS
330
3E
330
3C
330
3A
330
38
330
36
330
34
330
32
330
30
330
2E
330
2C
330
2A
330
28
330
26
102
}
330
9
100
AcDbSymbolTableRecord
100
AcDbDimStyleTableRecord
  2
HAWA-Strich
 70
     0
 41
2.0
 42
2.0
 43
0.0
 44
1.0
 46
1.0
 73
     0
 74
     0
 77
     1
 78
     8
 79
     2
140
3.5
141
0.0
143
0.039370078740157
146
0.7114285714285719
147
1.0
170
     1
171
     5
172
     1
173
     1
176
   256
177
   256
178
   256
179
     1
271
     1
272
     1
273
     4
274
     5
284
     8
285
     8
286
     8
340
1A1
341
19B
343
19B
344
19B
  0
ENDTAB
  0
TABLE
  2
BLOCK_RECORD
  5
1
330
0
100
AcDbSymbolTable
 70
    15
  0
BLOCK_RECORD
  5
A
330
1
100
AcDbSymbolTableRecord
100
AcDbBlockTableRecord
  2
*MODEL_SPACE
340
172
  0
BLOCK_RECORD
  5
B
330
1
100
AcDbSymbolTableRecord
100
AcDbBlockTableRecord
  2
*PAPER_SPACE
340
173
  0
BLOCK_RECORD
  5
25
330
1
100
AcDbSymbolTableRecord
100
AcDbBlockTableRecord
  2
*D0
340
0
  0
BLOCK_RECORD
  5
27
330
1
100
AcDbSymbolTableRecord
100
AcDbBlockTableRecord
  2
*D1
340
0
  0
BLOCK_RECORD
  5
29
330
1
100
AcDbSymbolTableRecord
100
AcDbBlockTableRecord
  2
*D2
340
0
  0
BLOCK_RECORD
  5
2B
330
1
100
AcDbSymbolTableRecord
100
AcDbBlockTableRecord
  2
*D3
340
0
  0
BLOCK_RECORD
  5
2D
330
1
100
AcDbSymbolTableRecord
100
AcDbBlockTableRecord
  2
*D4
340
0
  0
BLOCK_RECORD
  5
2F
330
1
100
AcDbSymbolTableRecord
100
AcDbBlockTableRecord
  2
*D5
340
0
  0
BLOCK_RECORD
  5
31
330
1
100
AcDbSymbolTableRecord
100
AcDbBlockTableRecord
  2
*D6
340
0
  0
BLOCK_RECORD
  5
33
330
1
100
AcDbSymbolTableRecord
100
AcDbBlockTableRecord
  2
*D7
340
0
  0
BLOCK_RECORD
  5
35
330
1
100
AcDbSymbolTableRecord
100
AcDbBlockTableRecord
  2
*D8
340
0
  0
BLOCK_RECORD
  5
37
330
1
100
AcDbSymbolTableRecord
100
AcDbBlockTableRecord
  2
*D9
340
0
  0
BLOCK_RECORD
  5
39
330
1
100
AcDbSymbolTableRecord
100
AcDbBlockTableRecord
  2
*D10
340
0
  0
BLOCK_RECORD
  5
3B
330
1
100
AcDbSymbolTableRecord
100
AcDbBlockTableRecord
  2
*D11
340
0
  0
BLOCK_RECORD
  5
3D
330
1
100
AcDbSymbolTableRecord
100
AcDbBlockTableRecord
  2
*D12
340
0
  0
BLOCK_RECORD
  5
19B
330
1
100
AcDbSymbolTableRecord
100
AcDbBlockTableRecord
  2
_Oblique
340
0
102
{BLKREFS
331
233
331
234
331
23D
331
23E
331
26D
331
26E
331
276
331
277
331
27F
331
280
331
288
331
289
331
291
331
292
331
2A3
331
2A4
331
2AC
331
2AD
331
2B5
331
2B6
331
2C8
331
2CE
331
2CF
331
2D7
331
2D8
102
}
  0
BLOCK_RECORD
  5
1AF
330
1
100
AcDbSymbolTableRecord
100
AcDbBlockTableRecord
  2
HAWA
340
0
102
{BLKREFS
331
1B2
102
}
  0
ENDTAB
  0
ENDSEC
  0
SECTION
  2
BLOCKS
  0
BLOCK
  5
D
330
A
100
AcDbEntity
  8
HAWA1
100
AcDbBlockBegin
  2
*MODEL_SPACE
 70
     0
 10
0.0
 20
0.0
 30
0.0
  3
*MODEL_SPACE
  1

  0
ENDBLK
  5
E
330
A
100
AcDbEntity
  8
HAWA1
100
AcDbBlockEnd
  0
BLOCK
  5
F
330
B
100
AcDbEntity
 67
     1
  8
HAWA1
100
AcDbBlockBegin
  2
*PAPER_SPACE
 70
     0
 10
0.0
 20
0.0
 30
0.0
  3
*PAPER_SPACE
  1

  0
ENDBLK
  5
10
330
B
100
AcDbEntity
 67
     1
  8
HAWA1
100
AcDbBlockEnd
  0
BLOCK
  5
D4
330
25
100
AcDbEntity
  8
HAWA1
100
AcDbBlockBegin
  2
*D0
 70
     1
 10
0.0
 20
0.0
 30
0.0
  3
*D0
  1

  0
LINE
  5
2A0
330
25
100
AcDbEntity
  8
HAWA1
370
    -2
100
AcDbLine
 10
95.74414800062376
 20
305.5653419513232
 30
0.0
 11
92.83933985874298
 21
305.5654145008283
 31
0.0
  0
LINE
  5
2A1
330
25
100
AcDbEntity
  8
HAWA1
370
    -2
100
AcDbLine
 10
95.00015100062375
 20
211.5653499513231
 30
0.0
 11
92.83699214628958
 21
211.5654039776467
 31
0.0
  0
LINE
  5
2A2
330
25
100
AcDbEntity
  8
HAWA1
370
    -2
100
AcDbLine
 10
93.8393648340927
 20
306.5653895248548
 30
0.0
 11
93.83696717031609
 21
210.5653790022969
 31
0.0
  0
INSERT
  5
2A3
330
25
100
AcDbEntity
  8
HAWA1
370
    -2
100
AcDbBlockReference
  2
_Oblique
 10
93.83933985843111
 20
305.5653895251667
 30
0.0
 41
2.0
 42
2.0
 43
2.0
 50
89.99856899999997
  0
INSERT
  5
2A4
330
25
100
AcDbEntity
  8
HAWA1
370
    -2
100
AcDbBlockReference
  2
_Oblique
 10
93.83699214597768
 20
211.5653790019851
 30
0.0
 41
2.0
 42
2.0
 43
2.0
 50
269.998569
  0
MTEXT
  5
2A5
330
25
100
AcDbEntity
  8
HAWA1
100
AcDbMText
 10
88.68082175642774
 20
258.5655130716606
 30
0.0
 40
3.5
 41
0.0
 71
     5
 72
     1
  1
\A1;94{}{\S+1^ 0;}
  7
Beschlag
 11
0.0000249756615941
 21
0.9999999996881081
 31
0.0
 73
     1
 44
1.0
1001
ACAD
1000
MTEXTBEGIN
1070
    73
1070
     1
1070
    44
1040
1.0
1070
    74
1070
     0
1000
MTEXTEND
  0
POINT
  5
2A6
330
25
100
AcDbEntity
  8
Defpoints
 62
     0
100
AcDbPoint
 10
97.74414799999997
 20
305.5652919999999
 30
0.0
  0
POINT
  5
2A7
330
25
100
AcDbEntity
  8
Defpoints
 62
     0
100
AcDbPoint
 10
97.00015099999996
 20
211.5652999999999
 30
0.0
  0
POINT
  5
2A8
330
25
100
AcDbEntity
  8
Defpoints
 62
     0
100
AcDbPoint
 10
93.83699214597768
 20
211.5653790019851
 30
0.0
  0
ENDBLK
  5
DD
330
25
100
AcDbEntity
  8
HAWA1
100
AcDbBlockEnd
  0
BLOCK
  5
DE
330
27
100
AcDbEntity
  8
HAWA1
100
AcDbBlockBegin
  2
*D1
 70
     1
 10
0.0
 20
0.0
 30
0.0
  3
*D1
  1

  0
LINE
  5
28E
330
27
100
AcDbEntity
  8
HAWA1
370
    -2
100
AcDbLine
 10
62.72216960176425
 20
-38.34371900110895
 30
0.0
 11
62.72286627172636
 21
-17.42325331592515
 31
0.0
  0
LINE
  5
28F
330
27
100
AcDbEntity
  8
HAWA1
370
    -2
100
AcDbLine
 10
113.7221706017642
 20
-83.34371900110895
 30
0.0
 11
113.7243657548646
 21
-17.42495171084842
 31
0.0
  0
LINE
  5
290
330
27
100
AcDbEntity
  8
HAWA1
370
    -2
100
AcDbLine
 10
61.72283297139872
 20
-18.42322001448856
 30
0.0
 11
114.724332453428
 21
-18.42498501117608
 31
0.0
  0
INSERT
  5
291
330
27
100
AcDbEntity
  8
HAWA1
370
    -2
100
AcDbBlockReference
  2
_Oblique
 10
62.72283297084424
 20
-18.42325331537067
 30
0.0
 41
2.0
 42
2.0
 43
2.0
 50
179.998092
  0
INSERT
  5
292
330
27
100
AcDbEntity
  8
HAWA1
370
    -2
100
AcDbBlockReference
  2
_Oblique
 10
113.7243324539825
 20
-18.42495171029396
 30
0.0
 41
2.0
 42
2.0
 43
2.0
 50
359.998092
  0
MTEXT
  5
293
330
27
100
AcDbEntity
  8
HAWA1
100
AcDbMText
 10
88.22369070744668
 20
-15.1810943290916
 30
0.0
 40
3.5
 41
0.0
 71
     5
 72
     1
  1
\A1;51 [2"]
  7
Beschlag
 11
0.9999999994455256
 21
-0.0000333008821221
 31
0.0
 73
     1
 44
1.0
1001
ACAD
1000
MTEXTBEGIN
1070
    73
1070
     1
1070
    44
1040
1.0
1070
    74
1070
     0
1000
MTEXTEND
  0
POINT
  5
294
330
27
100
AcDbEntity
  8
Defpoints
 62
     0
100
AcDbPoint
 10
62.72210300000001
 20
-40.343719
 30
0.0
  0
POINT
  5
295
330
27
100
AcDbEntity
  8
Defpoints
 62
     0
100
AcDbPoint
 10
113.722104
 20
-85.343719
 30
0.0
  0
POINT
  5
296
330
27
100
AcDbEntity
  8
Defpoints
 62
     0
100
AcDbPoint
 10
113.7243324539825
 20
-18.42495171029396
 30
0.0
  0
ENDBLK
  5
E8
330
27
100
AcDbEntity
  8
HAWA1
100
AcDbBlockEnd
  0
BLOCK
  5
E9
330
29
100
AcDbEntity
  8
HAWA1
100
AcDbBlockBegin
  2
*D2
 70
     1
 10
0.0
 20
0.0
 30
0.0
  3
*D2
  1

  0
LINE
  5
285
330
29
100
AcDbEntity
  8
HAWA1
370
    -2
100
AcDbLine
 10
48.222103
 20
29.656281
 30
0.0
 11
-31.656219
 21
29.65628100000002
 31
0.0
  0
LINE
  5
286
330
29
100
AcDbEntity
  8
HAWA1
370
    -2
100
AcDbLine
 10
48.222103
 20
-85.343719
 30
0.0
 11
-31.65621900000002
 21
-85.34371899999998
 31
0.0
  0
LINE
  5
287
330
29
100
AcDbEntity
  8
HAWA1
370
    -2
100
AcDbLine
 10
-30.656219
 20
30.65628100000002
 30
0.0
 11
-30.65621900000002
 21
-86.34371899999997
 31
0.0
  0
INSERT
  5
288
330
29
100
AcDbEntity
  8
HAWA1
370
    -2
100
AcDbBlockReference
  2
_Oblique
 10
-30.656219
 20
29.65628100000002
 30
0.0
 41
2.0
 42
2.0
 43
2.0
 50
90.0
  0
INSERT
  5
289
330
29
100
AcDbEntity
  8
HAWA1
370
    -2
100
AcDbBlockReference
  2
_Oblique
 10
-30.65621900000002
 20
-85.34371899999998
 30
0.0
 41
2.0
 42
2.0
 43
2.0
 50
270.0
  0
MTEXT
  5
28A
330
29
100
AcDbEntity
  8
HAWA1
100
AcDbMText
 10
-35.07933809549796
 20
-27.84371899999998
 30
0.0
 40
3.5
 41
0.0
 71
     5
 72
     1
  1
\A1;115 [4{\H0.711429x;\S17/32;}"]
  7
Beschlag
 11
0.0000000000000001
 21
1.0
 31
0.0
 73
     1
 44
1.0
1001
ACAD
1000
MTEXTBEGIN
1070
    73
1070
     1
1070
    44
1040
1.0
1070
    74
1070
     0
1000
MTEXTEND
  0
POINT
  5
28B
330
29
100
AcDbEntity
  8
Defpoints
 62
     0
100
AcDbPoint
 10
50.22210300000001
 20
29.656281
 30
0.0
  0
POINT
  5
28C
330
29
100
AcDbEntity
  8
Defpoints
 62
     0
100
AcDbPoint
 10
50.22210300000001
 20
-85.343719
 30
0.0
  0
POINT
  5
28D
330
29
100
AcDbEntity
  8
Defpoints
 62
     0
100
AcDbPoint
 10
-30.65621900000002
 20
-85.34371899999998
 30
0.0
  0
ENDBLK
  5
F6
330
29
100
AcDbEntity
  8
HAWA1
100
AcDbBlockEnd
  0
BLOCK
  5
F7
330
2B
100
AcDbEntity
  8
HAWA1
100
AcDbBlockBegin
  2
*D3
 70
     1
 10
0.0
 20
0.0
 30
0.0
  3
*D3
  1

  0
LINE
  5
27C
330
2B
100
AcDbEntity
  8
HAWA1
370
    -2
100
AcDbLine
 10
113.7220706991179
 20
-114.0061039997227
 30
0.0
 11
113.7220858749733
 21
-113.094665351488
 31
0.0
  0
LINE
  5
27D
330
2B
100
AcDbEntity
  8
HAWA1
370
    -2
100
AcDbLine
 10
-7.277926300882127
 20
-29.84371899972277
 30
0.0
 11
-7.279312432311936
 21
-113.0926506248366
 31
0.0
  0
LINE
  5
27E
330
2B
100
AcDbEntity
  8
HAWA1
370
    -2
100
AcDbLine
 10
114.7221025252758
 20
-112.0946820020677
 30
0.0
 11
-8.279295781732255
 21
-112.0926339745342
 31
0.0
  0
INSERT
  5
27F
330
2B
100
AcDbEntity
  8
HAWA1
370
    -2
100
AcDbBlockReference
  2
_Oblique
 10
113.7221025254144
 20
-112.0946653516266
 30
0.0
 41
2.0
 42
2.0
 43
2.0
 50
359.999046
  0
INSERT
  5
280
330
2B
100
AcDbEntity
  8
HAWA1
370
    -2
100
AcDbBlockReference
  2
_Oblique
 10
-7.279295781870873
 20
-112.0926506249752
 30
0.0
 41
2.0
 42
2.0
 43
2.0
 50
179.999046
  0
MTEXT
  5
281
330
2B
100
AcDbEntity
  8
HAWA1
100
AcDbMText
 10
53.22147693381325
 20
-107.6756343944386
 30
0.0
 40
3.5
 41
0.0
 71
     5
 72
     1
  1
\A1;121 [4{\H0.711429x;\S3/4;}"]
  7
Beschlag
 11
0.9999999998613814
 21
-0.0000166504410634
 31
0.0
 73
     1
 44
1.0
1001
ACAD
1000
MTEXTBEGIN
1070
    73
1070
     1
1070
    44
1040
1.0
1070
    74
1070
     0
1000
MTEXTEND
  0
POINT
  5
282
330
2B
100
AcDbEntity
  8
Defpoints
 62
     0
100
AcDbPoint
 10
113.722104
 20
-112.006104
 30
0.0
  0
POINT
  5
283
330
2B
100
AcDbEntity
  8
Defpoints
 62
     0
100
AcDbPoint
 10
-7.277893
 20
-27.843719
 30
0.0
  0
POINT
  5
284
330
2B
100
AcDbEntity
  8
Defpoints
 62
     0
100
AcDbPoint
 10
-7.279295781870873
 20
-112.0926506249752
 30
0.0
  0
ENDBLK
  5
104
330
2B
100
AcDbEntity
  8
HAWA1
100
AcDbBlockEnd
  0
BLOCK
  5
105
330
2D
100
AcDbEntity
  8
HAWA1
100
AcDbBlockBegin
  2
*D4
 70
     1
 10
0.0
 20
0.0
 30
0.0
  3
*D4
  1

  0
LINE
  5
273
330
2D
100
AcDbEntity
  8
HAWA1
370
    -2
100
AcDbLine
 10
88.8901229993762
 20
-40.34376895132318
 30
0.0
 11
92.17826294939925
 21
-40.34385107479387
 31
0.0
  0
LINE
  5
274
330
2D
100
AcDbEntity
  8
HAWA1
370
    -2
100
AcDbLine
 10
91.77743800062378
 20
-85.34366904867679
 30
0.0
 11
90.17713904954783
 21
-85.34362908015173
 31
0.0
  0
LINE
  5
275
330
2D
100
AcDbEntity
  8
HAWA1
370
    -2
100
AcDbLine
 10
91.17828792537272
 20
-39.34382609944417
 30
0.0
 11
91.17711407357434
 21
-86.34365405550141
 31
0.0
  0
INSERT
  5
276
330
2D
100
AcDbEntity
  8
HAWA1
370
    -2
100
AcDbBlockReference
  2
_Oblique
 10
91.17826294971115
 20
-40.34382609913228
 30
0.0
 41
2.0
 42
2.0
 43
2.0
 50
89.99856899999997
  0
INSERT
  5
277
330
2D
100
AcDbEntity
  8
HAWA1
370
    -2
100
AcDbBlockReference
  2
_Oblique
 10
91.17713904923595
 20
-85.34365405581331
 30
0.0
 41
2.0
 42
2.0
 43
2.0
 50
269.998569
  0
MTEXT
  5
278
330
2D
100
AcDbEntity
  8
HAWA1
100
AcDbMText
 10
86.73335065109846
 20
-62.84362907688245
 30
0.0
 40
3.5
 41
0.0
 71
     5
 72
     1
  1
\A1;45 [1{\H0.711429x;\S25/32;}"]
  7
Beschlag
 11
0.0000249756615941
 21
0.9999999996881081
 31
0.0
 73
     1
 44
1.0
1001
ACAD
1000
MTEXTBEGIN
1070
    73
1070
     1
1070
    44
1040
1.0
1070
    74
1070
     0
1000
MTEXTEND
  0
POINT
  5
279
330
2D
100
AcDbEntity
  8
Defpoints
 62
     0
100
AcDbPoint
 10
86.89012299999999
 20
-40.34371899999999
 30
0.0
  0
POINT
  5
27A
330
2D
100
AcDbEntity
  8
Defpoints
 62
     0
100
AcDbPoint
 10
93.77743799999999
 20
-85.34371899999998
 30
0.0
  0
POINT
  5
27B
330
2D
100
AcDbEntity
  8
Defpoints
 62
     0
100
AcDbPoint
 10
91.17713904923595
 20
-85.34365405581331
 30
0.0
  0
ENDBLK
  5
112
330
2D
100
AcDbEntity
  8
HAWA1
100
AcDbBlockEnd
  0
BLOCK
  5
113
330
2F
100
AcDbEntity
  8
HAWA1
100
AcDbBlockBegin
  2
*D5
 70
     1
 10
0.0
 20
0.0
 30
0.0
  3
*D5
  1

  0
LINE
  5
269
330
2F
100
AcDbEntity
  8
HAWA1
370
    -2
100
AcDbLine
 10
116.7221373008821
 20
103.0652989997227
 30
0.0
 11
116.722370919796
 21
117.0960933153134
 31
0.0
  0
LINE
  5
26A
330
2F
100
AcDbEntity
  8
HAWA1
370
    -2
100
AcDbLine
 10
113.7221373008821
 20
103.0652989997227
 30
0.0
 11
113.7223709206277
 21
117.0961432666365
 31
0.0
  0
LINE
  5
26B
330
2F
100
AcDbEntity
  8
HAWA1
370
    -2
100
AcDbLine
 10
117.7223542692163
 20
116.0960766650109
 30
0.0
 11
113.7223542701866
 21
116.0961432667752
 31
0.0
  0
LINE
  5
26C
330
2F
100
AcDbEntity
  8
HAWA1
370
    -2
100
AcDbLine
 10
113.7223542701866
 20
116.0961432667752
 30
0.0
 11
100.8891172757855
 21
116.0963569458314
 31
0.0
  0
INSERT
  5
26D
330
2F
100
AcDbEntity
  8
HAWA1
370
    -2
100
AcDbBlockReference
  2
_Oblique
 10
116.7223542693549
 20
116.096093315452
 30
0.0
 41
2.0
 42
2.0
 43
2.0
 50
359.999046
  0
INSERT
  5
26E
330
2F
100
AcDbEntity
  8
HAWA1
370
    -2
100
AcDbBlockReference
  2
_Oblique
 10
113.7223542701866
 20
116.0961432667752
 30
0.0
 41
2.0
 42
2.0
 43
2.0
 50
179.999046
  0
MTEXT
  5
26F
330
2F
100
AcDbEntity
  8
HAWA1
100
AcDbMText
 10
106.3058094058681
 20
120.5185366014588
 30
0.0
 40
3.5
 41
0.0
 71
     5
 72
     1
  1
\A1;3 [{\H0.711429x;\S1/8;}"]
  7
Beschlag
 11
0.9999999998613814
 21
-0.0000166504410634
 31
0.0
 73
     1
 44
1.0
1001
ACAD
1000
MTEXTBEGIN
1070
    73
1070
     1
1070
    44
1040
1.0
1070
    74
1070
     0
1000
MTEXTEND
  0
POINT
  5
270
330
2F
100
AcDbEntity
  8
Defpoints
 62
     0
100
AcDbPoint
 10
116.722104
 20
101.065299
 30
0.0
  0
POINT
  5
271
330
2F
100
AcDbEntity
  8
Defpoints
 62
     0
100
AcDbPoint
 10
113.722104
 20
101.065299
 30
0.0
  0
POINT
  5
272
330
2F
100
AcDbEntity
  8
Defpoints
 62
     0
100
AcDbPoint
 10
113.7223542701866
 20
116.0961432667752
 30
0.0
  0
ENDBLK
  5
11F
330
2F
100
AcDbEntity
  8
HAWA1
100
AcDbBlockEnd
  0
BLOCK
  5
120
330
31
100
AcDbEntity
  8
HAWA1
100
AcDbBlockBegin
  2
*D6
 70
     1
 10
0.0
 20
0.0
 30
0.0
  3
*D6
  1

  0
LINE
  5
2A9
330
31
100
AcDbEntity
  8
HAWA1
370
    -2
100
AcDbLine
 10
28.72203739823575
 20
218.565299001109
 30
0.0
 11
28.7213367365967
 21
197.524966312487
 31
0.0
  0
LINE
  5
2AA
330
31
100
AcDbEntity
  8
HAWA1
370
    -2
100
AcDbLine
 10
113.7220373982357
 20
209.565299001109
 30
0.0
 11
113.721636350275
 21
197.5221357275277
 31
0.0
  0
LINE
  5
2AB
330
31
100
AcDbEntity
  8
HAWA1
370
    -2
100
AcDbLine
 10
27.72137003803329
 20
198.5249996128146
 30
0.0
 11
114.7216696506026
 21
198.522102426091
 31
0.0
  0
INSERT
  5
2AC
330
31
100
AcDbEntity
  8
HAWA1
370
    -2
100
AcDbBlockReference
  2
_Oblique
 10
28.72137003747882
 20
198.5249663119325
 30
0.0
 41
2.0
 42
2.0
 43
2.0
 50
179.998092
  0
INSERT
  5
2AD
330
31
100
AcDbEntity
  8
HAWA1
370
    -2
100
AcDbBlockReference
  2
_Oblique
 10
113.7216696511571
 20
198.5221357269732
 30
0.0
 41
2.0
 42
2.0
 43
2.0
 50
359.998092
  0
MTEXT
  5
2AE
330
31
100
AcDbEntity
  8
HAWA1
100
AcDbMText
 10
71.22162318835837
 20
201.6268934461087
 30
0.0
 40
3.5
 41
0.0
 71
     5
 72
     1
  1
\A1;85{}{%%p0,5}
  7
Beschlag
 11
0.9999999994455256
 21
-0.0000333008821221
 31
0.0
 73
     1
 44
1.0
1001
ACAD
1000
MTEXTBEGIN
1070
    73
1070
     1
1070
    44
1040
1.0
1070
    74
1070
     0
1000
MTEXTEND
  0
POINT
  5
2AF
330
31
100
AcDbEntity
  8
Defpoints
 62
     0
100
AcDbPoint
 10
28.722104
 20
220.565299
 30
0.0
  0
POINT
  5
2B0
330
31
100
AcDbEntity
  8
Defpoints
 62
     0
100
AcDbPoint
 10
113.722104
 20
211.565299
 30
0.0
  0
POINT
  5
2B1
330
31
100
AcDbEntity
  8
Defpoints
 62
     0
100
AcDbPoint
 10
113.7216696511571
 20
198.5221357269732
 30
0.0
  0
ENDBLK
  5
127
330
31
100
AcDbEntity
  8
HAWA1
100
AcDbBlockEnd
  0
BLOCK
  5
128
330
33
100
AcDbEntity
  8
HAWA1
100
AcDbBlockBegin
  2
*D7
 70
     1
 10
0.0
 20
0.0
 30
0.0
  3
*D7
  1

  0
LINE
  5
2B2
330
33
100
AcDbEntity
  8
HAWA1
370
    -2
100
AcDbLine
 10
113.7221373008821
 20
148.5652989997228
 30
0.0
 11
113.7226219355646
 21
177.6717160955642
 31
0.0
  0
LINE
  5
2B3
330
33
100
AcDbEntity
  8
HAWA1
370
    -2
100
AcDbLine
 10
18.72207069911787
 20
243.5090470002773
 30
0.0
 11
18.72094120397558
 21
175.6732979151731
 31
0.0
  0
LINE
  5
2B4
330
33
100
AcDbEntity
  8
HAWA1
370
    -2
100
AcDbLine
 10
114.7226052849849
 20
176.6716994452617
 30
0.0
 11
17.72095785455526
 21
176.6733145654756
 31
0.0
  0
INSERT
  5
2B5
330
33
100
AcDbEntity
  8
HAWA1
370
    -2
100
AcDbBlockReference
  2
_Oblique
 10
113.7226052851235
 20
176.6717160957028
 30
0.0
 41
2.0
 42
2.0
 43
2.0
 50
359.999046
  0
INSERT
  5
2B6
330
33
100
AcDbEntity
  8
HAWA1
370
    -2
100
AcDbBlockReference
  2
_Oblique
 10
18.72095785441664
 20
176.6732979150345
 30
0.0
 41
2.0
 42
2.0
 43
2.0
 50
179.999046
  0
MTEXT
  5
2B7
330
33
100
AcDbEntity
  8
HAWA1
100
AcDbMText
 10
66.2218332417903
 20
179.775849433315
 30
0.0
 40
3.5
 41
0.0
 71
     5
 72
     1
  1
\A1;95{}{%%p0,5}
  7
Beschlag
 11
0.9999999998613814
 21
-0.0000166504410634
 31
0.0
 73
     1
 44
1.0
1001
ACAD
1000
MTEXTBEGIN
1070
    73
1070
     1
1070
    44
1040
1.0
1070
    74
1070
     0
1000
MTEXTEND
  0
POINT
  5
2B8
330
33
100
AcDbEntity
  8
Defpoints
 62
     0
100
AcDbPoint
 10
113.722104
 20
146.565299
 30
0.0
  0
POINT
  5
2B9
330
33
100
AcDbEntity
  8
Defpoints
 62
     0
100
AcDbPoint
 10
18.722104
 20
245.509047
 30
0.0
  0
POINT
  5
2BA
330
33
100
AcDbEntity
  8
Defpoints
 62
     0
100
AcDbPoint
 10
18.72095785441664
 20
176.6732979150345
 30
0.0
  0
ENDBLK
  5
12F
330
33
100
AcDbEntity
  8
HAWA1
100
AcDbBlockEnd
  0
BLOCK
  5
130
330
35
100
AcDbEntity
  8
HAWA1
100
AcDbBlockBegin
  2
*D8
 70
     1
 10
0.0
 20
0.0
 30
0.0
  3
*D8
  1

  0
LINE
  5
2CB
330
35
100
AcDbEntity
  8
HAWA1
370
    -2
100
AcDbLine
 10
16.722104
 20
267.5652990000001
 30
0.0
 11
-18.59833799999991
 21
267.5652990000001
 31
0.0
  0
LINE
  5
2CC
330
35
100
AcDbEntity
  8
HAWA1
370
    -2
100
AcDbLine
 10
16.722104
 20
249.565299
 30
0.0
 11
-18.59833799999992
 21
249.565299
 31
0.0
  0
LINE
  5
2CD
330
35
100
AcDbEntity
  8
HAWA1
370
    -2
100
AcDbLine
 10
-17.59833799999992
 20
268.565299
 30
0.0
 11
-17.59833799999992
 21
248.565299
 31
0.0
  0
INSERT
  5
2CE
330
35
100
AcDbEntity
  8
HAWA1
370
    -2
100
AcDbBlockReference
  2
_Oblique
 10
-17.59833799999992
 20
267.5652990000001
 30
0.0
 41
2.0
 42
2.0
 43
2.0
 50
90.0
  0
INSERT
  5
2CF
330
35
100
AcDbEntity
  8
HAWA1
370
    -2
100
AcDbBlockReference
  2
_Oblique
 10
-17.59833799999992
 20
249.565299
 30
0.0
 41
2.0
 42
2.0
 43
2.0
 50
270.0
  0
MTEXT
  5
2D0
330
35
100
AcDbEntity
  8
HAWA1
100
AcDbMText
 10
-23.14244895952702
 20
257.3989816322466
 30
0.0
 40
3.5
 41
0.0
 71
     5
 72
     1
  1
\A1;%%c18{}{\S+0,5^ 0;}
  7
Beschlag
 11
0.0000000000000001
 21
1.0
 31
0.0
 73
     1
 44
1.0
1001
ACAD
1000
MTEXTBEGIN
1070
    73
1070
     1
1070
    44
1040
1.0
1070
    74
1070
     0
1000
MTEXTEND
  0
POINT
  5
2D1
330
35
100
AcDbEntity
  8
Defpoints
 62
     0
100
AcDbPoint
 10
18.722104
 20
267.5652990000001
 30
0.0
  0
POINT
  5
2D2
330
35
100
AcDbEntity
  8
Defpoints
 62
     0
100
AcDbPoint
 10
18.722104
 20
249.565299
 30
0.0
  0
POINT
  5
2D3
330
35
100
AcDbEntity
  8
Defpoints
 62
     0
100
AcDbPoint
 10
-17.59833799999992
 20
249.565299
 30
0.0
  0
ENDBLK
  5
13A
330
35
100
AcDbEntity
  8
HAWA1
100
AcDbBlockEnd
  0
BLOCK
  5
13B
330
37
100
AcDbEntity
  8
HAWA1
100
AcDbBlockBegin
  2
*D9
 70
     1
 10
0.0
 20
0.0
 30
0.0
  3
*D9
  1

  0
LINE
  5
2D4
330
37
100
AcDbEntity
  8
HAWA1
370
    -2
100
AcDbLine
 10
116.7221373008821
 20
103.0652989997227
 30
0.0
 11
116.7223709240163
 21
117.0963467813753
 31
0.0
  0
LINE
  5
2D5
330
37
100
AcDbEntity
  8
HAWA1
370
    -2
100
AcDbLine
 10
113.7221373008821
 20
103.0652989997227
 30
0.0
 11
113.722370924848
 21
117.0963967326984
 31
0.0
  0
LINE
  5
2D6
330
37
100
AcDbEntity
  8
HAWA1
370
    -2
100
AcDbLine
 10
117.7223542734366
 20
116.0963301310728
 30
0.0
 11
112.7223542745455
 21
116.0964133832781
 31
0.0
  0
INSERT
  5
2D7
330
37
100
AcDbEntity
  8
HAWA1
370
    -2
100
AcDbBlockReference
  2
_Oblique
 10
116.7223542735752
 20
116.0963467815139
 30
0.0
 41
2.0
 42
2.0
 43
2.0
 50
359.999046
  0
INSERT
  5
2D8
330
37
100
AcDbEntity
  8
HAWA1
370
    -2
100
AcDbBlockReference
  2
_Oblique
 10
113.722354274407
 20
116.096396732837
 30
0.0
 41
2.0
 42
2.0
 43
2.0
 50
179.999046
  0
MTEXT
  5
2D9
330
37
100
AcDbEntity
  8
HAWA1
100
AcDbMText
 10
115.2224005596049
 20
118.8762148672949
 30
0.0
 40
3.5
 41
0.0
 71
     5
 72
     1
  1
\A1;-5
  7
Beschlag
 11
0.9999999998613814
 21
-0.0000166504410634
 31
0.0
 73
     1
 44
1.0
1001
ACAD
1000
MTEXTBEGIN
1070
    73
1070
     1
1070
    44
1040
1.0
1070
    74
1070
     0
1000
MTEXTEND
  0
POINT
  5
2DA
330
37
100
AcDbEntity
  8
Defpoints
 62
     0
100
AcDbPoint
 10
116.722104
 20
101.065299
 30
0.0
  0
POINT
  5
2DB
330
37
100
AcDbEntity
  8
Defpoints
 62
     0
100
AcDbPoint
 10
113.722104
 20
101.065299
 30
0.0
  0
POINT
  5
2DC
330
37
100
AcDbEntity
  8
Defpoints
 62
     0
100
AcDbPoint
 10
113.722354274407
 20
116.096396732837
 30
0.0
  0
ENDBLK
  5
148
330
37
100
AcDbEntity
  8
HAWA1
100
AcDbBlockEnd
  0
BLOCK
  5
149
330
39
100
AcDbEntity
  8
HAWA1
100
AcDbBlockBegin
  2
*D10
 70
     1
 10
0.0
 20
0.0
 30
0.0
  3
*D10
  1

  0
LINE
  5
239
330
39
100
AcDbEntity
  8
HAWA1
370
    -2
100
AcDbLine
 10
28.516332
 20
263.0652990000001
 30
0.0
 11
43.32030300000004
 21
263.0652990000001
 31
0.0
  0
LINE
  5
23A
330
39
100
AcDbEntity
  8
HAWA1
370
    -2
100
AcDbLine
 10
28.516332
 20
254.065299
 30
0.0
 11
43.32030300000004
 21
254.065299
 31
0.0
  0
LINE
  5
23B
330
39
100
AcDbEntity
  8
HAWA1
370
    -2
100
AcDbLine
 10
42.32030300000004
 20
264.065299
 30
0.0
 11
42.32030300000004
 21
254.065299
 31
0.0
  0
LINE
  5
23C
330
39
100
AcDbEntity
  8
HAWA1
370
    -2
100
AcDbLine
 10
42.32030300000004
 20
254.065299
 30
0.0
 11
42.32030300000004
 21
239.5208822566849
 31
0.0
  0
INSERT
  5
23D
330
39
100
AcDbEntity
  8
HAWA1
370
    -2
100
AcDbBlockReference
  2
_Oblique
 10
42.32030300000004
 20
263.0652990000001
 30
0.0
 41
2.0
 42
2.0
 43
2.0
 50
90.0
  0
INSERT
  5
23E
330
39
100
AcDbEntity
  8
HAWA1
370
    -2
100
AcDbBlockReference
  2
_Oblique
 10
42.32030300000004
 20
254.065299
 30
0.0
 41
2.0
 42
2.0
 43
2.0
 50
270.0
  0
MTEXT
  5
23F
330
39
100
AcDbEntity
  8
HAWA1
100
AcDbMText
 10
37.89718390450205
 20
245.7930906283424
 30
0.0
 40
3.5
 41
0.0
 71
     5
 72
     1
  1
\A1;9 [{\H0.711429x;\S11/32;}"]
  7
Beschlag
 11
0.0000000000000001
 21
1.0
 31
0.0
 73
     1
 44
1.0
1001
ACAD
1000
MTEXTBEGIN
1070
    73
1070
     1
1070
    44
1040
1.0
1070
    74
1070
     0
1000
MTEXTEND
  0
POINT
  5
240
330
39
100
AcDbEntity
  8
Defpoints
 62
     0
100
AcDbPoint
 10
26.516332
 20
263.0652990000001
 30
0.0
  0
POINT
  5
241
330
39
100
AcDbEntity
  8
Defpoints
 62
     0
100
AcDbPoint
 10
26.516332
 20
254.065299
 30
0.0
  0
POINT
  5
242
330
39
100
AcDbEntity
  8
Defpoints
 62
     0
100
AcDbPoint
 10
42.32030300000004
 20
254.065299
 30
0.0
  0
ENDBLK
  5
155
330
39
100
AcDbEntity
  8
HAWA1
100
AcDbBlockEnd
  0
BLOCK
  5
156
330
3B
100
AcDbEntity
  8
HAWA1
100
AcDbBlockBegin
  2
*D11
 70
     1
 10
0.0
 20
0.0
 30
0.0
  3
*D11
  1

  0
LINE
  5
22F
330
3B
100
AcDbEntity
  8
HAWA1
370
    -2
100
AcDbLine
 10
30.722104
 20
264.065299
 30
0.0
 11
64.05425700000003
 21
264.065299
 31
0.0
  0
LINE
  5
230
330
3B
100
AcDbEntity
  8
HAWA1
370
    -2
100
AcDbLine
 10
30.722104
 20
253.065299
 30
0.0
 11
64.05425700000003
 21
253.065299
 31
0.0
  0
LINE
  5
231
330
3B
100
AcDbEntity
  8
HAWA1
370
    -2
100
AcDbLine
 10
63.05425700000004
 20
265.0652990000001
 30
0.0
 11
63.05425700000004
 21
253.065299
 31
0.0
  0
LINE
  5
232
330
3B
100
AcDbEntity
  8
HAWA1
370
    -2
100
AcDbLine
 10
63.05425700000004
 20
253.065299
 30
0.0
 11
63.05425700000003
 21
236.5580535841405
 31
0.0
  0
INSERT
  5
233
330
3B
100
AcDbEntity
  8
HAWA1
370
    -2
100
AcDbBlockReference
  2
_Oblique
 10
63.05425700000004
 20
264.065299
 30
0.0
 41
2.0
 42
2.0
 43
2.0
 50
90.0
  0
INSERT
  5
234
330
3B
100
AcDbEntity
  8
HAWA1
370
    -2
100
AcDbBlockReference
  2
_Oblique
 10
63.05425700000004
 20
253.065299
 30
0.0
 41
2.0
 42
2.0
 43
2.0
 50
270.0
  0
MTEXT
  5
235
330
3B
100
AcDbEntity
  8
HAWA1
100
AcDbMText
 10
58.65321840893587
 20
243.8116762920703
 30
0.0
 40
3.5
 41
0.0
 71
     5
 72
     1
  1
\A1;11 [{\H0.711429x;\S7/16;}"]
  7
Beschlag
 11
0.0000000000000001
 21
1.0
 31
0.0
 73
     1
 44
1.0
1001
ACAD
1000
MTEXTBEGIN
1070
    73
1070
     1
1070
    44
1040
1.0
1070
    74
1070
     0
1000
MTEXTEND
  0
POINT
  5
236
330
3B
100
AcDbEntity
  8
Defpoints
 62
     0
100
AcDbPoint
 10
28.722104
 20
264.065299
 30
0.0
  0
POINT
  5
237
330
3B
100
AcDbEntity
  8
Defpoints
 62
     0
100
AcDbPoint
 10
28.722104
 20
253.065299
 30
0.0
  0
POINT
  5
238
330
3B
100
AcDbEntity
  8
Defpoints
 62
     0
100
AcDbPoint
 10
63.05425700000004
 20
253.065299
 30
0.0
  0
ENDBLK
  5
164
330
3B
100
AcDbEntity
  8
HAWA1
100
AcDbBlockEnd
  0
BLOCK
  5
165
330
3D
100
AcDbEntity
  8
HAWA1
100
AcDbBlockBegin
  2
*D12
 70
     1
 10
0.0
 20
0.0
 30
0.0
  3
*D12
  1

  0
LINE
  5
2C5
330
3D
100
AcDbEntity
  8
HAWA1
370
    -2
100
AcDbLine
 10
1.588987387319519
 20
206.3645388142715
 30
0.0
 11
29.34578289418265
 21
217.2733015634815
 31
0.0
  0
MTEXT
  5
2C6
330
3D
100
AcDbEntity
  8
HAWA1
100
AcDbMText
 10
8.69038620096461
 20
213.9079290853367
 30
0.0
 40
3.5
 41
0.0
 71
     5
 72
     1
  1
\A1;R9 [R{\H0.711429x;\S11/32;}"]
  7
Beschlag
 11
0.9307023313612017
 21
0.365777487550593
 31
0.0
 73
     1
 44
1.0
1001
ACAD
1000
MTEXTBEGIN
1070
    73
1070
     1
1070
    44
1040
1.0
1070
    74
1070
     0
1000
MTEXTEND
  0
LINE
  5
2C7
330
3D
100
AcDbEntity
  8
HAWA1
370
    -2
100
AcDbLine
 10
37.72210399999999
 20
220.565299
 30
0.0
 11
29.34578289418265
 21
217.2733015634815
 31
0.0
  0
INSERT
  5
2C8
330
3D
100
AcDbEntity
  8
HAWA1
370
    -2
100
AcDbBlockReference
  2
_Oblique
 10
29.34578289418265
 20
217.2733015634815
 30
0.0
 41
2.0
 42
2.0
 43
2.0
 50
21.45543844537268
  0
POINT
  5
2C9
330
3D
100
AcDbEntity
  8
Defpoints
 62
     0
100
AcDbPoint
 10
29.34578289418265
 20
217.2733015634815
 30
0.0
  0
POINT
  5
2CA
330
3D
100
AcDbEntity
  8
Defpoints
 62
     0
100
AcDbPoint
 10
37.72210399999999
 20
220.565299
 30
0.0
  0
ENDBLK
  5
170
330
3D
100
AcDbEntity
  8
HAWA1
100
AcDbBlockEnd
  0
BLOCK
  5
19C
330
19B
100
AcDbEntity
  8
0
100
AcDbBlockBegin
  2
_Oblique
 70
     0
 10
0.0
 20
0.0
 30
0.0
  3
_Oblique
  1

  0
LINE
  5
19D
330
19B
100
AcDbEntity
  8
0
 62
     0
370
    -2
100
AcDbLine
 10
-0.5
 20
-0.5
 30
0.0
 11
0.5
 21
0.5
 31
0.0
  0
ENDBLK
  5
19E
330
19B
100
AcDbEntity
  8
0
100
AcDbBlockEnd
  0
BLOCK
  5
1B0
330
1AF
100
AcDbEntity
  8
0
100
AcDbBlockBegin
  2
HAWA
 70
     0
 10
0.0
 20
0.0
 30
0.0
  3
HAWA
  1

  0
ENDBLK
  5
1B1
330
1AF
100
AcDbEntity
  8
0
100
AcDbBlockEnd
  0
ENDSEC
  0
SECTION
  2
ENTITIES
  0
DIMENSION
  5
26
330
A
100
AcDbEntity
  8
HAWA1
 62
     0
100
AcDbDimension
  2
*D0
 10
93.83699214597768
 20
211.5653790019851
 30
0.0
 11
88.68082175642774
 21
258.5655130716606
 31
0.0
 70
    32
  1
<>{}{\S+1^ 0;}
 71
     5
 42
94.00001055249949
 52
89.999523
  3
HAWA-Strich
100
AcDbAlignedDimension
 13
97.744148
 23
305.565292
 33
0.0
 14
97.00015100000001
 24
211.5653
 34
0.0
 50
269.998569
100
AcDbRotatedDimension
1001
ACAD
1000
DSTYLE
1002
{
1070
   170
1070
     0
1002
}
  0
DIMENSION
  5
28
330
A
100
AcDbEntity
  8
HAWA1
 62
     0
100
AcDbDimension
  2
*D1
 10
113.7243324539825
 20
-18.42495171029396
 30
0.0
 11
88.22369070744668
 21
-15.1810943290916
 31
0.0
 70
    32
 71
     5
 42
51.0014995114173
 52
89.999523
  3
HAWA-Strich
100
AcDbAlignedDimension
 13
62.72210300000001
 23
-40.343719
 33
0.0
 14
113.722104
 24
-85.343719
 34
0.0
 50
359.998092
100
AcDbRotatedDimension
  0
DIMENSION
  5
2A
330
A
100
AcDbEntity
  8
HAWA1
 62
     0
100
AcDbDimension
  2
*D2
 10
-30.65621900000002
 20
-85.34371899999998
 30
0.0
 11
-35.07933809549796
 21
-27.84371899999998
 31
0.0
 70
    33
 71
     5
 42
115.0
 52
89.999523
  3
HAWA-Strich
100
AcDbAlignedDimension
 13
50.22210300000001
 23
29.656281
 33
0.0
 14
50.22210300000001
 24
-85.343719
 34
0.0
  0
DIMENSION
  5
2C
330
A
100
AcDbEntity
  8
HAWA1
 62
     0
100
AcDbDimension
  2
*D3
 10
-7.279295781870873
 20
-112.0926506249752
 30
0.0
 11
53.22147693381325
 21
-107.6756343944386
 31
0.0
 70
    32
 71
     5
 42
121.0013983240583
 52
89.999523
  3
HAWA-Strich
100
AcDbAlignedDimension
 13
113.722104
 23
-112.006104
 33
0.0
 14
-7.277892999999999
 24
-27.843719
 34
0.0
 50
179.999046
100
AcDbRotatedDimension
  0
DIMENSION
  5
2E
330
A
100
AcDbEntity
  8
HAWA1
 62
     0
100
AcDbDimension
  2
*D4
 10
91.17713904923595
 20
-85.34365405581331
 30
0.0
 11
86.73335065109846
 21
-62.84362907688245
 31
0.0
 70
    32
 71
     5
 42
44.99982797071612
 52
89.999523
  3
HAWA-Strich
100
AcDbAlignedDimension
 13
86.89012299999999
 23
-40.343719
 33
0.0
 14
93.77743800000001
 24
-85.343719
 34
0.0
 50
269.998569
100
AcDbRotatedDimension
  0
DIMENSION
  5
30
330
A
100
AcDbEntity
  8
HAWA1
 62
     0
100
AcDbDimension
  2
*D5
 10
113.7223542701866
 20
116.0961432667752
 30
0.0
 11
106.3058094058681
 21
120.5185366014588
 31
0.0
 70
    32
 71
     5
 42
2.999999999584133
 52
89.999523
  3
HAWA-Strich
100
AcDbAlignedDimension
 13
116.722104
 23
101.065299
 33
0.0
 14
113.722104
 24
101.065299
 34
0.0
 50
179.999046
100
AcDbRotatedDimension
  0
DIMENSION
  5
32
330
A
100
AcDbEntity
  8
HAWA1
 62
     0
100
AcDbDimension
  2
*D6
 10
113.7216696511571
 20
198.5221357269732
 30
0.0
 11
71.22162318835837
 21
201.6268934461087
 31
0.0
 70
    32
  1
<>{}{%%p0,5}
 71
     5
 42
85.00029966080878
 52
89.999523
  3
HAWA-Strich
100
AcDbAlignedDimension
 13
28.722104
 23
220.565299
 33
0.0
 14
113.722104
 24
211.565299
 34
0.0
 50
359.998092
100
AcDbRotatedDimension
1001
ACAD
1000
DSTYLE
1002
{
1070
   170
1070
     0
1002
}
  0
DIMENSION
  5
34
330
A
100
AcDbEntity
  8
HAWA1
 62
     0
100
AcDbDimension
  2
*D7
 10
18.72095785441664
 20
176.6732979150345
 30
0.0
 11
66.2218332417903
 21
179.775849433315
 31
0.0
 70
    32
  1
<>{}{%%p0,5}
 71
     5
 42
95.00164744387589
 52
89.999523
  3
HAWA-Strich
100
AcDbAlignedDimension
 13
113.722104
 23
146.565299
 33
0.0
 14
18.722104
 24
245.509047
 34
0.0
 50
179.999046
100
AcDbRotatedDimension
1001
ACAD
1000
DSTYLE
1002
{
1070
   170
1070
     0
1002
}
  0
DIMENSION
  5
36
330
A
100
AcDbEntity
  8
HAWA1
 62
     0
100
AcDbDimension
  2
*D8
 10
-17.59833799999992
 20
249.565299
 30
0.0
 11
-17.59833799999996
 21
257.3989816322466
 31
0.0
 70
   161
  1
%%c<>{}{\S+0,5^ 0;}
 71
     5
 42
18.00000000000003
 52
89.999523
  3
HAWA-Strich
100
AcDbAlignedDimension
 13
18.722104
 23
267.5652990000001
 33
0.0
 14
18.722104
 24
249.565299
 34
0.0
1001
ACAD
1000
DSTYLE
1002
{
1070
   170
1070
     0
1002
}
  0
DIMENSION
  5
38
330
A
100
AcDbEntity
  8
HAWA1
 62
     0
100
AcDbDimension
  2
*D9
 10
113.722354274407
 20
116.096396732837
 30
0.0
 11
115.2223542739911
 21
116.0963717571755
 31
0.0
 70
   160
  1
-5
 71
     5
 42
2.999999999584133
 52
89.999523
  3
HAWA-Strich
100
AcDbAlignedDimension
 13
116.722104
 23
101.065299
 33
0.0
 14
113.722104
 24
101.065299
 34
0.0
 50
179.999046
100
AcDbRotatedDimension
  0
DIMENSION
  5
3A
330
A
100
AcDbEntity
  8
HAWA1
 62
     0
100
AcDbDimension
  2
*D10
 10
42.32030300000004
 20
254.065299
 30
0.0
 11
37.89718390450205
 21
245.7930906283424
 31
0.0
 70
    33
 71
     5
 42
9.000000000000028
 52
89.999523
  3
HAWA-Strich
100
AcDbAlignedDimension
 13
26.516332
 23
263.0652990000001
 33
0.0
 14
26.516332
 24
254.065299
 34
0.0
  0
DIMENSION
  5
3C
330
A
100
AcDbEntity
  8
HAWA1
 62
     0
100
AcDbDimension
  2
*D11
 10
63.05425700000004
 20
253.065299
 30
0.0
 11
58.65321840893587
 21
243.8116762920703
 31
0.0
 70
    33
 71
     5
 42
11.00000000000003
 52
89.999523
  3
HAWA-Strich
100
AcDbAlignedDimension
 13
28.722104
 23
264.065299
 33
0.0
 14
28.722104
 24
253.065299
 34
0.0
  0
DIMENSION
  5
3E
330
A
100
AcDbEntity
  8
HAWA1
 62
     0
100
AcDbDimension
  2
*D12
 10
37.72210399999999
 20
220.565299
 30
0.0
 11
10.3082635908529
 21
209.7913218312686
 31
0.0
 70
   164
 71
     5
 42
9.000000132766956
  3
HAWA-Strich
100
AcDbRadialDimension
 15
29.34578289418265
 25
217.2733015634815
 35
0.0
 40
0.0
  0
POINT
  5
3F
330
A
100
AcDbEntity
  8
Hawa5
 62
     1
100
AcDbPoint
 10
18.722107
 20
267.5653
 30
0.0
  0
POINT
  5
40
330
A
100
AcDbEntity
  8
Hawa5
 62
     1
100
AcDbPoint
 10
18.722107
 20
249.5653
 30
0.0
  0
POINT
  5
41
330
A
100
AcDbEntity
  8
Hawa5
 62
     1
100
AcDbPoint
 10
212.722107
 20
267.5653
 30
0.0
  0
POINT
  5
42
330
A
100
AcDbEntity
  8
Hawa5
 62
     1
100
AcDbPoint
 10
212.722107
 20
249.5653
 30
0.0
  0
LINE
  5
43
330
A
100
AcDbEntity
  8
Hawa5
  6
DASHDOT
 62
     1
 48
0.326406
100
AcDbLine
 10
18.722107
 20
245.509048
 30
0.0
 11
18.722107
 21
258.5653
 31
0.0
  0
LINE
  5
44
330
A
100
AcDbEntity
  8
Hawa5
 62
     1
100
AcDbLine
 10
113.722104
 20
211.5653
 30
0.0
 11
113.722104
 21
146.565299
 31
0.0
  0
LINE
  5
45
330
A
100
AcDbEntity
  8
Hawa5
  6
DASHDOT
 62
     1
 48
0.330293
100
AcDbLine
 10
18.722107
 20
271.777039
 30
0.0
 11
18.722107
 21
258.5653
 31
0.0
  0
LINE
  5
46
330
A
100
AcDbEntity
  8
Hawa5
 62
     1
100
AcDbLine
 10
113.722104
 20
305.565292
 30
0.0
 11
113.722104
 21
335.565292
 31
0.0
  0
LINE
  5
47
330
A
100
AcDbEntity
  8
Hawa5
 62
     1
100
AcDbLine
 10
28.722107
 20
220.5653
 30
0.0
 11
28.722107
 21
253.0653
 31
0.0
  0
LINE
  5
48
330
A
100
AcDbEntity
  8
Hawa5
 62
     1
100
AcDbLine
 10
28.722107
 20
296.565292
 30
0.0
 11
28.722107
 21
264.0653
 31
0.0
  0
LINE
  5
49
330
A
100
AcDbEntity
  8
Hawa5
 62
     1
100
AcDbLine
 10
113.722104
 20
305.565292
 30
0.0
 11
37.722107
 21
305.565292
 31
0.0
  0
LINE
  5
4A
330
A
100
AcDbEntity
  8
Hawa5
  6
DASHDOT
 62
     1
100
AcDbLine
 10
32.774353
 20
258.5653
 30
0.0
 11
-5.445915
 21
258.5653
 31
0.0
  0
LINE
  5
4B
330
A
100
AcDbEntity
  8
Hawa5
 62
     1
100
AcDbLine
 10
112.722104
 20
211.5653
 30
0.0
 11
112.722104
 21
146.565299
 31
0.0
  0
LINE
  5
4C
330
A
100
AcDbEntity
  8
Hawa5
 62
     1
100
AcDbLine
 10
112.722104
 20
305.565292
 30
0.0
 11
112.722104
 21
335.565292
 31
0.0
  0
LINE
  5
4D
330
A
100
AcDbEntity
  8
Hawa5
 62
     1
100
AcDbLine
 10
117.722104
 20
211.5653
 30
0.0
 11
117.722104
 21
146.565299
 31
0.0
  0
LINE
  5
4E
330
A
100
AcDbEntity
  8
Hawa5
  6
DASHDOT
 62
     1
100
AcDbLine
 10
120.577872
 20
258.5653
 30
0.0
 11
182.65731
 21
258.5653
 31
0.0
  0
LINE
  5
4F
330
A
100
AcDbEntity
  8
Hawa5
 62
     1
100
AcDbLine
 10
117.722104
 20
305.565292
 30
0.0
 11
117.722104
 21
335.565292
 31
0.0
  0
LINE
  5
50
330
A
100
AcDbEntity
  8
Hawa5
 62
     1
100
AcDbLine
 10
117.722104
 20
211.5653
 30
0.0
 11
193.722107
 21
211.5653
 31
0.0
  0
LINE
  5
51
330
A
100
AcDbEntity
  8
Hawa5
 62
     1
100
AcDbLine
 10
117.722104
 20
305.565292
 30
0.0
 11
193.722107
 21
305.565292
 31
0.0
  0
LINE
  5
52
330
A
100
AcDbEntity
  8
Hawa5
 62
     1
100
AcDbLine
 10
118.722104
 20
211.5653
 30
0.0
 11
118.722104
 21
146.565299
 31
0.0
  0
LINE
  5
53
330
A
100
AcDbEntity
  8
Hawa5
 62
     1
100
AcDbLine
 10
118.722104
 20
305.565292
 30
0.0
 11
118.722104
 21
335.565292
 31
0.0
  0
LINE
  5
54
330
A
100
AcDbEntity
  8
Hawa5
 62
     1
100
AcDbLine
 10
113.722104
 20
211.5653
 30
0.0
 11
37.722107
 21
211.5653
 31
0.0
  0
LINE
  5
55
330
A
100
AcDbEntity
  8
Hawa5
 62
     1
100
AcDbLine
 10
-33.922623
 20
102.0653
 30
0.0
 11
112.722104
 21
102.0653
 31
0.0
  0
LINE
  5
56
330
A
100
AcDbEntity
  8
Hawa5
 62
     1
100
AcDbLine
 10
-33.922623
 20
92.06529999999998
 30
0.0
 11
112.722104
 21
92.06529999999998
 31
0.0
  0
LINE
  5
57
330
A
100
AcDbEntity
  8
Hawa5
 62
     1
100
AcDbLine
 10
254.57724
 20
102.0653
 30
0.0
 11
117.722104
 21
102.0653
 31
0.0
  0
LINE
  5
58
330
A
100
AcDbEntity
  8
Hawa5
 62
     1
100
AcDbLine
 10
254.57724
 20
92.06529999999998
 30
0.0
 11
117.722104
 21
92.06529999999998
 31
0.0
  0
LINE
  5
59
330
A
100
AcDbEntity
  8
Hawa5
 62
     1
 48
0.2
100
AcDbLine
 10
116.722104
 20
93.0653
 30
0.0
 11
116.722104
 21
101.0653
 31
0.0
  0
LINE
  5
5A
330
A
100
AcDbEntity
  8
Hawa5
  6
DASHED
 62
     1
 48
0.25
100
AcDbLine
 10
28.722107
 20
102.0653
 30
0.0
 11
28.722107
 21
92.06529999999998
 31
0.0
  0
LINE
  5
5B
330
A
100
AcDbEntity
  8
Hawa6
 62
     3
100
AcDbLine
 10
50.22210300000001
 20
20.413849
 30
0.0
 11
113.222104
 21
20.413849
 31
0.0
  0
LINE
  5
5C
330
A
100
AcDbEntity
  8
Hawa6
 62
     3
100
AcDbLine
 10
113.222104
 20
29.656281
 30
0.0
 11
50.22210300000001
 21
29.656281
 31
0.0
  0
LINE
  5
5D
330
A
100
AcDbEntity
  8
Hawa6
 62
     3
100
AcDbLine
 10
113.222104
 20
-85.343719
 30
0.0
 11
50.22210300000001
 21
-85.343719
 31
0.0
  0
LINE
  5
5E
330
A
100
AcDbEntity
  8
Hawa6
 62
     3
100
AcDbLine
 10
50.22210300000001
 20
-76.101288
 30
0.0
 11
113.222104
 21
-76.101288
 31
0.0
  0
LINE
  5
5F
330
A
100
AcDbEntity
  8
Hawa6
 62
     3
 48
0.314385
100
AcDbLine
 10
57.62210500000001
 20
-59.84371899999999
 30
0.0
 11
57.62210500000001
 21
-47.268311
 31
0.0
  0
LINE
  5
60
330
A
100
AcDbEntity
  8
Hawa6
 62
     3
 48
0.314385
100
AcDbLine
 10
67.82210500000001
 20
-59.84371899999999
 30
0.0
 11
67.82210500000001
 21
-47.268311
 31
0.0
  0
LINE
  5
61
330
A
100
AcDbEntity
  8
Hawa6
 62
     3
100
AcDbLine
 10
181.222107
 20
-76.101288
 30
0.0
 11
118.222104
 21
-76.101288
 31
0.0
  0
LINE
  5
62
330
A
100
AcDbEntity
  8
Hawa6
 62
     3
100
AcDbLine
 10
118.222104
 20
-85.343719
 30
0.0
 11
181.222107
 21
-85.343719
 31
0.0
  0
LINE
  5
63
330
A
100
AcDbEntity
  8
Hawa6
 62
     3
100
AcDbLine
 10
118.222104
 20
29.656281
 30
0.0
 11
181.222107
 21
29.656281
 31
0.0
  0
LINE
  5
64
330
A
100
AcDbEntity
  8
Hawa6
 62
     3
100
AcDbLine
 10
181.222107
 20
20.413849
 30
0.0
 11
118.222104
 21
20.413849
 31
0.0
  0
LINE
  5
65
330
A
100
AcDbEntity
  8
Hawa5
 62
     1
100
AcDbLine
 10
113.722104
 20
29.656281
 30
0.0
 11
113.722104
 21
57.42456800000001
 31
0.0
  0
LINE
  5
66
330
A
100
AcDbEntity
  8
Hawa5
 62
     1
100
AcDbLine
 10
117.722104
 20
29.656281
 30
0.0
 11
117.722104
 21
57.42456800000001
 31
0.0
  0
LINE
  5
67
330
A
100
AcDbEntity
  8
Hawa5
 62
     1
100
AcDbLine
 10
117.722104
 20
-112.006104
 30
0.0
 11
117.722104
 21
-85.343719
 31
0.0
  0
LINE
  5
68
330
A
100
AcDbEntity
  8
Hawa5
 62
     1
100
AcDbLine
 10
113.722104
 20
-112.006104
 30
0.0
 11
113.722104
 21
-85.343719
 31
0.0
  0
LINE
  5
69
330
A
100
AcDbEntity
  8
Hawa6
 62
     3
 48
0.0175
100
AcDbLine
 10
117.522104
 20
-85.343719
 30
0.0
 11
118.222104
 21
-85.343719
 31
0.0
  0
LINE
  5
6A
330
A
100
AcDbEntity
  8
Hawa6
 62
     3
100
AcDbLine
 10
116.722104
 20
-58.84371899999999
 30
0.0
 11
116.722104
 21
-84.54371599999999
 31
0.0
  0
LINE
  5
6B
330
A
100
AcDbEntity
  8
Hawa6
 62
     3
100
AcDbLine
 10
113.222104
 20
29.656281
 30
0.0
 11
113.222104
 21
-85.343719
 31
0.0
  0
LINE
  5
6C
330
A
100
AcDbEntity
  8
Hawa6
 62
     3
 48
0.0175
100
AcDbLine
 10
117.522104
 20
29.656281
 30
0.0
 11
118.222104
 21
29.656281
 31
0.0
  0
LINE
  5
6D
330
A
100
AcDbEntity
  8
Hawa6
 62
     3
 48
0.265
100
AcDbLine
 10
116.722104
 20
11.256287
 30
0.0
 11
116.722104
 21
0.656281
 31
0.0
  0
LINE
  5
6E
330
A
100
AcDbEntity
  8
Hawa6
  6
DASHDOT
 62
     3
 48
0.096164
100
AcDbLine
 10
116.056344
 20
-36.843719
 30
0.0
 11
112.209795
 21
-36.843719
 31
0.0
  0
LINE
  5
6F
330
A
100
AcDbEntity
  8
Hawa6
 62
     3
100
AcDbLine
 10
114.722104
 20
0.656281
 30
0.0
 11
114.722104
 21
-36.843719
 31
0.0
  0
LINE
  5
70
330
A
100
AcDbEntity
  8
Hawa6
 62
     3
100
AcDbLine
 10
116.722104
 20
-36.843719
 30
0.0
 11
116.722104
 21
-58.84371899999999
 31
0.0
  0
LINE
  5
71
330
A
100
AcDbEntity
  8
Hawa6
 62
     3
100
AcDbLine
 10
116.722104
 20
0.656281
 30
0.0
 11
116.722104
 21
-36.843719
 31
0.0
  0
LINE
  5
72
330
A
100
AcDbEntity
  8
Hawa6
  6
DASHDOT
 62
     3
 48
0.096164
100
AcDbLine
 10
114.387864
 20
-36.843719
 30
0.0
 11
118.234412
 21
-36.843719
 31
0.0
  0
LINE
  5
73
330
A
100
AcDbEntity
  8
Hawa6
 62
     3
 48
0.4400000000000001
100
AcDbLine
 10
114.722104
 20
28.856277
 30
0.0
 11
114.722104
 21
11.256287
 31
0.0
  0
LINE
  5
74
330
A
100
AcDbEntity
  8
Hawa6
 62
     3
100
AcDbLine
 10
114.722104
 20
-58.84371899999999
 30
0.0
 11
114.722104
 21
-84.54371599999999
 31
0.0
  0
LINE
  5
75
330
A
100
AcDbEntity
  8
Hawa6
 62
     3
100
AcDbLine
 10
114.722104
 20
-36.843719
 30
0.0
 11
114.722104
 21
-58.84371899999999
 31
0.0
  0
LINE
  5
76
330
A
100
AcDbEntity
  8
Hawa6
 62
     3
 48
0.265
100
AcDbLine
 10
114.722104
 20
11.256287
 30
0.0
 11
114.722104
 21
0.656281
 31
0.0
  0
LINE
  5
77
330
A
100
AcDbEntity
  8
Hawa6
 62
     3
100
AcDbLine
 10
118.222104
 20
29.656281
 30
0.0
 11
118.222104
 21
-85.343719
 31
0.0
  0
LINE
  5
78
330
A
100
AcDbEntity
  8
Hawa6
 62
     3
 48
0.0175
100
AcDbLine
 10
113.922104
 20
29.656281
 30
0.0
 11
113.222104
 21
29.656281
 31
0.0
  0
LINE
  5
79
330
A
100
AcDbEntity
  8
Hawa6
 62
     3
 48
0.0175
100
AcDbLine
 10
113.922104
 20
-85.343719
 30
0.0
 11
113.222104
 21
-85.343719
 31
0.0
  0
LINE
  5
7A
330
A
100
AcDbEntity
  8
Hawa6
 62
     3
 48
0.015
100
AcDbLine
 10
115.322104
 20
-32.843719
 30
0.0
 11
114.722104
 21
-32.843719
 31
0.0
  0
LINE
  5
7B
330
A
100
AcDbEntity
  8
Hawa6
 62
     3
 48
0.015
100
AcDbLine
 10
115.322104
 20
-40.84371899999999
 30
0.0
 11
114.722104
 21
-40.84371899999999
 31
0.0
  0
LINE
  5
7C
330
A
100
AcDbEntity
  8
Hawa6
 62
     3
 48
0.2
100
AcDbLine
 10
115.322104
 20
-40.84371899999999
 30
0.0
 11
115.322104
 21
-32.843719
 31
0.0
  0
LINE
  5
7D
330
A
100
AcDbEntity
  8
Hawa6
 62
     3
 48
0.4400000000000001
100
AcDbLine
 10
116.722104
 20
28.856277
 30
0.0
 11
116.722104
 21
11.256287
 31
0.0
  0
LINE
  5
7E
330
A
100
AcDbEntity
  8
Hawa6
  6
DASHDOT
 62
     3
 48
0.326406
100
AcDbLine
 10
62.72210300000001
 20
-27.287476
 30
0.0
 11
62.72210300000001
 21
-40.343719
 31
0.0
  0
LINE
  5
7F
330
A
100
AcDbEntity
  8
Hawa6
  6
DASHDOT
 62
     3
 48
0.330294
100
AcDbLine
 10
62.72210300000001
 20
-53.555466
 30
0.0
 11
62.72210300000001
 21
-40.343719
 31
0.0
  0
LINE
  5
80
330
A
100
AcDbEntity
  8
Hawa6
  6
DASHDOT
 62
     3
100
AcDbLine
 10
38.095406
 20
-40.343719
 30
0.0
 11
86.89012299999999
 21
-40.343719
 31
0.0
  0
LINE
  5
81
330
A
100
AcDbEntity
  8
Hawa5
 62
     1
 48
0.2
100
AcDbLine
 10
113.722104
 20
93.0653
 30
0.0
 11
113.722104
 21
101.0653
 31
0.0
  0
LINE
  5
82
330
A
100
AcDbEntity
  8
Hawa5
 62
     1
 48
0.035355
100
AcDbLine
 10
116.722104
 20
93.0653
 30
0.0
 11
117.722104
 21
92.06529999999998
 31
0.0
  0
LINE
  5
83
330
A
100
AcDbEntity
  8
Hawa5
 62
     1
 48
0.035355
100
AcDbLine
 10
116.722104
 20
101.0653
 30
0.0
 11
117.722104
 21
102.0653
 31
0.0
  0
LINE
  5
84
330
A
100
AcDbEntity
  8
Hawa5
 62
     1
 48
0.035355
100
AcDbLine
 10
112.722104
 20
102.0653
 30
0.0
 11
113.722104
 21
101.0653
 31
0.0
  0
LINE
  5
85
330
A
100
AcDbEntity
  8
Hawa5
 62
     1
 48
0.035355
100
AcDbLine
 10
112.722104
 20
92.06529999999998
 30
0.0
 11
113.722104
 21
93.0653
 31
0.0
  0
LINE
  5
86
330
A
100
AcDbEntity
  8
Hawa5
 62
     1
100
AcDbLine
 10
136.15855
 20
-117.581818
 30
0.0
 11
153.906948
 21
-99.833435
 31
0.0
  0
LINE
  5
87
330
A
100
AcDbEntity
  8
Hawa5
 62
     1
 48
0.277138
100
AcDbLine
 10
136.273827
 20
-108.981262
 30
0.0
 11
144.112469
 21
-101.142624
 31
0.0
  0
LINE
  5
88
330
A
100
AcDbEntity
  8
Hawa5
 62
     1
 48
0.264197
100
AcDbLine
 10
145.562271
 20
-116.663391
 30
0.0
 11
153.034904
 21
-109.190765
 31
0.0
  0
LINE
  5
89
330
A
100
AcDbEntity
  8
Hawa5
 62
     1
100
AcDbLine
 10
118.722104
 20
29.656281
 30
0.0
 11
118.722104
 21
57.42456800000001
 31
0.0
  0
LINE
  5
8A
330
A
100
AcDbEntity
  8
Hawa5
 62
     1
100
AcDbLine
 10
112.722104
 20
29.656281
 30
0.0
 11
112.722104
 21
57.42456800000001
 31
0.0
  0
LINE
  5
8B
330
A
100
AcDbEntity
  8
Hawa5
 62
     1
100
AcDbLine
 10
118.722104
 20
-112.006104
 30
0.0
 11
118.722104
 21
-85.343719
 31
0.0
  0
LINE
  5
8C
330
A
100
AcDbEntity
  8
Hawa5
 62
     1
100
AcDbLine
 10
112.722104
 20
-110.572632
 30
0.0
 11
112.722104
 21
-85.343719
 31
0.0
  0
LINE
  5
8D
330
A
100
AcDbEntity
  8
Hawa5
  6
PHANTOM
 62
     1
 48
0.4898470000000001
100
AcDbLine
 10
254.57724
 20
106.659195
 30
0.0
 11
254.57724
 21
87.06529999999998
 31
0.0
  0
LINE
  5
8E
330
A
100
AcDbEntity
  8
Hawa5
  6
PHANTOM
 62
     1
 48
0.392996
100
AcDbLine
 10
-33.922623
 20
107.785156
 30
0.0
 11
-33.922623
 21
92.06529999999998
 31
0.0
  0
LINE
  5
8F
330
A
100
AcDbEntity
  8
Hawa5
  6
PHANTOM
 62
     1
100
AcDbLine
 10
-33.922623
 20
107.0653
 30
0.0
 11
-33.922623
 21
87.06529999999998
 31
0.0
  0
LINE
  5
90
330
A
100
AcDbEntity
  8
Hawa5
  6
PHANTOM
 62
     1
100
AcDbLine
 10
115.722104
 20
146.565299
 30
0.0
 11
115.722104
 21
334.093918
 31
0.0
  0
LINE
  5
91
330
A
100
AcDbEntity
  8
Hawa5
 62
     1
 48
0.264197
100
AcDbLine
 10
225.351181
 20
36.338562
 30
0.0
 11
232.823814
 21
43.811188
 31
0.0
  0
LINE
  5
92
330
A
100
AcDbEntity
  8
Hawa5
 62
     1
 48
0.277138
100
AcDbLine
 10
216.062737
 20
44.020676
 30
0.0
 11
223.901382
 21
51.85932199999999
 31
0.0
  0
LINE
  5
93
330
A
100
AcDbEntity
  8
Hawa5
 62
     1
100
AcDbLine
 10
215.947464
 20
35.42012000000001
 30
0.0
 11
233.695862
 21
53.16851800000001
 31
0.0
  0
LINE
  5
94
330
A
100
AcDbEntity
  8
Hawa5
 62
     1
 48
0.264197
100
AcDbLine
 10
85.30270599999999
 20
39.885033
 30
0.0
 11
92.775338
 21
47.35766599999999
 31
0.0
  0
LINE
  5
95
330
A
100
AcDbEntity
  8
Hawa5
 62
     1
 48
0.277138
100
AcDbLine
 10
76.01426100000001
 20
47.567154
 30
0.0
 11
83.85290299999999
 21
55.405792
 31
0.0
  0
LINE
  5
96
330
A
100
AcDbEntity
  8
Hawa5
 62
     1
100
AcDbLine
 10
75.898985
 20
38.96659099999999
 30
0.0
 11
93.647384
 21
56.714996
 31
0.0
  0
LINE
  5
97
330
A
100
AcDbEntity
  8
Hawa5
 62
     1
 48
0.264197
100
AcDbLine
 10
14.847511
 20
-107.700073
 30
0.0
 11
22.320137
 21
-100.227432
 31
0.0
  0
LINE
  5
98
330
A
100
AcDbEntity
  8
Hawa5
 62
     1
 48
0.277138
100
AcDbLine
 10
5.559066999999999
 20
-100.017944
 30
0.0
 11
13.397705
 21
-92.179306
 31
0.0
  0
LINE
  5
99
330
A
100
AcDbEntity
  8
Hawa5
 62
     1
100
AcDbLine
 10
5.443787
 20
-108.6185
 30
0.0
 11
23.192184
 21
-90.87010199999999
 31
0.0
  0
LINE
  5
9A
330
A
100
AcDbEntity
  8
Hawa5
  6
PHANTOM
 62
     1
100
AcDbLine
 10
254.57724
 20
335.565292
 30
0.0
 11
-33.922623
 21
335.565292
 31
0.0
  0
LINE
  5
9B
330
A
100
AcDbEntity
  8
Hawa5
  6
PHANTOM
 62
     1
 48
0.261574
100
AcDbLine
 10
-33.922623
 20
146.565299
 30
0.0
 11
-23.459656
 21
146.565299
 31
0.0
  0
LINE
  5
9C
330
A
100
AcDbEntity
  8
Hawa5
  6
PHANTOM
 62
     1
100
AcDbLine
 10
254.57724
 20
335.565292
 30
0.0
 11
254.57724
 21
194.666016
 31
0.0
  0
LINE
  5
9D
330
A
100
AcDbEntity
  8
Hawa5
  6
PHANTOM
 62
     1
100
AcDbLine
 10
-33.922623
 20
335.565292
 30
0.0
 11
-33.922623
 21
146.565299
 31
0.0
  0
LINE
  5
9E
330
A
100
AcDbEntity
  8
Hawa5
 62
     1
 48
0.264197
100
AcDbLine
 10
229.735672
 20
307.335815
 30
0.0
 11
237.208298
 21
314.808441
 31
0.0
  0
LINE
  5
9F
330
A
100
AcDbEntity
  8
Hawa5
 62
     1
 48
0.277138
100
AcDbLine
 10
220.447227
 20
315.017929
 30
0.0
 11
228.285866
 21
322.856567
 31
0.0
  0
LINE
  5
A0
330
A
100
AcDbEntity
  8
Hawa5
 62
     1
100
AcDbLine
 10
220.331947
 20
306.417374
 30
0.0
 11
238.080353
 21
324.165771
 31
0.0
  0
LINE
  5
A1
330
A
100
AcDbEntity
  8
Hawa5
 62
     1
 48
0.277138
100
AcDbLine
 10
133.235359
 20
180.235956
 30
0.0
 11
141.074001
 21
188.0746
 31
0.0
  0
LINE
  5
A2
330
A
100
AcDbEntity
  8
Hawa5
 62
     1
 48
0.264197
100
AcDbLine
 10
142.523804
 20
172.553839
 30
0.0
 11
149.996437
 21
180.0264699999999
 31
0.0
  0
LINE
  5
A3
330
A
100
AcDbEntity
  8
Hawa5
 62
     1
100
AcDbLine
 10
133.120085
 20
171.635399
 30
0.0
 11
150.868484
 21
189.383797
 31
0.0
  0
LINE
  5
A4
330
A
100
AcDbEntity
  8
Hawa5
 62
     1
 48
0.264198
100
AcDbLine
 10
81.07908100000001
 20
312.291031
 30
0.0
 11
88.55171400000001
 21
319.7636720000001
 31
0.0
  0
LINE
  5
A5
330
A
100
AcDbEntity
  8
Hawa5
 62
     1
 48
0.277138
100
AcDbLine
 10
71.790634
 20
319.9731450000001
 30
0.0
 11
79.629278
 21
327.811798
 31
0.0
  0
LINE
  5
A6
330
A
100
AcDbEntity
  8
Hawa5
 62
     1
100
AcDbLine
 10
71.67536199999999
 20
311.372589
 30
0.0
 11
89.423759
 21
329.120987
 31
0.0
  0
LINE
  5
A7
330
A
100
AcDbEntity
  8
Hawa5
 62
     1
100
AcDbLine
 10
-13.221085
 20
171.959768
 30
0.0
 11
4.527320999999999
 21
189.708168
 31
0.0
  0
LINE
  5
A8
330
A
100
AcDbEntity
  8
Hawa5
 62
     1
 48
0.277138
100
AcDbLine
 10
-13.105804
 20
180.560326
 30
0.0
 11
-5.267158999999999
 21
188.398968
 31
0.0
  0
LINE
  5
A9
330
A
100
AcDbEntity
  8
Hawa5
 62
     1
 48
0.264197
100
AcDbLine
 10
-3.817359999999999
 20
172.878208
 30
0.0
 11
3.655273
 21
180.35084
 31
0.0
  0
ARC
  5
AA
330
A
100
AcDbEntity
  8
Hawa5
 62
     1
100
AcDbCircle
 10
18.722107
 20
258.5653
 30
0.0
 40
9.0
100
AcDbArc
 50
30.0
 51
329.999989
  0
ARC
  5
AB
330
A
100
AcDbEntity
  8
Hawa5
 62
     1
100
AcDbCircle
 10
37.722107
 20
296.565292
 30
0.0
 40
9.0
100
AcDbArc
 50
90.00000300000001
 51
180.000005
  0
ARC
  5
AC
330
A
100
AcDbEntity
  8
Hawa5
 62
     1
100
AcDbCircle
 10
37.722107
 20
220.5653
 30
0.0
 40
9.0
100
AcDbArc
 50
179.999991
 51
270.000001
  0
ARC
  5
AD
330
A
100
AcDbEntity
  8
Hawa5
 62
     1
100
AcDbCircle
 10
193.722107
 20
296.565292
 30
0.0
 40
9.0
100
AcDbArc
 50
0.00001
 51
90.00000300000001
  0
ARC
  5
AE
330
A
100
AcDbEntity
  8
Hawa5
 62
     1
100
AcDbCircle
 10
193.722107
 20
220.5653
 30
0.0
 40
9.0
100
AcDbArc
 50
270.000001
 51
0.00001
  0
ARC
  5
AF
330
A
100
AcDbEntity
  8
Hawa6
 62
     3
100
AcDbCircle
 10
50.22210300000001
 20
-27.843719
 30
0.0
 40
48.257568
100
AcDbArc
 50
90.00000300000001
 51
180.000005
  0
ARC
  5
B0
330
A
100
AcDbEntity
  8
Hawa6
 62
     3
100
AcDbCircle
 10
50.22210300000001
 20
-27.843719
 30
0.0
 40
57.5
100
AcDbArc
 50
90.00000300000001
 51
180.000005
  0
ARC
  5
B1
330
A
100
AcDbEntity
  8
Hawa6
 62
     3
100
AcDbCircle
 10
50.22210300000001
 20
-27.843719
 30
0.0
 40
57.5
100
AcDbArc
 50
179.999991
 51
270.000001
  0
ARC
  5
B2
330
A
100
AcDbEntity
  8
Hawa6
 62
     3
100
AcDbCircle
 10
50.22210300000001
 20
-27.843719
 30
0.0
 40
48.257568
100
AcDbArc
 50
179.999991
 51
270.000001
  0
ARC
  5
B3
330
A
100
AcDbEntity
  8
Hawa6
 62
     3
100
AcDbCircle
 10
62.72210300000001
 20
-40.343719
 30
0.0
 40
8.599999999999999
100
AcDbArc
 50
306.37185
 51
233.62815
  0
ARC
  5
B4
330
A
100
AcDbEntity
  8
Hawa6
 62
     3
100
AcDbCircle
 10
62.72210300000001
 20
-59.84371899999999
 30
0.0
 40
5.099999999999999
100
AcDbArc
 50
179.999991
 51
360.0
  0
ARC
  5
B5
330
A
100
AcDbEntity
  8
Hawa6
 62
     3
100
AcDbCircle
 10
181.222107
 20
-27.843719
 30
0.0
 40
48.257568
100
AcDbArc
 50
270.000001
 51
0.00001
  0
ARC
  5
B6
330
A
100
AcDbEntity
  8
Hawa6
 62
     3
100
AcDbCircle
 10
181.222107
 20
-27.843719
 30
0.0
 40
57.5
100
AcDbArc
 50
270.000001
 51
0.00001
  0
ARC
  5
B7
330
A
100
AcDbEntity
  8
Hawa6
 62
     3
100
AcDbCircle
 10
181.222107
 20
-27.843719
 30
0.0
 40
57.5
100
AcDbArc
 50
0.0
 51
90.00000300000001
  0
ARC
  5
B8
330
A
100
AcDbEntity
  8
Hawa6
 62
     3
100
AcDbCircle
 10
181.222107
 20
-27.843719
 30
0.0
 40
48.257568
100
AcDbArc
 50
0.0
 51
90.00000300000001
  0
ARC
  5
B9
330
A
100
AcDbEntity
  8
Hawa6
 62
     3
100
AcDbCircle
 10
117.522104
 20
-84.54371599999999
 30
0.0
 40
0.8
100
AcDbArc
 50
180.000005
 51
270.000001
  0
ARC
  5
BA
330
A
100
AcDbEntity
  8
Hawa6
 62
     3
100
AcDbCircle
 10
117.522104
 20
28.856277
 30
0.0
 40
0.8
100
AcDbArc
 50
90.00000300000001
 51
180.000005
  0
ARC
  5
BB
330
A
100
AcDbEntity
  8
Hawa6
 62
     3
100
AcDbCircle
 10
113.922104
 20
28.856277
 30
0.0
 40
0.8
100
AcDbArc
 50
0.0
 51
90.00000300000001
  0
ARC
  5
BC
330
A
100
AcDbEntity
  8
Hawa6
 62
     3
100
AcDbCircle
 10
113.922104
 20
-84.54371599999999
 30
0.0
 40
0.8
100
AcDbArc
 50
270.000001
 51
360.0
  0
ARC
  5
BD
330
A
100
AcDbEntity
  8
Hawa6
 62
     3
100
AcDbCircle
 10
111.670462
 20
-36.843719
 30
0.0
 40
5.416132
100
AcDbArc
 50
312.393292
 51
338.860138
  0
ARC
  5
BE
330
A
100
AcDbEntity
  8
Hawa6
 62
     3
100
AcDbCircle
 10
111.670462
 20
-36.843719
 30
0.0
 40
5.416132
100
AcDbArc
 50
21.139867
 51
47.60672299999999
  0
LINE
  5
BF
330
A
100
AcDbEntity
  8
HAWA1
 48
0.05
100
AcDbLine
 10
113.722104
 20
-85.343719
 30
0.0
 11
113.722104
 21
-87.34371899999999
 31
0.0
  0
LINE
  5
C0
330
A
100
AcDbEntity
  8
HAWA1
 48
0.05
100
AcDbLine
 10
50.22210300000001
 20
-85.343719
 30
0.0
 11
52.222103
 21
-85.343719
 31
0.0
  0
LINE
  5
C1
330
A
100
AcDbEntity
  8
HAWA1
 48
0.05
100
AcDbLine
 10
113.722104
 20
-112.006104
 30
0.0
 11
113.722104
 21
-110.006104
 31
0.0
  0
LINE
  5
C2
330
A
100
AcDbEntity
  8
HAWA1
 48
0.05
100
AcDbLine
 10
93.77743800000001
 20
-85.343719
 30
0.0
 11
95.777438
 21
-85.343719
 31
0.0
  0
LINE
  5
C3
330
A
100
AcDbEntity
  8
Hawa5
 62
     1
 48
0.060547
100
AcDbLine
 10
26.516335
 20
263.0653
 30
0.0
 11
28.722107
 21
264.0653
 31
0.0
  0
LINE
  5
C4
330
A
100
AcDbEntity
  8
Hawa5
 62
     1
 48
0.060547
100
AcDbLine
 10
26.516335
 20
254.0653
 30
0.0
 11
28.722107
 21
253.0653
 31
0.0
  0
LINE
  5
C5
330
A
100
AcDbEntity
  8
Hawa5
  6
DASHDOT
 62
     1
 48
0.326406
100
AcDbLine
 10
212.722107
 20
245.509048
 30
0.0
 11
212.722107
 21
258.5653
 31
0.0
  0
LINE
  5
C6
330
A
100
AcDbEntity
  8
Hawa5
  6
DASHDOT
 62
     1
 48
0.330293
100
AcDbLine
 10
212.722107
 20
271.777039
 30
0.0
 11
212.722107
 21
258.5653
 31
0.0
  0
LINE
  5
C7
330
A
100
AcDbEntity
  8
Hawa5
 62
     1
100
AcDbLine
 10
202.722107
 20
220.5653
 30
0.0
 11
202.722107
 21
253.0653
 31
0.0
  0
LINE
  5
C8
330
A
100
AcDbEntity
  8
Hawa5
 62
     1
100
AcDbLine
 10
202.722107
 20
296.565292
 30
0.0
 11
202.722107
 21
264.0653
 31
0.0
  0
ARC
  5
C9
330
A
100
AcDbEntity
  8
Hawa5
 62
     1
100
AcDbCircle
 10
212.722107
 20
258.5653
 30
0.0
 40
9.0
100
AcDbArc
 50
209.999999
 51
149.999997
  0
LINE
  5
CA
330
A
100
AcDbEntity
  8
Hawa5
 62
     1
 48
0.060546
100
AcDbLine
 10
204.927872
 20
263.0653
 30
0.0
 11
202.722107
 21
264.0653
 31
0.0
  0
LINE
  5
CB
330
A
100
AcDbEntity
  8
Hawa5
 62
     1
 48
0.060546
100
AcDbLine
 10
204.927872
 20
254.0653
 30
0.0
 11
202.722107
 21
253.0653
 31
0.0
  0
LINE
  5
CC
330
A
100
AcDbEntity
  8
Hawa5
  6
DASHDOT
 62
     1
100
AcDbLine
 10
190.595406
 20
258.5653
 30
0.0
 11
236.890121
 21
258.5653
 31
0.0
  0
LINE
  5
CD
330
A
100
AcDbEntity
  8
Hawa5
  6
DASHED
 62
     1
 48
0.25
100
AcDbLine
 10
26.516335
 20
102.0653
 30
0.0
 11
26.516335
 21
92.06529999999998
 31
0.0
  0
LINE
  5
CE
330
A
100
AcDbEntity
  8
Hawa5
  6
DASHED
 62
     1
 48
0.25
100
AcDbLine
 10
9.722107000000001
 20
102.0653
 30
0.0
 11
9.722107000000001
 21
92.06529999999998
 31
0.0
  0
LINE
  5
CF
330
A
100
AcDbEntity
  8
Hawa5
  6
DASHED
 62
     1
 48
0.25
100
AcDbLine
 10
202.722107
 20
102.0653
 30
0.0
 11
202.722107
 21
92.06529999999998
 31
0.0
  0
LINE
  5
D0
330
A
100
AcDbEntity
  8
Hawa5
  6
DASHED
 62
     1
 48
0.25
100
AcDbLine
 10
204.927872
 20
102.0653
 30
0.0
 11
204.927872
 21
92.06529999999998
 31
0.0
  0
LINE
  5
D1
330
A
100
AcDbEntity
  8
Hawa5
  6
DASHED
 62
     1
 48
0.25
100
AcDbLine
 10
221.722107
 20
102.0653
 30
0.0
 11
221.722107
 21
92.06529999999998
 31
0.0
  0
LINE
  5
D2
330
A
100
AcDbEntity
  8
Hawa5
  6
PHANTOM
 62
     1
100
AcDbLine
 10
92.39198299999999
 20
146.565299
 30
0.0
 11
162.083584
 21
146.565299
 31
0.0
  0
INSERT
  5
1B2
330
A
100
AcDbEntity
  8
HAWA1
100
AcDbBlockReference
  2
HAWA
 10
-0.0663422405315259
 20
0.0367809110500623
 30
0.0
  0
VIEWPORT
  5
D3
102
{ACAD_XDICTIONARY
360
2E3
102
}
330
B
100
AcDbEntity
 67
     1
  8
HAWA1
 62
     0
100
AcDbViewport
 10
0.0
 20
0.0
 30
0.0
 40
1000.0
 41
1000.0
 68
     1
 69
     1
 12
0.0
 22
0.0
 13
0.0
 23
0.0
 14
1.0
 24
1.0
 15
1.0
 25
1.0
 16
0.0
 26
0.0
 36
1.0
 17
0.0
 27
0.0
 37
0.0
 42
50.0
 43
0.0
 44
0.0
 45
1000.0
 50
0.0
 51
0.0
 72
   100
 90
   557216
  1

281
     0
 71
     1
 74
     0
110
0.0
120
0.0
130
0.0
111
1.0
121
0.0
131
0.0
112
0.0
122
1.0
132
0.0
 79
     0
146
0.0
  0
ENDSEC
  0
SECTION
  2
OBJECTS
  0
DICTIONARY
  5
19
330
0
100
AcDbDictionary
281
     1
  3
ACAD_COLOR
350
195
  3
ACAD_GROUP
350
1A
  3
ACAD_LAYOUT
350
171
  3
ACAD_MATERIAL
350
180
  3
ACAD_MLINESTYLE
350
1B
  3
ACAD_PLOTSETTINGS
350
198
  3
ACAD_PLOTSTYLENAME
350
179
  3
ACAD_TABLESTYLE
350
196
  3
ACAD_VISUALSTYLE
350
184
  3
AcDbVariableDictionary
350
2DD
  3
DWGPROPS
350
2E2
  0
DICTIONARY
  5
2E3
330
D3
100
AcDbDictionary
280
     1
281
     1
  3
ACAD_XREC_ROUNDTRIP
360
2E4
  0
DICTIONARY
  5
195
102
{ACAD_REACTORS
330
19
102
}
330
19
100
AcDbDictionary
281
     1
  0
DICTIONARY
  5
1A
102
{ACAD_REACTORS
330
19
102
}
330
19
100
AcDbDictionary
281
     1
  3
*A1
350
1A4
  3
*A10
350
1AD
  3
*A11
350
1AE
  3
*A2
350
1A5
  3
*A3
350
1A6
  3
*A4
350
1A7
  3
*A5
350
1A8
  3
*A6
350
1A9
  3
*A7
350
1AA
  3
*A8
350
1AB
  3
*A9
350
1AC
  0
DICTIONARY
  5
171
102
{ACAD_REACTORS
330
19
102
}
330
19
100
AcDbDictionary
281
     1
  3
Layout1
350
173
  3
Model
350
172
  0
DICTIONARY
  5
180
102
{ACAD_REACTORS
330
19
102
}
330
19
100
AcDbDictionary
281
     1
  3
ByBlock
350
182
  3
ByLayer
350
181
  3
Global
350
183
  0
DICTIONARY
  5
1B
102
{ACAD_REACTORS
330
19
102
}
330
19
100
AcDbDictionary
281
     1
  3
STANDARD
350
1C
  0
DICTIONARY
  5
198
102
{ACAD_REACTORS
330
19
102
}
330
19
100
AcDbDictionary
281
     1
  0
ACDBDICTIONARYWDFLT
  5
179
102
{ACAD_REACTORS
330
19
102
}
330
19
100
AcDbDictionary
281
     1
  3
Normal
350
17A
100
AcDbDictionaryWithDefault
340
17A
  0
DICTIONARY
  5
196
102
{ACAD_REACTORS
330
19
102
}
330
19
100
AcDbDictionary
281
     1
  3
Standard
350
197
  0
DICTIONARY
  5
184
102
{ACAD_REACTORS
330
19
102
}
330
19
100
AcDbDictionary
281
     1
  3
2dWireframe
350
18A
  3
3D Hidden
350
18C
  3
3dWireframe
350
18B
  3
Basic
350
189
  3
Brighten
350
190
  3
ColorChange
350
194
  3
Conceptual
350
18D
  3
Dim
350
18F
  3
Facepattern
350
193
  3
Flat
350
185
  3
FlatWithEdges
350
186
  3
Gouraud
350
187
  3
GouraudWithEdges
350
188
  3
Linepattern
350
192
  3
Realistic
350
18E
  3
Thicken
350
191
  0
DICTIONARY
  5
2DD
102
{ACAD_REACTORS
330
19
102
}
330
19
100
AcDbDictionary
281
     1
  3
CTABLESTYLE
350
2DE
  3
DIMASSOC
350
2E1
  3
INDEXCTL
350
2E0
  3
SORTENTS
350
2DF
  0
XRECORD
  5
2E2
102
{ACAD_REACTORS
330
19
102
}
330
19
100
AcDbXrecord
280
     1
  1
DWGPROPS COOKIE
  2

  3

  4

  6

  7

  8
stj
  9

300
=
301
=
302
=
303
=
304
=
305
=
306
=
307
=
308
=
309
=
 40
0.0009053935185185
 41
2447893.0
 42
2455265.468857003
  1

 90
        0
  0
XRECORD
  5
2E4
102
{ACAD_REACTORS
330
2E3
102
}
330
2E3
100
AcDbXrecord
280
     1
102
SHADEPLOT
 70
     0
  0
GROUP
  5
1A4
102
{ACAD_REACTORS
330
1A
102
}
330
1A
100
AcDbGroup
300

 70
     1
 71
     1
  0
GROUP
  5
1AD
102
{ACAD_REACTORS
330
1A
102
}
330
1A
100
AcDbGroup
300

 70
     1
 71
     1
  0
GROUP
  5
1AE
102
{ACAD_REACTORS
330
1A
102
}
330
1A
100
AcDbGroup
300

 70
     1
 71
     1
  0
GROUP
  5
1A5
102
{ACAD_REACTORS
330
1A
102
}
330
1A
100
AcDbGroup
300

 70
     1
 71
     1
  0
GROUP
  5
1A6
102
{ACAD_REACTORS
330
1A
102
}
330
1A
100
AcDbGroup
300

 70
     1
 71
     1
  0
GROUP
  5
1A7
102
{ACAD_REACTORS
330
1A
102
}
330
1A
100
AcDbGroup
300

 70
     1
 71
     1
  0
GROUP
  5
1A8
102
{ACAD_REACTORS
330
1A
102
}
330
1A
100
AcDbGroup
300

 70
     1
 71
     1
  0
GROUP
  5
1A9
102
{ACAD_REACTORS
330
1A
102
}
330
1A
100
AcDbGroup
300

 70
     1
 71
     1
  0
GROUP
  5
1AA
102
{ACAD_REACTORS
330
1A
102
}
330
1A
100
AcDbGroup
300

 70
     1
 71
     1
  0
GROUP
  5
1AB
102
{ACAD_REACTORS
330
1A
102
}
330
1A
100
AcDbGroup
300

 70
     1
 71
     1
  0
GROUP
  5
1AC
102
{ACAD_REACTORS
330
1A
102
}
330
1A
100
AcDbGroup
300

 70
     1
 71
     1
  0
LAYOUT
  5
173
102
{ACAD_XDICTIONARY
360
2E7
102
}
102
{ACAD_REACTORS
330
171
102
}
330
171
100
AcDbPlotSettings
  1

  2
none_device
  4

  6

 40
0.0
 41
0.0
 42
0.0
 43
0.0
 44
0.0
 45
0.0
 46
0.0
 47
0.0
 48
0.0
 49
0.0
140
0.0
141
0.0
142
1.0
143
1.0
 70
   688
 72
     0
 73
     0
 74
     5
  7

 75
    16
147
1.0
148
0.0
149
0.0
100
AcDbLayout
  1
Layout1
 70
     1
 71
     1
 10
0.0
 20
0.0
 11
420.0
 21
297.0
 12
0.0
 22
0.0
 32
0.0
 14
0.0
 24
0.0
 34
0.0
 15
149.57724
 25
187.065292
 35
2.0
146
0.0
 13
0.0
 23
0.0
 33
0.0
 16
1.0
 26
0.0
 36
0.0
 17
0.0
 27
1.0
 37
0.0
 76
     0
330
B
331
D3
  0
LAYOUT
  5
172
102
{ACAD_XDICTIONARY
360
2E5
102
}
102
{ACAD_REACTORS
330
171
102
}
330
171
100
AcDbPlotSettings
  1

  2
none_device
  4

  6

 40
0.0
 41
0.0
 42
0.0
 43
0.0
 44
0.0
 45
0.0
 46
0.0
 47
0.0
 48
0.0
 49
0.0
140
0.0
141
0.0
142
1.0
143
1.0
 70
   688
 72
     0
 73
     0
 74
     5
  7

 75
    16
147
1.0
148
0.0
149
0.0
100
AcDbLayout
  1
Model
 70
     1
 71
     0
 10
0.0
 20
0.0
 11
0.0
 21
0.0
 12
0.0
 22
0.0
 32
0.0
 14
0.0
 24
0.0
 34
0.0
 15
0.0
 25
0.0
 35
0.0
146
0.0
 13
0.0
 23
0.0
 33
0.0
 16
1.0
 26
0.0
 36
0.0
 17
0.0
 27
1.0
 37
0.0
 76
     0
330
A
331
15
  0
MATERIAL
  5
182
102
{ACAD_XDICTIONARY
360
2EB
102
}
102
{ACAD_REACTORS
330
180
102
}
330
180
100
AcDbMaterial
  1
ByBlock
  0
MATERIAL
  5
181
102
{ACAD_XDICTIONARY
360
2E9
102
}
102
{ACAD_REACTORS
330
180
102
}
330
180
100
AcDbMaterial
  1
ByLayer
  0
MATERIAL
  5
183
102
{ACAD_XDICTIONARY
360
2ED
102
}
102
{ACAD_REACTORS
330
180
102
}
330
180
100
AcDbMaterial
  1
Global
  0
MLINESTYLE
  5
1C
102
{ACAD_REACTORS
330
1B
102
}
330
1B
100
AcDbMlineStyle
  2
STANDARD
 70
     0
  3

 62
     0
 51
90.0
 52
90.0
 71
     2
 49
0.5
 62
   256
  6
BYLAYER
 49
-0.5
 62
   256
  6
BYLAYER
  0
ACDBPLACEHOLDER
  5
17A
102
{ACAD_REACTORS
330
179
102
}
330
179
  0
TABLESTYLE
  5
197
102
{ACAD_XDICTIONARY
360
2EF
102
}
102
{ACAD_REACTORS
330
196
102
}
330
196
100
AcDbTableStyle
  3
Standard
 70
     0
 71
     0
 40
1.5
 41
1.5
280
     0
281
     0
  7
STANDARD
140
4.5
170
     2
 62
     0
 63
     7
283
     0
274
    -2
284
     1
 64
     0
275
    -2
285
     1
 65
     0
276
    -2
286
     1
 66
     0
277
    -2
287
     1
 67
     0
278
    -2
288
     1
 68
     0
279
    -2
289
     1
 69
     0
  7
STANDARD
140
6.0
170
     5
 62
     0
 63
     7
283
     0
274
    -2
284
     1
 64
     0
275
    -2
285
     1
 65
     0
276
    -2
286
     1
 66
     0
277
    -2
287
     1
 67
     0
278
    -2
288
     1
 68
     0
279
    -2
289
     1
 69
     0
  7
STANDARD
140
4.5
170
     5
 62
     0
 63
     7
283
     0
274
    -2
284
     1
 64
     0
275
    -2
285
     1
 65
     0
276
    -2
286
     1
 66
     0
277
    -2
287
     1
 67
     0
278
    -2
288
     1
 68
     0
279
    -2
289
     1
 69
     0
  0
VISUALSTYLE
  5
18A
102
{ACAD_REACTORS
330
184
102
}
330
184
100
AcDbVisualStyle
  2
2dWireframe
 70
     4
 71
     0
 72
     2
 73
     0
 90
        0
 40
-0.6
 41
-30.0
 62
     5
 63
     7
 74
     1
 91
        4
 64
     7
 65
   257
 75
     1
175
     1
 42
1.0
 92
        0
 66
   257
 43
1.0
 76
     1
 77
     6
 78
     2
 67
     7
 79
     5
170
     0
171
     0
290
     0
174
     0
 93
        1
 44
0.0
173
     0
291
     0
 45
0.0
1001
ACAD
1000
AcDbSavedByObjectVersion
1070
     0
  0
VISUALSTYLE
  5
18C
102
{ACAD_REACTORS
330
184
102
}
330
184
100
AcDbVisualStyle
  2
3D Hidden
 70
     6
 71
     1
 72
     2
 73
     2
 90
        0
 40
-0.6
 41
-30.0
 62
     5
 63
     7
 74
     2
 91
        2
 64
     7
 65
   257
 75
     2
175
     1
 42
40.0
 92
        0
 66
   257
 43
1.0
 76
     1
 77
     6
 78
     2
 67
     7
 79
     3
170
     0
171
     0
290
     0
174
     0
 93
        1
 44
0.0
173
     0
291
     0
 45
0.0
1001
ACAD
1000
AcDbSavedByObjectVersion
1070
     0
  0
VISUALSTYLE
  5
18B
102
{ACAD_REACTORS
330
184
102
}
330
184
100
AcDbVisualStyle
  2
3dWireframe
 70
     5
 71
     0
 72
     2
 73
     0
 90
        0
 40
-0.6
 41
-30.0
 62
     5
 63
     7
 74
     1
 91
        4
 64
     7
 65
   257
 75
     1
175
     1
 42
1.0
 92
        0
 66
   257
 43
1.0
 76
     1
 77
     6
 78
     2
 67
     7
 79
     5
170
     0
171
     0
290
     0
174
     0
 93
        1
 44
0.0
173
     0
291
     0
 45
0.0
1001
ACAD
1000
AcDbSavedByObjectVersion
1070
     0
  0
VISUALSTYLE
  5
189
102
{ACAD_REACTORS
330
184
102
}
330
184
100
AcDbVisualStyle
  2
Basic
 70
     7
 71
     1
 72
     0
 73
     1
 90
        0
 40
-0.6
 41
-30.0
 62
     5
 63
     7
 74
     0
 91
        4
 64
     7
 65
   257
 75
     1
175
     1
 42
1.0
 92
        8
 66
     7
 43
1.0
 76
     1
 77
     6
 78
     2
 67
     7
 79
     5
170
     0
171
     0
290
     0
174
     0
 93
        1
 44
0.0
173
     0
291
     1
 45
0.0
1001
ACAD
1000
AcDbSavedByObjectVersion
1070
     0
  0
VISUALSTYLE
  5
190
102
{ACAD_REACTORS
330
184
102
}
330
184
100
AcDbVisualStyle
  2
Brighten
 70
    12
 71
     2
 72
     2
 73
     0
 90
        0
 40
-0.6
 41
-30.0
 62
     5
 63
     7
 74
     1
 91
        4
 64
     7
 65
   257
 75
     1
175
     1
 42
1.0
 92
        8
 66
     7
 43
1.0
 76
     1
 77
     6
 78
     2
 67
     7
 79
     5
170
     0
171
     0
290
     0
174
     0
 93
        1
 44
50.0
173
     0
291
     1
 45
0.0
1001
ACAD
1000
AcDbSavedByObjectVersion
1070
     0
  0
VISUALSTYLE
  5
194
102
{ACAD_REACTORS
330
184
102
}
330
184
100
AcDbVisualStyle
  2
ColorChange
 70
    16
 71
     2
 72
     2
 73
     3
 90
        0
 40
-0.6
 41
-30.0
 62
     5
 63
     8
 74
     1
 91
        4
 64
     7
 65
   257
 75
     1
175
     1
 42
1.0
 92
        8
 66
     8
 43
1.0
 76
     1
 77
     6
 78
     2
 67
     7
 79
     5
170
     0
171
     0
290
     0
174
     0
 93
        1
 44
0.0
173
     0
291
     1
 45
0.0
1001
ACAD
1000
AcDbSavedByObjectVersion
1070
     0
  0
VISUALSTYLE
  5
18D
102
{ACAD_REACTORS
330
184
102
}
330
184
100
AcDbVisualStyle
  2
Conceptual
 70
     9
 71
     3
 72
     2
 73
     0
 90
        0
 40
-0.6
 41
-30.0
 62
     5
 63
     7
 74
     2
 91
        2
 64
     7
 65
   257
 75
     1
175
     1
 42
40.0
 92
        8
 66
     7
 43
1.0
 76
     1
 77
     6
 78
     2
 67
     7
 79
     3
170
     0
171
     0
290
     0
174
     0
 93
        1
 44
0.0
173
     0
291
     0
 45
0.0
1001
ACAD
1000
AcDbSavedByObjectVersion
1070
     0
  0
VISUALSTYLE
  5
18F
102
{ACAD_REACTORS
330
184
102
}
330
184
100
AcDbVisualStyle
  2
Dim
 70
    11
 71
     2
 72
     2
 73
     0
 90
        0
 40
-0.6
 41
-30.0
 62
     5
 63
     7
 74
     1
 91
        4
 64
     7
 65
   257
 75
     1
175
     1
 42
1.0
 92
        8
 66
     7
 43
1.0
 76
     1
 77
     6
 78
     2
 67
     7
 79
     5
170
     0
171
     0
290
     0
174
     0
 93
        1
 44
-50.0
173
     0
291
     1
 45
0.0
1001
ACAD
1000
AcDbSavedByObjectVersion
1070
     0
  0
VISUALSTYLE
  5
193
102
{ACAD_REACTORS
330
184
102
}
330
184
100
AcDbVisualStyle
  2
Facepattern
 70
    15
 71
     2
 72
     2
 73
     0
 90
        0
 40
-0.6
 41
-30.0
 62
     5
 63
     7
 74
     1
 91
        4
 64
     7
 65
   257
 75
     1
175
     1
 42
1.0
 92
        8
 66
     7
 43
1.0
 76
     1
 77
     6
 78
     2
 67
     7
 79
     5
170
     0
171
     0
290
     0
174
     0
 93
        1
 44
0.0
173
     0
291
     1
 45
0.0
1001
ACAD
1000
AcDbSavedByObjectVersion
1070
     0
  0
VISUALSTYLE
  5
185
102
{ACAD_REACTORS
330
184
102
}
330
184
100
AcDbVisualStyle
  2
Flat
 70
     0
 71
     2
 72
     1
 73
     1
 90
        2
 40
-0.6
 41
30.0
 62
     5
 63
     7
 74
     0
 91
        4
 64
     7
 65
   257
 75
     1
175
     1
 42
1.0
 92
        8
 66
     7
 43
1.0
 76
     1
 77
     6
 78
     2
 67
     7
 79
     5
170
     0
171
     0
290
     0
174
     0
 93
       13
 44
0.0
173
     0
291
     1
 45
0.0
1001
ACAD
1000
AcDbSavedByObjectVersion
1070
     0
  0
VISUALSTYLE
  5
186
102
{ACAD_REACTORS
330
184
102
}
330
184
100
AcDbVisualStyle
  2
FlatWithEdges
 70
     1
 71
     2
 72
     1
 73
     1
 90
        2
 40
-0.6
 41
30.0
 62
     5
 63
     7
 74
     1
 91
        4
 64
     7
 65
   257
 75
     1
175
     1
 42
1.0
 92
        0
 66
   257
 43
1.0
 76
     1
 77
     6
 78
     2
 67
     7
 79
     5
170
     0
171
     0
290
     0
174
     0
 93
       13
 44
0.0
173
     0
291
     1
 45
0.0
1001
ACAD
1000
AcDbSavedByObjectVersion
1070
     0
  0
VISUALSTYLE
  5
187
102
{ACAD_REACTORS
330
184
102
}
330
184
100
AcDbVisualStyle
  2
Gouraud
 70
     2
 71
     2
 72
     2
 73
     1
 90
        2
 40
-0.6
 41
30.0
 62
     5
 63
     7
 74
     0
 91
        4
 64
     7
 65
   257
 75
     1
175
     1
 42
1.0
 92
        0
 66
     7
 43
1.0
 76
     1
 77
     6
 78
     2
 67
     7
 79
     5
170
     0
171
     0
290
     0
174
     0
 93
       13
 44
0.0
173
     0
291
     1
 45
0.0
1001
ACAD
1000
AcDbSavedByObjectVersion
1070
     0
  0
VISUALSTYLE
  5
188
102
{ACAD_REACTORS
330
184
102
}
330
184
100
AcDbVisualStyle
  2
GouraudWithEdges
 70
     3
 71
     2
 72
     2
 73
     1
 90
        2
 40
-0.6
 41
30.0
 62
     5
 63
     7
 74
     1
 91
        4
 64
     7
 65
   257
 75
     1
175
     1
 42
1.0
 92
        0
 66
   257
 43
1.0
 76
     1
 77
     6
 78
     2
 67
     7
 79
     5
170
     0
171
     0
290
     0
174
     0
 93
       13
 44
0.0
173
     0
291
     1
 45
0.0
1001
ACAD
1000
AcDbSavedByObjectVersion
1070
     0
  0
VISUALSTYLE
  5
192
102
{ACAD_REACTORS
330
184
102
}
330
184
100
AcDbVisualStyle
  2
Linepattern
 70
    14
 71
     2
 72
     2
 73
     0
 90
        0
 40
-0.6
 41
-30.0
 62
     5
 63
     7
 74
     1
 91
        4
 64
     7
 65
   257
 75
     7
175
     7
 42
1.0
 92
        8
 66
     7
 43
1.0
 76
     1
 77
     6
 78
     2
 67
     7
 79
     5
170
     0
171
     0
290
     0
174
     0
 93
        1
 44
0.0
173
     0
291
     1
 45
0.0
1001
ACAD
1000
AcDbSavedByObjectVersion
1070
     0
  0
VISUALSTYLE
  5
18E
102
{ACAD_REACTORS
330
184
102
}
330
184
100
AcDbVisualStyle
  2
Realistic
 70
     8
 71
     2
 72
     2
 73
     0
 90
        0
 40
-0.6
 41
-30.0
 62
     5
 63
     7
 74
     1
 91
        0
 64
     7
 65
   257
 75
     1
175
     1
 42
1.0
 92
        8
 66
     8
 43
1.0
 76
     1
 77
     6
 78
     2
 67
     7
 79
     5
170
     0
171
     0
290
     0
174
     0
 93
       13
 44
0.0
173
     0
291
     0
 45
0.0
1001
ACAD
1000
AcDbSavedByObjectVersion
1070
     0
  0
VISUALSTYLE
  5
191
102
{ACAD_REACTORS
330
184
102
}
330
184
100
AcDbVisualStyle
  2
Thicken
 70
    13
 71
     2
 72
     2
 73
     0
 90
        0
 40
-0.6
 41
-30.0
 62
     5
 63
     7
 74
     1
 91
        4
 64
     7
 65
   257
 75
     1
175
     1
 42
1.0
 92
       12
 66
     7
 43
1.0
 76
     1
 77
     6
 78
     2
 67
     7
 79
     5
170
     0
171
     0
290
     0
174
     0
 93
        1
 44
0.0
173
     0
291
     1
 45
0.0
1001
ACAD
1000
AcDbSavedByObjectVersion
1070
     0
  0
DICTIONARYVAR
  5
2DE
102
{ACAD_REACTORS
330
2DD
102
}
330
2DD
100
DictionaryVariables
280
     0
  1
STANDARD
  0
DICTIONARYVAR
  5
2E1
102
{ACAD_REACTORS
330
2DD
102
}
330
2DD
100
DictionaryVariables
280
     0
  1
1
  0
DICTIONARYVAR
  5
2E0
102
{ACAD_REACTORS
330
2DD
102
}
330
2DD
100
DictionaryVariables
280
     0
  1
0
  0
DICTIONARYVAR
  5
2DF
102
{ACAD_REACTORS
330
2DD
102
}
330
2DD
100
DictionaryVariables
280
     0
  1
127
  0
DICTIONARY
  5
2E7
330
173
100
AcDbDictionary
280
     1
281
     1
  3
ACAD_XREC_ROUNDTRIP
360
2E8
  0
DICTIONARY
  5
2E5
330
172
100
AcDbDictionary
280
     1
281
     1
  3
ACAD_XREC_ROUNDTRIP
360
2E6
  0
DICTIONARY
  5
2EB
330
182
100
AcDbDictionary
280
     1
281
     1
  3
ACAD_XREC_ROUNDTRIP
360
2EC
  0
DICTIONARY
  5
2E9
330
181
100
AcDbDictionary
280
     1
281
     1
  3
ACAD_XREC_ROUNDTRIP
360
2EA
  0
DICTIONARY
  5
2ED
330
183
100
AcDbDictionary
280
     1
281
     1
  3
ACAD_XREC_ROUNDTRIP
360
2EE
  0
DICTIONARY
  5
2EF
330
197
100
AcDbDictionary
280
     1
281
     1
  3
ACAD_XREC_ROUNDTRIP
360
2F0
  0
XRECORD
  5
2E8
102
{ACAD_REACTORS
330
2E7
102
}
330
2E7
100
AcDbXrecord
280
     1
102
SHADEPLOT
 70
     0
102
SHADEPLOTRESLEVEL
 70
     2
102
SHADEPLOTCUSTOMDPI
 70
   300
  0
XRECORD
  5
2E6
102
{ACAD_REACTORS
330
2E5
102
}
330
2E5
100
AcDbXrecord
280
     1
102
SHADEPLOT
 70
     0
102
SHADEPLOTRESLEVEL
 70
     2
102
SHADEPLOTCUSTOMDPI
 70
   300
  0
XRECORD
  5
2EC
102
{ACAD_REACTORS
330
2EB
102
}
330
2EB
100
AcDbXrecord
280
     1
102
MATERIAL
148
0.0
149
0.0
149
0.0
 93
        0
 94
       63
282
     0
 72
     1
 77
     1
171
     1
175
     1
179
     1
273
     0
  0
XRECORD
  5
2EA
102
{ACAD_REACTORS
330
2E9
102
}
330
2E9
100
AcDbXrecord
280
     1
102
MATERIAL
148
0.0
149
0.0
149
0.0
 93
        0
 94
       63
282
     0
 72
     1
 77
     1
171
     1
175
     1
179
     1
273
     0
  0
XRECORD
  5
2EE
102
{ACAD_REACTORS
330
2ED
102
}
330
2ED
100
AcDbXrecord
280
     1
102
MATERIAL
148
0.0
149
0.0
149
0.0
 93
        0
 94
       63
282
     0
 72
     1
 77
     1
171
     1
175
     1
179
     1
273
     0
  0
XRECORD
  5
2F0
102
{ACAD_REACTORS
330
2EF
102
}
330
2EF
100
AcDbXrecord
280
     1
102
ACAD_ROUNDTRIP_PRE2007_TABLESTYLE
 90
      512
 91
        0
  1

 92
      512
 93
        0
  2

 94
      512
 95
        0
  3

  0
ENDSEC
  0
EOF
