  0
SECTION
  2
HEADER
  9
$ACADVER
  1
AC1015
  9
$ACADMAINTVER
 70
    20
  9
$DWGCODEPAGE
  3
ANSI_1252
  9
$INSBASE
 10
0.0
 20
0.0
 30
0.0
  9
$EXTMIN
 10
-65.7659903096104
 20
-122.8677973030924
 30
-0.0000610304997082
  9
$EXTMAX
 10
214.2617805235343
 20
400.879303790954
 30
0.000091555062788
  9
$LIMMIN
 10
0.0
 20
0.0
  9
$LIMMAX
 10
420.0
 20
297.0
  9
$ORTHOMODE
 70
     0
  9
$REGENMODE
 70
     1
  9
$FILLMODE
 70
     1
  9
$QTEXTMODE
 70
     0
  9
$MIRRTEXT
 70
     1
  9
$LTSCALE
 40
1.0
  9
$ATTMODE
 70
     1
  9
$TEXTSIZE
 40
2.5
  9
$TRACEWID
 40
1.0
  9
$TEXTSTYLE
  7
STANDARD
  9
$CLAYER
  8
HAWA1
  9
$CELTYPE
  6
BYLAYER
  9
$CECOLOR
 62
   256
  9
$CELTSCALE
 40
1.0
  9
$DISPSILH
 70
     0
  9
$DIMSCALE
 40
1.0
  9
$DIMASZ
 40
2.0
  9
$DIMEXO
 40
2.0
  9
$DIMDLI
 40
0.0
  9
$DIMRND
 40
0.0
  9
$DIMDLE
 40
1.0
  9
$DIMEXE
 40
1.0
  9
$DIMTP
 40
0.0
  9
$DIMTM
 40
0.0
  9
$DIMTXT
 40
3.5
  9
$DIMCEN
 40
0.0
  9
$DIMTSZ
 40
0.0
  9
$DIMTOL
 70
     0
  9
$DIMLIM
 70
     0
  9
$DIMTIH
 70
     0
  9
$DIMTOH
 70
     0
  9
$DIMSE1
 70
     0
  9
$DIMSE2
 70
     0
  9
$DIMTAD
 70
     1
  9
$DIMZIN
 70
     8
  9
$DIMBLK
  1

  9
$DIMASO
 70
     1
  9
$DIMSHO
 70
     1
  9
$DIMPOST
  1

  9
$DIMAPOST
  1

  9
$DIMALT
 70
     1
  9
$DIMALTD
 70
     5
  9
$DIMALTF
 40
0.039370078740157
  9
$DIMLFAC
 40
1.0
  9
$DIMTOFL
 70
     1
  9
$DIMTVP
 40
0.0
  9
$DIMTIX
 70
     0
  9
$DIMSOXD
 70
     0
  9
$DIMSAH
 70
     1
  9
$DIMBLK1
  1
Oblique
  9
$DIMBLK2
  1
Oblique
  9
$DIMSTYLE
  2
HAWA-Strich
  9
$DIMCLRD
 70
   256
  9
$DIMCLRE
 70
   256
  9
$DIMCLRT
 70
   256
  9
$DIMTFAC
 40
0.7114285714285719
  9
$DIMGAP
 40
1.0
  9
$DIMJUST
 70
     0
  9
$DIMSD1
 70
     0
  9
$DIMSD2
 70
     0
  9
$DIMTOLJ
 70
     1
  9
$DIMTZIN
 70
     8
  9
$DIMALTZ
 70
     8
  9
$DIMALTTZ
 70
     8
  9
$DIMUPT
 70
     0
  9
$DIMDEC
 70
     1
  9
$DIMTDEC
 70
     1
  9
$DIMALTU
 70
     4
  9
$DIMALTTD
 70
     5
  9
$DIMTXSTY
  7
Beschlag
  9
$DIMAUNIT
 70
     0
  9
$DIMADEC
 70
     1
  9
$DIMALTRND
 40
0.0
  9
$DIMAZIN
 70
     2
  9
$DIMDSEP
 70
    46
  9
$DIMATFIT
 70
     3
  9
$DIMFRAC
 70
     0
  9
$DIMLDRBLK
  1
Oblique
  9
$DIMLUNIT
 70
     2
  9
$DIMLWD
 70
    -2
  9
$DIMLWE
 70
    -2
  9
$DIMTMOVE
 70
     0
  9
$LUNITS
 70
     2
  9
$LUPREC
 70
     4
  9
$SKETCHINC
 40
1.0
  9
$FILLETRAD
 40
2.5
  9
$AUNITS
 70
     0
  9
$AUPREC
 70
     0
  9
$MENU
  1
.
  9
$ELEVATION
 40
0.0
  9
$PELEVATION
 40
0.0
  9
$THICKNESS
 40
0.0
  9
$LIMCHECK
 70
     0
  9
$CHAMFERA
 40
2.5
  9
$CHAMFERB
 40
2.5
  9
$CHAMFERC
 40
0.0
  9
$CHAMFERD
 40
0.0
  9
$SKPOLY
 70
     0
  9
$TDCREATE
 40
2447893.000000000
  9
$TDUCREATE
 40
2447892.958333333
  9
$TDUPDATE
 40
2455265.485840023
  9
$TDUUPDATE
 40
2455265.444173357
  9
$TDINDWG
 40
0.0114409722
  9
$TDUSRTIMER
 40
0.0114409722
  9
$USRTIMER
 70
     1
  9
$ANGBASE
 50
0.0
  9
$ANGDIR
 70
     0
  9
$PDMODE
 70
     0
  9
$PDSIZE
 40
0.0
  9
$PLINEWID
 40
0.0
  9
$SPLFRAME
 70
     0
  9
$SPLINETYPE
 70
     6
  9
$SPLINESEGS
 70
     8
  9
$HANDSEED
  5
705
  9
$SURFTAB1
 70
     6
  9
$SURFTAB2
 70
     6
  9
$SURFTYPE
 70
     6
  9
$SURFU
 70
     6
  9
$SURFV
 70
     6
  9
$UCSBASE
  2

  9
$UCSNAME
  2

  9
$UCSORG
 10
0.0
 20
0.0
 30
0.0
  9
$UCSXDIR
 10
1.0
 20
0.0
 30
0.0
  9
$UCSYDIR
 10
0.0
 20
1.0
 30
0.0
  9
$UCSORTHOREF
  2

  9
$UCSORTHOVIEW
 70
     0
  9
$UCSORGTOP
 10
0.0
 20
0.0
 30
0.0
  9
$UCSORGBOTTOM
 10
0.0
 20
0.0
 30
0.0
  9
$UCSORGLEFT
 10
0.0
 20
0.0
 30
0.0
  9
$UCSORGRIGHT
 10
0.0
 20
0.0
 30
0.0
  9
$UCSORGFRONT
 10
0.0
 20
0.0
 30
0.0
  9
$UCSORGBACK
 10
0.0
 20
0.0
 30
0.0
  9
$PUCSBASE
  2

  9
$PUCSNAME
  2

  9
$PUCSORG
 10
0.0
 20
0.0
 30
0.0
  9
$PUCSXDIR
 10
1.0
 20
0.0
 30
0.0
  9
$PUCSYDIR
 10
0.0
 20
1.0
 30
0.0
  9
$PUCSORTHOREF
  2

  9
$PUCSORTHOVIEW
 70
     0
  9
$PUCSORGTOP
 10
0.0
 20
0.0
 30
0.0
  9
$PUCSORGBOTTOM
 10
0.0
 20
0.0
 30
0.0
  9
$PUCSORGLEFT
 10
0.0
 20
0.0
 30
0.0
  9
$PUCSORGRIGHT
 10
0.0
 20
0.0
 30
0.0
  9
$PUCSORGFRONT
 10
0.0
 20
0.0
 30
0.0
  9
$PUCSORGBACK
 10
0.0
 20
0.0
 30
0.0
  9
$USERI1
 70
     0
  9
$USERI2
 70
     0
  9
$USERI3
 70
     0
  9
$USERI4
 70
     0
  9
$USERI5
 70
     0
  9
$USERR1
 40
0.0
  9
$USERR2
 40
0.0
  9
$USERR3
 40
0.0
  9
$USERR4
 40
0.0
  9
$USERR5
 40
0.0
  9
$WORLDVIEW
 70
     1
  9
$SHADEDGE
 70
     3
  9
$SHADEDIF
 70
    70
  9
$TILEMODE
 70
     1
  9
$MAXACTVP
 70
    48
  9
$PINSBASE
 10
0.0
 20
0.0
 30
0.0
  9
$PLIMCHECK
 70
     0
  9
$PEXTMIN
 10
0.0
 20
0.0
 30
0.0
  9
$PEXTMAX
 10
109.260475
 20
252.378525
 30
2.0
  9
$PLIMMIN
 10
0.0
 20
0.0
  9
$PLIMMAX
 10
420.0
 20
297.0
  9
$UNITMODE
 70
     0
  9
$VISRETAIN
 70
     0
  9
$PLINEGEN
 70
     0
  9
$PSLTSCALE
 70
     1
  9
$TREEDEPTH
 70
  3020
  9
$CMLSTYLE
  2
STANDARD
  9
$CMLJUST
 70
     0
  9
$CMLSCALE
 40
20.0
  9
$PROXYGRAPHICS
 70
     1
  9
$MEASUREMENT
 70
     1
  9
$CELWEIGHT
370
    -1
  9
$ENDCAPS
280
     0
  9
$JOINSTYLE
280
     0
  9
$LWDISPLAY
290
     0
  9
$INSUNITS
 70
     0
  9
$HYPERLINKBASE
  1

  9
$STYLESHEET
  1

  9
$XEDIT
290
     1
  9
$CEPSNTYPE
380
     0
  9
$PSTYLEMODE
290
     1
  9
$FINGERPRINTGUID
  2
{F59E70E9-DE73-4B2F-91BA-7EE04AF800B1}
  9
$VERSIONGUID
  2
{EE1D4C82-7D56-450D-B6F1-C1B13401D636}
  9
$EXTNAMES
290
     1
  9
$PSVPSCALE
 40
0.0
  9
$OLESTARTUP
290
     0
  0
ENDSEC
  0
SECTION
  2
CLASSES
  0
CLASS
  1
IMAGE
  2
AcDbRasterImage
  3
ISM
 90
    34943
280
     0
281
     1
  0
CLASS
  1
DICTIONARYVAR
  2
AcDbDictionaryVar
  3
ObjectDBX Classes
 90
        0
280
     0
281
     0
  0
CLASS
  1
RASTERVARIABLES
  2
AcDbRasterVariables
  3
ISM
 90
    32768
280
     0
281
     0
  0
CLASS
  1
IMAGEDEF
  2
AcDbRasterImageDef
  3
ISM
 90
    32768
280
     0
281
     0
  0
CLASS
  1
IMAGEDEF_REACTOR
  2
AcDbRasterImageDefReactor
  3
ISM
 90
    32769
280
     0
281
     0
  0
CLASS
  1
IDBUFFER
  2
AcDbIdBuffer
  3
ObjectDBX Classes
 90
    32768
280
     0
281
     0
  0
CLASS
  1
SPATIAL_FILTER
  2
AcDbSpatialFilter
  3
ObjectDBX Classes
 90
    32768
280
     0
281
     0
  0
CLASS
  1
SORTENTSTABLE
  2
AcDbSortentsTable
  3
ObjectDBX Classes
 90
    32768
280
     0
281
     0
  0
CLASS
  1
LAYER_INDEX
  2
AcDbLayerIndex
  3
ObjectDBX Classes
 90
    32768
280
     0
281
     0
  0
CLASS
  1
SPATIAL_INDEX
  2
AcDbSpatialIndex
  3
ObjectDBX Classes
 90
    32768
280
     0
281
     0
  0
CLASS
  1
OBJECT_PTR
  2
CAseDLPNTableRecord
  3
ASE-LPNTableRecord
 90
    32769
280
     0
281
     0
  0
CLASS
  1
LAYOUT
  2
AcDbLayout
  3
ObjectDBX Classes
 90
        0
280
     0
281
     0
  0
CLASS
  1
PLOTSETTINGS
  2
AcDbPlotSettings
  3
ObjectDBX Classes
 90
    32768
280
     0
281
     0
  0
CLASS
  1
ACDBDICTIONARYWDFLT
  2
AcDbDictionaryWithDefault
  3
ObjectDBX Classes
 90
        0
280
     0
281
     0
  0
CLASS
  1
ACDBPLACEHOLDER
  2
AcDbPlaceHolder
  3
ObjectDBX Classes
 90
        0
280
     0
281
     0
  0
CLASS
  1
VBA_PROJECT
  2
AcDbVbaProject
  3
acad
 90
    32768
280
     0
281
     0
  0
CLASS
  1
WIPEOUT
  2
AcDbWipeout
  3
"WipeOut|Product Desc: Object Enabler for WipeOut entity                        |Company: Autodesk, Inc.                        |WEB Address: www.autodesk.com"
 90
    34943
280
     0
281
     1
  0
CLASS
  1
WIPEOUTVARIABLES
  2
AcDbWipeoutVariables
  3
"WipeOut|Product Desc:     WipeOut Dbx Application|Company:          Autodesk, Inc.|WEB Address:      www.autodesk.com"
 90
    32768
280
     0
281
     0
  0
CLASS
  1
RTEXT
  2
RText
  3
RText|AutoCAD Express Tool|expresstools@autodesk.com
 90
    32768
280
     0
281
     1
  0
CLASS
  1
ARCALIGNEDTEXT
  2
AcDbArcAlignedText
  3
ATEXT|AutoCAD Express Tool|expresstools@autodesk.com
 90
    32768
280
     0
281
     1
  0
CLASS
  1
MATERIAL
  2
AcDbMaterial
  3
ObjectDBX Classes
 90
     1024
280
     0
281
     0
  0
CLASS
  1
VISUALSTYLE
  2
AcDbVisualStyle
  3
ObjectDBX Classes
 90
     4095
280
     0
281
     0
  0
CLASS
  1
TABLESTYLE
  2
AcDbTableStyle
  3
ObjectDBX Classes
 90
     4095
280
     0
281
     0
  0
ENDSEC
  0
SECTION
  2
TABLES
  0
TABLE
  2
VPORT
  5
7
330
0
100
AcDbSymbolTable
 70
     1
  0
VPORT
  5
15
330
7
100
AcDbSymbolTableRecord
100
AcDbViewportTableRecord
  2
*ACTIVE
 70
     0
 10
0.0
 20
0.0
 11
1.0
 21
1.0
 12
74.24789510696189
 22
139.0057532439308
 13
0.0
 23
0.0
 14
1.0
 24
1.0
 15
0.0
 25
0.0
 16
0.0
 26
0.0
 36
1.0
 17
0.0
 27
0.0
 37
0.0
 40
527.0205204758842
 41
1.591240875912408
 42
50.0
 43
0.0
 44
0.0
 50
0.0
 51
0.0
 71
     0
 72
   100
 73
     1
 74
     1
 75
     0
 76
     0
 77
     0
 78
     0
281
     0
 65
     1
110
0.0
120
0.0
130
0.0
111
1.0
121
0.0
131
0.0
112
0.0
122
1.0
132
0.0
 79
     0
146
0.0
  0
ENDTAB
  0
TABLE
  2
LTYPE
  5
4
330
0
100
AcDbSymbolTable
 70
     8
  0
LTYPE
  5
11
330
4
100
AcDbSymbolTableRecord
100
AcDbLinetypeTableRecord
  2
BYBLOCK
 70
     0
  3

 72
    65
 73
     0
 40
0.0
  0
LTYPE
  5
12
330
4
100
AcDbSymbolTableRecord
100
AcDbLinetypeTableRecord
  2
BYLAYER
 70
     0
  3

 72
    65
 73
     0
 40
0.0
  0
LTYPE
  5
13
330
4
100
AcDbSymbolTableRecord
100
AcDbLinetypeTableRecord
  2
CONTINUOUS
 70
     0
  3
Solid line
 72
    65
 73
     0
 40
0.0
  0
LTYPE
  5
1D
330
4
100
AcDbSymbolTableRecord
100
AcDbLinetypeTableRecord
  2
DASHED
 70
     0
  3
__ __ __ __ __ __ __ __ __ __ __ __ __ __ __ __
 72
    65
 73
     2
 40
15.0
 49
12.0
 74
     0
 49
-3.0
 74
     0
  0
LTYPE
  5
1E
330
4
100
AcDbSymbolTableRecord
100
AcDbLinetypeTableRecord
  2
DASHDOT
 70
     0
  3
 __ . __ . __ . __ . __ . __ . __ . 
 72
    65
 73
     4
 40
18.5
 49
12.0
 74
     0
 49
-3.0
 74
     0
 49
0.5
 74
     0
 49
-3.0
 74
     0
  0
LTYPE
  5
1F
330
4
100
AcDbSymbolTableRecord
100
AcDbLinetypeTableRecord
  2
DOT
 70
     0
  3
 . . . . . . . . . . . . . . . .
 72
    65
 73
     2
 40
3.5
 49
0.5
 74
     0
 49
-3.0
 74
     0
  0
LTYPE
  5
20
330
4
100
AcDbSymbolTableRecord
100
AcDbLinetypeTableRecord
  2
DASHSPACE
 70
     0
  3
__    __    __    __    __   
 72
    65
 73
     2
 40
30.0
 49
12.0
 74
     0
 49
-18.0
 74
     0
  0
LTYPE
  5
21
330
4
100
AcDbSymbolTableRecord
100
AcDbLinetypeTableRecord
  2
DASHDOT2
 70
     0
  3
__ . . __ . . __ . . __ 
 72
    65
 73
     6
 40
22.0
 49
12.0
 74
     0
 49
-3.0
 74
     0
 49
0.5
 74
     0
 49
-3.0
 74
     0
 49
0.5
 74
     0
 49
-3.0
 74
     0
  0
LTYPE
  5
22
330
4
100
AcDbSymbolTableRecord
100
AcDbLinetypeTableRecord
  2
PHANTOM
 70
     0
  3
____________    ____    ____   _
 72
    65
 73
     6
 40
20.0
 49
10.0
 74
     0
 49
-2.0
 74
     0
 49
2.0
 74
     0
 49
-2.0
 74
     0
 49
2.0
 74
     0
 49
-2.0
 74
     0
  0
LTYPE
  5
23
330
4
100
AcDbSymbolTableRecord
100
AcDbLinetypeTableRecord
  2
AXES
 70
     0
  3
________  __  ________  __  _____
 72
    65
 73
     4
 40
24.0
 49
15.0
 74
     0
 49
-3.0
 74
     0
 49
3.0
 74
     0
 49
-3.0
 74
     0
  0
ENDTAB
  0
TABLE
  2
LAYER
  5
2
330
0
100
AcDbSymbolTable
 70
     6
  0
LAYER
  5
285
330
2
100
AcDbSymbolTableRecord
100
AcDbLayerTableRecord
  2
0
 70
     0
 62
     7
  6
CONTINUOUS
370
    -3
390
287
  0
LAYER
  5
283
330
2
100
AcDbSymbolTableRecord
100
AcDbLayerTableRecord
  2
Hawa5
 70
     0
 62
     1
  6
CONTINUOUS
370
    -3
390
287
  0
LAYER
  5
284
330
2
100
AcDbSymbolTableRecord
100
AcDbLayerTableRecord
  2
Hawa6
 70
     0
 62
     3
  6
CONTINUOUS
370
    -3
390
287
  0
LAYER
  5
14
330
2
100
AcDbSymbolTableRecord
100
AcDbLayerTableRecord
  2
HAWA1
 70
     0
 62
     2
  6
CONTINUOUS
370
     0
390
287
  0
LAYER
  5
2AC
330
2
100
AcDbSymbolTableRecord
100
AcDbLayerTableRecord
  2
Defpoints
 70
     0
 62
     7
  6
CONTINUOUS
290
     0
370
    -3
390
287
  0
LAYER
  5
2AD
330
2
100
AcDbSymbolTableRecord
100
AcDbLayerTableRecord
  2
1
 70
     0
 62
     7
  6
CONTINUOUS
370
    -3
390
287
  0
ENDTAB
  0
TABLE
  2
STYLE
  5
3
330
0
100
AcDbSymbolTable
 70
     3
  0
STYLE
  5
17
330
3
100
AcDbSymbolTableRecord
100
AcDbTextStyleTableRecord
  2
STANDARD
 70
     0
 40
0.0
 41
1.0
 50
0.0
 71
     0
 42
2.5
  3
isocp.shx
  4

  0
STYLE
  5
24
330
3
100
AcDbSymbolTableRecord
100
AcDbTextStyleTableRecord
  2
GDT
 70
     0
 40
0.0
 41
1.0
 50
0.0
 71
     0
 42
2.5
  3
amgdt.shx
  4

  0
STYLE
  5
2AE
330
3
100
AcDbSymbolTableRecord
100
AcDbTextStyleTableRecord
  2
Beschlag
 70
     0
 40
0.0
 41
0.9
 50
0.0
 71
     0
 42
3.5
  3
ARIAL.TTF
  4

1001
ACAD
1000
Arial
1071
       34
  0
ENDTAB
  0
TABLE
  2
VIEW
  5
5
330
0
100
AcDbSymbolTable
 70
     0
  0
ENDTAB
  0
TABLE
  2
UCS
  5
6
330
0
100
AcDbSymbolTable
 70
     0
  0
ENDTAB
  0
TABLE
  2
APPID
  5
8
330
0
100
AcDbSymbolTable
 70
     2
  0
APPID
  5
16
330
8
100
AcDbSymbolTableRecord
100
AcDbRegAppTableRecord
  2
ACAD
 70
     0
  0
APPID
  5
2B0
330
8
100
AcDbSymbolTableRecord
100
AcDbRegAppTableRecord
  2
ACAD_PSEXT
 70
     0
  0
ENDTAB
  0
TABLE
  2
DIMSTYLE
  5
9
330
0
100
AcDbSymbolTable
 70
     2
100
AcDbDimStyleTable
 71
     1
340
2AF
  0
DIMSTYLE
105
18
330
9
100
AcDbSymbolTableRecord
100
AcDbDimStyleTableRecord
  2
STANDARD
 70
     0
 41
2.5
 42
0.625
 43
3.75
 44
1.25
 73
     0
 74
     0
 77
     1
 78
     8
140
2.5
141
2.5
143
0.03937
147
0.625
171
     3
172
     1
271
     2
272
     2
274
     3
283
     0
284
     8
289
     0
340
17
  0
DIMSTYLE
105
2AF
102
{ACAD_REACTORS
330
52
330
50
330
4E
330
4C
330
4A
330
48
330
46
330
44
330
42
330
40
330
3E
330
3C
330
38
330
36
330
34
330
32
330
30
330
2E
330
2C
330
2A
330
28
330
26
330
3A
102
}
330
9
100
AcDbSymbolTableRecord
100
AcDbDimStyleTableRecord
  2
HAWA-Strich
 70
     0
 41
2.0
 42
2.0
 43
0.0
 44
1.0
 46
1.0
 73
     0
 74
     0
 77
     1
 78
     8
 79
     2
140
3.5
141
0.0
143
0.039370078740157
146
0.7114285714285719
147
1.0
170
     1
171
     5
172
     1
173
     1
176
   256
177
   256
178
   256
179
     1
271
     1
272
     1
273
     4
274
     5
284
     8
285
     8
286
     8
340
2AE
341
2A8
343
2A8
344
2A8
  0
ENDTAB
  0
TABLE
  2
BLOCK_RECORD
  5
1
330
0
100
AcDbSymbolTable
 70
    26
  0
BLOCK_RECORD
  5
A
330
1
100
AcDbSymbolTableRecord
100
AcDbBlockTableRecord
  2
*MODEL_SPACE
340
27F
  0
BLOCK_RECORD
  5
B
330
1
100
AcDbSymbolTableRecord
100
AcDbBlockTableRecord
  2
*PAPER_SPACE
340
280
  0
BLOCK_RECORD
  5
25
330
1
100
AcDbSymbolTableRecord
100
AcDbBlockTableRecord
  2
*D0
340
0
  0
BLOCK_RECORD
  5
27
330
1
100
AcDbSymbolTableRecord
100
AcDbBlockTableRecord
  2
*D1
340
0
  0
BLOCK_RECORD
  5
29
330
1
100
AcDbSymbolTableRecord
100
AcDbBlockTableRecord
  2
*D2
340
0
  0
BLOCK_RECORD
  5
2B
330
1
100
AcDbSymbolTableRecord
100
AcDbBlockTableRecord
  2
*D3
340
0
  0
BLOCK_RECORD
  5
2D
330
1
100
AcDbSymbolTableRecord
100
AcDbBlockTableRecord
  2
*D4
340
0
  0
BLOCK_RECORD
  5
2F
330
1
100
AcDbSymbolTableRecord
100
AcDbBlockTableRecord
  2
*D5
340
0
  0
BLOCK_RECORD
  5
31
330
1
100
AcDbSymbolTableRecord
100
AcDbBlockTableRecord
  2
*D6
340
0
  0
BLOCK_RECORD
  5
33
330
1
100
AcDbSymbolTableRecord
100
AcDbBlockTableRecord
  2
*D7
340
0
  0
BLOCK_RECORD
  5
35
330
1
100
AcDbSymbolTableRecord
100
AcDbBlockTableRecord
  2
*D8
340
0
  0
BLOCK_RECORD
  5
37
330
1
100
AcDbSymbolTableRecord
100
AcDbBlockTableRecord
  2
*D9
340
0
  0
BLOCK_RECORD
  5
39
330
1
100
AcDbSymbolTableRecord
100
AcDbBlockTableRecord
  2
*D10
340
0
  0
BLOCK_RECORD
  5
3B
330
1
100
AcDbSymbolTableRecord
100
AcDbBlockTableRecord
  2
*D11
340
0
  0
BLOCK_RECORD
  5
3D
330
1
100
AcDbSymbolTableRecord
100
AcDbBlockTableRecord
  2
*D12
340
0
  0
BLOCK_RECORD
  5
3F
330
1
100
AcDbSymbolTableRecord
100
AcDbBlockTableRecord
  2
*D13
340
0
  0
BLOCK_RECORD
  5
41
330
1
100
AcDbSymbolTableRecord
100
AcDbBlockTableRecord
  2
*D14
340
0
  0
BLOCK_RECORD
  5
43
330
1
100
AcDbSymbolTableRecord
100
AcDbBlockTableRecord
  2
*D15
340
0
  0
BLOCK_RECORD
  5
45
330
1
100
AcDbSymbolTableRecord
100
AcDbBlockTableRecord
  2
*D16
340
0
  0
BLOCK_RECORD
  5
47
330
1
100
AcDbSymbolTableRecord
100
AcDbBlockTableRecord
  2
*D17
340
0
  0
BLOCK_RECORD
  5
49
330
1
100
AcDbSymbolTableRecord
100
AcDbBlockTableRecord
  2
*D18
340
0
  0
BLOCK_RECORD
  5
4B
330
1
100
AcDbSymbolTableRecord
100
AcDbBlockTableRecord
  2
*D19
340
0
  0
BLOCK_RECORD
  5
4D
330
1
100
AcDbSymbolTableRecord
100
AcDbBlockTableRecord
  2
*D20
340
0
  0
BLOCK_RECORD
  5
4F
330
1
100
AcDbSymbolTableRecord
100
AcDbBlockTableRecord
  2
*D21
340
0
  0
BLOCK_RECORD
  5
51
330
1
100
AcDbSymbolTableRecord
100
AcDbBlockTableRecord
  2
*D22
340
0
  0
BLOCK_RECORD
  5
2A8
330
1
100
AcDbSymbolTableRecord
100
AcDbBlockTableRecord
  2
_Oblique
340
0
102
{BLKREFS
331
3E9
331
3EA
331
3F2
331
3F3
331
40B
331
40C
331
414
331
415
331
41D
331
41E
331
430
331
431
331
439
331
43A
331
468
331
469
331
530
331
531
331
61D
331
61E
331
626
331
627
331
630
331
631
331
639
331
63A
331
642
331
643
331
64B
331
64C
331
669
331
66A
331
673
331
674
102
}
  0
BLOCK_RECORD
  5
2BC
330
1
100
AcDbSymbolTableRecord
100
AcDbBlockTableRecord
  2
HAWA
340
0
102
{BLKREFS
331
2BF
102
}
  0
BLOCK_RECORD
  5
4B8
330
1
100
AcDbSymbolTableRecord
100
AcDbBlockTableRecord
  2
_None
340
0
  0
ENDTAB
  0
ENDSEC
  0
SECTION
  2
BLOCKS
  0
BLOCK
  5
D
330
A
100
AcDbEntity
  8
HAWA1
100
AcDbBlockBegin
  2
*MODEL_SPACE
 70
     0
 10
0.0
 20
0.0
 30
0.0
  3
*MODEL_SPACE
  1

  0
ENDBLK
  5
E
330
A
100
AcDbEntity
  8
HAWA1
100
AcDbBlockEnd
  0
BLOCK
  5
F
330
B
100
AcDbEntity
 67
     1
  8
HAWA1
100
AcDbBlockBegin
  2
*PAPER_SPACE
 70
     0
 10
0.0
 20
0.0
 30
0.0
  3
*PAPER_SPACE
  1

  0
ENDBLK
  5
10
330
B
100
AcDbEntity
 67
     1
  8
HAWA1
100
AcDbBlockEnd
  0
BLOCK
  5
179
330
25
100
AcDbEntity
  8
HAWA1
100
AcDbBlockBegin
  2
*D0
 70
     1
 10
0.0
 20
0.0
 30
0.0
  3
*D0
  1

  0
LINE
  5
63F
330
25
100
AcDbEntity
  8
HAWA1
370
    -2
100
AcDbLine
 10
77.40527139823576
 20
253.8585280011089
 30
0.0
 11
77.40526011653294
 21
253.5197471011749
 31
0.0
  0
LINE
  5
640
330
25
100
AcDbEntity
  8
HAWA1
370
    -2
100
AcDbLine
 10
123.4052713982357
 20
270.3027650011089
 30
0.0
 11
123.4047124579236
 21
253.518215278834
 31
0.0
  0
LINE
  5
641
330
25
100
AcDbEntity
  8
HAWA1
370
    -2
100
AcDbLine
 10
76.40529341796955
 20
254.5197804015025
 30
0.0
 11
124.4047457582513
 21
254.5181819773973
 31
0.0
  0
INSERT
  5
642
330
25
100
AcDbEntity
  8
HAWA1
370
    -2
100
AcDbBlockReference
  2
_Oblique
 10
77.40529341741506
 20
254.5197471006204
 30
0.0
 41
2.0
 42
2.0
 43
2.0
 50
179.998092
  0
INSERT
  5
643
330
25
100
AcDbEntity
  8
HAWA1
370
    -2
100
AcDbBlockReference
  2
_Oblique
 10
123.4047457588058
 20
254.5182152782794
 30
0.0
 41
2.0
 42
2.0
 43
2.0
 50
359.998092
  0
MTEXT
  5
644
330
25
100
AcDbEntity
  8
HAWA1
100
AcDbMText
 10
100.4051229321508
 20
257.6223236161057
 30
0.0
 40
3.5
 41
0.0
 71
     5
 72
     1
  1
\A1;46{}{%%p0,5}
  7
Beschlag
 11
0.9999999994455256
 21
-0.0000333008821221
 31
0.0
 73
     1
 44
1.0
1001
ACAD
1000
MTEXTBEGIN
1070
    73
1070
     1
1070
    44
1040
1.0
1070
    74
1070
     0
1000
MTEXTEND
  0
POINT
  5
645
330
25
100
AcDbEntity
  8
Defpoints
 62
     0
100
AcDbPoint
 10
77.40533800000001
 20
255.858528
 30
0.0
  0
POINT
  5
646
330
25
100
AcDbEntity
  8
Defpoints
 62
     0
100
AcDbPoint
 10
123.405338
 20
272.302765
 30
0.0
  0
POINT
  5
647
330
25
100
AcDbEntity
  8
Defpoints
 62
     0
100
AcDbPoint
 10
123.4047457588058
 20
254.5182152782794
 30
0.0
  0
ENDBLK
  5
181
330
25
100
AcDbEntity
  8
HAWA1
100
AcDbBlockEnd
  0
BLOCK
  5
182
330
27
100
AcDbEntity
  8
HAWA1
100
AcDbBlockBegin
  2
*D1
 70
     1
 10
0.0
 20
0.0
 30
0.0
  3
*D1
  1

  0
LINE
  5
636
330
27
100
AcDbEntity
  8
HAWA1
370
    -2
100
AcDbLine
 10
154.4053046991178
 20
306.8785250002773
 30
0.0
 11
154.4044162327547
 21
253.5185953944949
 31
0.0
  0
LINE
  5
637
330
27
100
AcDbEntity
  8
HAWA1
370
    -2
100
AcDbLine
 10
123.4053046991178
 20
273.8785250002773
 30
0.0
 11
123.404965705904
 21
253.5191115490189
 31
0.0
  0
LINE
  5
638
330
27
100
AcDbEntity
  8
HAWA1
370
    -2
100
AcDbLine
 10
155.4044328830571
 20
254.5185787439152
 30
0.0
 11
122.4049823564837
 21
254.5191281993214
 31
0.0
  0
INSERT
  5
639
330
27
100
AcDbEntity
  8
HAWA1
370
    -2
100
AcDbBlockReference
  2
_Oblique
 10
154.4044328831957
 20
254.5185953943562
 30
0.0
 41
2.0
 42
2.0
 43
2.0
 50
359.999046
  0
INSERT
  5
63A
330
27
100
AcDbEntity
  8
HAWA1
370
    -2
100
AcDbBlockReference
  2
_Oblique
 10
123.4049823563451
 20
254.5191115488803
 30
0.0
 41
2.0
 42
2.0
 43
2.0
 50
179.999046
  0
MTEXT
  5
63B
330
27
100
AcDbEntity
  8
HAWA1
100
AcDbMText
 10
138.9047592917906
 20
257.6221958995646
 30
0.0
 40
3.5
 41
0.0
 71
     5
 72
     1
  1
\A1;31{}{%%p0,5}
  7
Beschlag
 11
0.9999999998613814
 21
-0.0000166504410634
 31
0.0
 73
     1
 44
1.0
1001
ACAD
1000
MTEXTBEGIN
1070
    73
1070
     1
1070
    44
1040
1.0
1070
    74
1070
     0
1000
MTEXTEND
  0
POINT
  5
63C
330
27
100
AcDbEntity
  8
Defpoints
 62
     0
100
AcDbPoint
 10
154.405338
 20
308.878525
 30
0.0
  0
POINT
  5
63D
330
27
100
AcDbEntity
  8
Defpoints
 62
     0
100
AcDbPoint
 10
123.405338
 20
275.8785250000001
 30
0.0
  0
POINT
  5
63E
330
27
100
AcDbEntity
  8
Defpoints
 62
     0
100
AcDbPoint
 10
123.4049823563451
 20
254.5191115488803
 30
0.0
  0
ENDBLK
  5
18A
330
27
100
AcDbEntity
  8
HAWA1
100
AcDbBlockEnd
  0
BLOCK
  5
18B
330
29
100
AcDbEntity
  8
HAWA1
100
AcDbBlockBegin
  2
*D2
 70
     1
 10
0.0
 20
0.0
 30
0.0
  3
*D2
  1

  0
LINE
  5
619
330
29
100
AcDbEntity
  8
HAWA1
370
    -2
100
AcDbLine
 10
142.905338
 20
320.878525
 30
0.0
 11
132.664858
 21
320.878525
 31
0.0
  0
LINE
  5
61A
330
29
100
AcDbEntity
  8
HAWA1
370
    -2
100
AcDbLine
 10
142.905338
 20
326.878525
 30
0.0
 11
132.664858
 21
326.878525
 31
0.0
  0
LINE
  5
61B
330
29
100
AcDbEntity
  8
HAWA1
370
    -2
100
AcDbLine
 10
133.664858
 20
319.878525
 30
0.0
 11
133.664858
 21
326.878525
 31
0.0
  0
LINE
  5
61C
330
29
100
AcDbEntity
  8
HAWA1
370
    -2
100
AcDbLine
 10
133.664858
 20
326.878525
 30
0.0
 11
133.664858
 21
340.534800579809
 31
0.0
  0
INSERT
  5
61D
330
29
100
AcDbEntity
  8
HAWA1
370
    -2
100
AcDbBlockReference
  2
_Oblique
 10
133.664858
 20
320.878525
 30
0.0
 41
2.0
 42
2.0
 43
2.0
 50
270.0
  0
INSERT
  5
61E
330
29
100
AcDbEntity
  8
HAWA1
370
    -2
100
AcDbBlockReference
  2
_Oblique
 10
133.664858
 20
326.878525
 30
0.0
 41
2.0
 42
2.0
 43
2.0
 50
90.0
  0
MTEXT
  5
61F
330
29
100
AcDbEntity
  8
HAWA1
100
AcDbMText
 10
128.4669271223283
 20
334.7066627899045
 30
0.0
 40
3.5
 41
0.0
 71
     5
 72
     1
  1
\A1;%%c6{}{\S+1^ 0;}
  7
Beschlag
 11
0.0000000000000001
 21
1.0
 31
0.0
 73
     1
 44
1.0
1001
ACAD
1000
MTEXTBEGIN
1070
    73
1070
     1
1070
    44
1040
1.0
1070
    74
1070
     0
1000
MTEXTEND
  0
POINT
  5
620
330
29
100
AcDbEntity
  8
Defpoints
 62
     0
100
AcDbPoint
 10
144.905338
 20
320.878525
 30
0.0
  0
POINT
  5
621
330
29
100
AcDbEntity
  8
Defpoints
 62
     0
100
AcDbPoint
 10
144.905338
 20
326.878525
 30
0.0
  0
POINT
  5
622
330
29
100
AcDbEntity
  8
Defpoints
 62
     0
100
AcDbPoint
 10
133.664858
 20
326.878525
 30
0.0
  0
ENDBLK
  5
195
330
29
100
AcDbEntity
  8
HAWA1
100
AcDbBlockEnd
  0
BLOCK
  5
196
330
2B
100
AcDbEntity
  8
HAWA1
100
AcDbBlockBegin
  2
*D3
 70
     1
 10
0.0
 20
0.0
 30
0.0
  3
*D3
  1

  0
LINE
  5
623
330
2B
100
AcDbEntity
  8
HAWA1
370
    -2
100
AcDbLine
 10
137.405338
 20
287.878525
 30
0.0
 11
201.6555250000001
 21
287.878525
 31
0.0
  0
LINE
  5
624
330
2B
100
AcDbEntity
  8
HAWA1
370
    -2
100
AcDbLine
 10
137.405338
 20
359.878525
 30
0.0
 11
201.6555250000001
 21
359.878525
 31
0.0
  0
LINE
  5
625
330
2B
100
AcDbEntity
  8
HAWA1
370
    -2
100
AcDbLine
 10
200.655525
 20
286.878525
 30
0.0
 11
200.6555250000001
 21
360.878525
 31
0.0
  0
INSERT
  5
626
330
2B
100
AcDbEntity
  8
HAWA1
370
    -2
100
AcDbBlockReference
  2
_Oblique
 10
200.655525
 20
287.878525
 30
0.0
 41
2.0
 42
2.0
 43
2.0
 50
270.0
  0
INSERT
  5
627
330
2B
100
AcDbEntity
  8
HAWA1
370
    -2
100
AcDbBlockReference
  2
_Oblique
 10
200.6555250000001
 20
359.878525
 30
0.0
 41
2.0
 42
2.0
 43
2.0
 50
90.0
  0
MTEXT
  5
628
330
2B
100
AcDbEntity
  8
HAWA1
100
AcDbMText
 10
197.5521825716235
 20
323.8785250000001
 30
0.0
 40
3.5
 41
0.0
 71
     5
 72
     1
  1
\A1;72{}{%%p0,5}
  7
Beschlag
 11
0.0000000000000001
 21
1.0
 31
0.0
 73
     1
 44
1.0
1001
ACAD
1000
MTEXTBEGIN
1070
    73
1070
     1
1070
    44
1040
1.0
1070
    74
1070
     0
1000
MTEXTEND
  0
POINT
  5
629
330
2B
100
AcDbEntity
  8
Defpoints
 62
     0
100
AcDbPoint
 10
135.405338
 20
287.878525
 30
0.0
  0
POINT
  5
62A
330
2B
100
AcDbEntity
  8
Defpoints
 62
     0
100
AcDbPoint
 10
135.405338
 20
359.878525
 30
0.0
  0
POINT
  5
62B
330
2B
100
AcDbEntity
  8
Defpoints
 62
     0
100
AcDbPoint
 10
200.6555250000001
 20
359.878525
 30
0.0
  0
ENDBLK
  5
19E
330
2B
100
AcDbEntity
  8
HAWA1
100
AcDbBlockEnd
  0
BLOCK
  5
19F
330
2D
100
AcDbEntity
  8
HAWA1
100
AcDbBlockBegin
  2
*D4
 70
     1
 10
0.0
 20
0.0
 30
0.0
  3
*D4
  1

  0
LINE
  5
436
330
2D
100
AcDbEntity
  8
HAWA1
370
    -2
100
AcDbLine
 10
98.71571899993066
 20
323.8785083495589
 30
0.0
 11
101.9305351457036
 21
323.8784815855055
 31
0.0
  0
LINE
  5
437
330
2D
100
AcDbEntity
  8
HAWA1
370
    -2
100
AcDbLine
 10
106.4726460000693
 20
359.878541650441
 30
0.0
 11
99.93083485452693
 21
359.8785961124615
 31
0.0
  0
LINE
  5
438
330
2D
100
AcDbEntity
  8
HAWA1
370
    -2
100
AcDbLine
 10
100.9305268205177
 20
322.8784899107607
 30
0.0
 11
100.9308431797128
 21
360.8785877872063
 31
0.0
  0
INSERT
  5
439
330
2D
100
AcDbEntity
  8
HAWA1
370
    -2
100
AcDbBlockReference
  2
_Oblique
 10
100.9305351457382
 20
323.878489910726
 30
0.0
 41
2.0
 42
2.0
 43
2.0
 50
269.9995229999999
  0
INSERT
  5
43A
330
2D
100
AcDbEntity
  8
HAWA1
370
    -2
100
AcDbBlockReference
  2
_Oblique
 10
100.9308348544922
 20
359.878587787241
 30
0.0
 41
2.0
 42
2.0
 43
2.0
 50
89.999523
  0
MTEXT
  5
43B
330
2D
100
AcDbEntity
  8
HAWA1
100
AcDbMText
 10
96.48548540033752
 20
341.8785758562506
 30
0.0
 40
3.5
 41
0.0
 71
     5
 72
     1
  1
\A1;36 [1{\H0.711429x;\S13/32;}"]
  7
Beschlag
 11
0.000008325220532
 21
0.9999999999653454
 31
0.0
 73
     1
 44
1.0
1001
ACAD
1000
MTEXTBEGIN
1070
    73
1070
     1
1070
    44
1040
1.0
1070
    74
1070
     0
1000
MTEXTEND
  0
POINT
  5
43C
330
2D
100
AcDbEntity
  8
Defpoints
 62
     0
100
AcDbPoint
 10
96.71571899999998
 20
323.878525
 30
0.0
  0
POINT
  5
43D
330
2D
100
AcDbEntity
  8
Defpoints
 62
     0
100
AcDbPoint
 10
108.472646
 20
359.878525
 30
0.0
  0
POINT
  5
43E
330
2D
100
AcDbEntity
  8
Defpoints
 62
     0
100
AcDbPoint
 10
100.9308348544922
 20
359.878587787241
 30
0.0
  0
ENDBLK
  5
1AC
330
2D
100
AcDbEntity
  8
HAWA1
100
AcDbBlockEnd
  0
BLOCK
  5
1AD
330
2F
100
AcDbEntity
  8
HAWA1
100
AcDbBlockBegin
  2
*D5
 70
     1
 10
0.0
 20
0.0
 30
0.0
  3
*D5
  1

  0
LINE
  5
42D
330
2F
100
AcDbEntity
  8
HAWA1
370
    -2
100
AcDbLine
 10
100.7201619993762
 20
323.8784750486768
 30
0.0
 11
101.9311345602178
 21
323.8784448038359
 31
0.0
  0
LINE
  5
42E
330
2F
100
AcDbEntity
  8
HAWA1
370
    -2
100
AcDbLine
 10
106.4726460006237
 20
287.8785749513232
 30
0.0
 11
99.93023544310789
 21
287.8787383523553
 31
0.0
  0
LINE
  5
42F
330
2F
100
AcDbEntity
  8
HAWA1
370
    -2
100
AcDbLine
 10
100.9311595361912
 20
324.8784697791856
 30
0.0
 11
100.9302104671344
 21
286.8787133770056
 31
0.0
  0
INSERT
  5
430
330
2F
100
AcDbEntity
  8
HAWA1
370
    -2
100
AcDbBlockReference
  2
_Oblique
 10
100.9311345605296
 20
323.8784697794975
 30
0.0
 41
2.0
 42
2.0
 43
2.0
 50
89.99856899999997
  0
INSERT
  5
431
330
2F
100
AcDbEntity
  8
HAWA1
370
    -2
100
AcDbBlockReference
  2
_Oblique
 10
100.930235442796
 20
287.8787133766937
 30
0.0
 41
2.0
 42
2.0
 43
2.0
 50
269.998569
  0
MTEXT
  5
432
330
2F
100
AcDbEntity
  8
HAWA1
100
AcDbMText
 10
96.48548540311747
 20
305.8787025998965
 30
0.0
 40
3.5
 41
0.0
 71
     5
 72
     1
  1
\A1;36 [1{\H0.711429x;\S13/32;}"]
  7
Beschlag
 11
0.0000249756615941
 21
0.9999999996881081
 31
0.0
 73
     1
 44
1.0
1001
ACAD
1000
MTEXTBEGIN
1070
    73
1070
     1
1070
    44
1040
1.0
1070
    74
1070
     0
1000
MTEXTEND
  0
POINT
  5
433
330
2F
100
AcDbEntity
  8
Defpoints
 62
     0
100
AcDbPoint
 10
98.72016199999999
 20
323.878525
 30
0.0
  0
POINT
  5
434
330
2F
100
AcDbEntity
  8
Defpoints
 62
     0
100
AcDbPoint
 10
108.472646
 20
287.8785249999999
 30
0.0
  0
POINT
  5
435
330
2F
100
AcDbEntity
  8
Defpoints
 62
     0
100
AcDbPoint
 10
100.930235442796
 20
287.8787133766937
 30
0.0
  0
ENDBLK
  5
1BA
330
2F
100
AcDbEntity
  8
HAWA1
100
AcDbBlockEnd
  0
BLOCK
  5
1BB
330
31
100
AcDbEntity
  8
HAWA1
100
AcDbBlockBegin
  2
*D6
 70
     1
 10
0.0
 20
0.0
 30
0.0
  3
*D6
  1

  0
LINE
  5
648
330
31
100
AcDbEntity
  8
HAWA1
370
    -2
100
AcDbLine
 10
154.4053713008821
 20
334.8785249997228
 30
0.0
 11
154.4055554201756
 21
345.9364478969346
 31
0.0
  0
LINE
  5
649
330
31
100
AcDbEntity
  8
HAWA1
370
    -2
100
AcDbLine
 10
144.9053713008821
 20
328.6427919997227
 30
0.0
 11
144.9056592505142
 21
345.9366060743959
 31
0.0
  0
LINE
  5
64A
330
31
100
AcDbEntity
  8
HAWA1
370
    -2
100
AcDbLine
 10
155.4055387695959
 20
344.9364312466321
 30
0.0
 11
143.9056426002117
 21
344.9366227249756
 31
0.0
  0
INSERT
  5
64B
330
31
100
AcDbEntity
  8
HAWA1
370
    -2
100
AcDbBlockReference
  2
_Oblique
 10
154.4055387697345
 20
344.9364478970732
 30
0.0
 41
2.0
 42
2.0
 43
2.0
 50
359.999046
  0
INSERT
  5
64C
330
31
100
AcDbEntity
  8
HAWA1
370
    -2
100
AcDbBlockReference
  2
_Oblique
 10
144.9056426000731
 20
344.9366060745345
 30
0.0
 41
2.0
 42
2.0
 43
2.0
 50
179.999046
  0
MTEXT
  5
64D
330
31
100
AcDbEntity
  8
HAWA1
100
AcDbMText
 10
149.6556646852974
 20
349.3808773349491
 30
0.0
 40
3.5
 41
0.0
 71
     5
 72
     1
  1
\A1;9.5 [{\H0.711429x;\S3/8;}"]
  7
Beschlag
 11
0.9999999998613814
 21
-0.0000166504410634
 31
0.0
 73
     1
 44
1.0
1001
ACAD
1000
MTEXTBEGIN
1070
    73
1070
     1
1070
    44
1040
1.0
1070
    74
1070
     0
1000
MTEXTEND
  0
POINT
  5
64E
330
31
100
AcDbEntity
  8
Defpoints
 62
     0
100
AcDbPoint
 10
154.405338
 20
332.878525
 30
0.0
  0
POINT
  5
64F
330
31
100
AcDbEntity
  8
Defpoints
 62
     0
100
AcDbPoint
 10
144.905338
 20
326.642792
 30
0.0
  0
POINT
  5
650
330
31
100
AcDbEntity
  8
Defpoints
 62
     0
100
AcDbPoint
 10
144.9056426000731
 20
344.9366060745345
 30
0.0
  0
ENDBLK
  5
1C7
330
31
100
AcDbEntity
  8
HAWA1
100
AcDbBlockEnd
  0
BLOCK
  5
1C8
330
33
100
AcDbEntity
  8
HAWA1
100
AcDbBlockBegin
  2
*D7
 70
     1
 10
0.0
 20
0.0
 30
0.0
  3
*D7
  1

  0
LINE
  5
41A
330
33
100
AcDbEntity
  8
HAWA1
370
    -2
100
AcDbLine
 10
92.40530369911788
 20
189.3785250002772
 30
0.0
 11
92.40511794434466
 21
178.2223776958644
 31
0.0
  0
LINE
  5
41B
330
33
100
AcDbEntity
  8
HAWA1
370
    -2
100
AcDbLine
 10
77.40530469911788
 20
211.3785250002773
 30
0.0
 11
77.40475263879988
 21
178.2226274585629
 31
0.0
  0
LINE
  5
41C
330
33
100
AcDbEntity
  8
HAWA1
370
    -2
100
AcDbLine
 10
93.40513459464713
 20
179.2223610452847
 30
0.0
 11
76.40476928937956
 21
179.2226441088654
 31
0.0
  0
INSERT
  5
41D
330
33
100
AcDbEntity
  8
HAWA1
370
    -2
100
AcDbBlockReference
  2
_Oblique
 10
92.40513459478574
 20
179.2223776957258
 30
0.0
 41
2.0
 42
2.0
 43
2.0
 50
359.999046
  0
INSERT
  5
41E
330
33
100
AcDbEntity
  8
HAWA1
370
    -2
100
AcDbBlockReference
  2
_Oblique
 10
77.40476928924095
 20
179.2226274584243
 30
0.0
 41
2.0
 42
2.0
 43
2.0
 50
179.999046
  0
MTEXT
  5
41F
330
33
100
AcDbEntity
  8
HAWA1
100
AcDbMText
 10
84.90502594240691
 20
183.6668529262203
 30
0.0
 40
3.5
 41
0.0
 71
     5
 72
     1
  1
\A1;15 [{\H0.711429x;\S19/32;}"]
  7
Beschlag
 11
0.9999999998613814
 21
-0.0000166504410634
 31
0.0
 73
     1
 44
1.0
1001
ACAD
1000
MTEXTBEGIN
1070
    73
1070
     1
1070
    44
1040
1.0
1070
    74
1070
     0
1000
MTEXTEND
  0
POINT
  5
420
330
33
100
AcDbEntity
  8
Defpoints
 62
     0
100
AcDbPoint
 10
92.405337
 20
191.378525
 30
0.0
  0
POINT
  5
421
330
33
100
AcDbEntity
  8
Defpoints
 62
     0
100
AcDbPoint
 10
77.405338
 20
213.378525
 30
0.0
  0
POINT
  5
422
330
33
100
AcDbEntity
  8
Defpoints
 62
     0
100
AcDbPoint
 10
77.40476928924095
 20
179.2226274584243
 30
0.0
  0
ENDBLK
  5
1D4
330
33
100
AcDbEntity
  8
HAWA1
100
AcDbBlockEnd
  0
BLOCK
  5
1D5
330
35
100
AcDbEntity
  8
HAWA1
100
AcDbBlockBegin
  2
*D8
 70
     1
 10
0.0
 20
0.0
 30
0.0
  3
*D8
  1

  0
LINE
  5
411
330
35
100
AcDbEntity
  8
HAWA1
370
    -2
100
AcDbLine
 10
17.57559200062378
 20
139.9695569513231
 30
0.0
 11
-45.73914347091344
 21
139.9711382787307
 31
0.0
  0
LINE
  5
412
330
35
100
AcDbEntity
  8
HAWA1
370
    -2
100
AcDbLine
 10
19.17252300062378
 20
24.96955495132318
 30
0.0
 11
-45.7420156710497
 21
24.9711762348741
 31
0.0
  0
LINE
  5
413
330
35
100
AcDbEntity
  8
HAWA1
370
    -2
100
AcDbLine
 10
-44.73911849556373
 20
140.9711133027572
 30
0.0
 11
-44.74204064702318
 21
23.9711512595244
 31
0.0
  0
INSERT
  5
414
330
35
100
AcDbEntity
  8
HAWA1
370
    -2
100
AcDbBlockReference
  2
_Oblique
 10
-44.73914347122533
 20
139.9711133030691
 30
0.0
 41
2.0
 42
2.0
 43
2.0
 50
89.99856899999997
  0
INSERT
  5
415
330
35
100
AcDbEntity
  8
HAWA1
370
    -2
100
AcDbBlockReference
  2
_Oblique
 10
-44.74201567136158
 20
24.97115125921251
 30
0.0
 41
2.0
 42
2.0
 43
2.0
 50
269.998569
  0
MTEXT
  5
416
330
35
100
AcDbEntity
  8
HAWA1
100
AcDbMText
 10
-49.16369866541188
 20
82.47124275146653
 30
0.0
 40
3.5
 41
0.0
 71
     5
 72
     1
  1
\A1;115 [4{\H0.711429x;\S17/32;}"]
  7
Beschlag
 11
0.0000249756615941
 21
0.9999999996881081
 31
0.0
 73
     1
 44
1.0
1001
ACAD
1000
MTEXTBEGIN
1070
    73
1070
     1
1070
    44
1040
1.0
1070
    74
1070
     0
1000
MTEXTEND
  0
POINT
  5
417
330
35
100
AcDbEntity
  8
Defpoints
 62
     0
100
AcDbPoint
 10
19.575592
 20
139.9695069999999
 30
0.0
  0
POINT
  5
418
330
35
100
AcDbEntity
  8
Defpoints
 62
     0
100
AcDbPoint
 10
21.172523
 20
24.969505
 30
0.0
  0
POINT
  5
419
330
35
100
AcDbEntity
  8
Defpoints
 62
     0
100
AcDbPoint
 10
-44.74201567136158
 20
24.97115125921251
 30
0.0
  0
ENDBLK
  5
1E2
330
35
100
AcDbEntity
  8
HAWA1
100
AcDbBlockEnd
  0
BLOCK
  5
1E3
330
37
100
AcDbEntity
  8
HAWA1
100
AcDbBlockBegin
  2
*D9
 70
     1
 10
0.0
 20
0.0
 30
0.0
  3
*D9
  1

  0
LINE
  5
408
330
37
100
AcDbEntity
  8
HAWA1
370
    -2
100
AcDbLine
 10
94.40527039823576
 20
23.96950500110895
 30
0.0
 11
94.40440665957117
 21
-1.967905934320996
 31
0.0
  0
LINE
  5
409
330
37
100
AcDbEntity
  8
HAWA1
370
    -2
100
AcDbLine
 10
174.4052673982357
 20
80.46950500110895
 30
0.0
 11
174.4025220710164
 21
-1.970569942133777
 31
0.0
  0
LINE
  5
40A
330
37
100
AcDbEntity
  8
HAWA1
370
    -2
100
AcDbLine
 10
93.40443996100777
 20
-0.9678726339933472
 30
0.0
 11
175.402555371344
 21
-0.9706032435703766
 31
0.0
  0
INSERT
  5
40B
330
37
100
AcDbEntity
  8
HAWA1
370
    -2
100
AcDbBlockReference
  2
_Oblique
 10
94.40443996045329
 20
-0.9679059348754693
 30
0.0
 41
2.0
 42
2.0
 43
2.0
 50
179.998092
  0
INSERT
  5
40C
330
37
100
AcDbEntity
  8
HAWA1
370
    -2
100
AcDbBlockReference
  2
_Oblique
 10
174.4025553718985
 20
-0.9705699426882546
 30
0.0
 41
2.0
 42
2.0
 43
2.0
 50
359.998092
  0
MTEXT
  5
40D
330
37
100
AcDbEntity
  8
HAWA1
100
AcDbMText
 10
134.4036449316627
 20
3.453031904093524
 30
0.0
 40
3.5
 41
0.0
 71
     5
 72
     1
  1
\A1;80 [3{\H0.711429x;\S5/32;}"]
  7
Beschlag
 11
0.9999999994455256
 21
-0.0000333008821221
 31
0.0
 73
     1
 44
1.0
1001
ACAD
1000
MTEXTBEGIN
1070
    73
1070
     1
1070
    44
1040
1.0
1070
    74
1070
     0
1000
MTEXTEND
  0
POINT
  5
40E
330
37
100
AcDbEntity
  8
Defpoints
 62
     0
100
AcDbPoint
 10
94.40533700000001
 20
25.969505
 30
0.0
  0
POINT
  5
40F
330
37
100
AcDbEntity
  8
Defpoints
 62
     0
100
AcDbPoint
 10
174.405334
 20
82.46950500000002
 30
0.0
  0
POINT
  5
410
330
37
100
AcDbEntity
  8
Defpoints
 62
     0
100
AcDbPoint
 10
174.4025553718985
 20
-0.9705699426882546
 30
0.0
  0
ENDBLK
  5
1F0
330
37
100
AcDbEntity
  8
HAWA1
100
AcDbBlockEnd
  0
BLOCK
  5
1F1
330
39
100
AcDbEntity
  8
HAWA1
100
AcDbBlockBegin
  2
*D10
 70
     1
 10
0.0
 20
0.0
 30
0.0
  3
*D10
  1

  0
LINE
  5
52C
330
39
100
AcDbEntity
  8
HAWA1
370
    -2
100
AcDbLine
 10
-52.31057700062376
 20
-65.22333195132318
 30
0.0
 11
-51.97045185584658
 21
-65.2233404461737
 31
0.0
  0
LINE
  5
52D
330
39
100
AcDbEntity
  8
HAWA1
370
    -2
100
AcDbLine
 10
-52.34606900062376
 20
-73.22333195132317
 30
0.0
 11
-51.97065166116141
 21
-73.22334132761959
 31
0.0
  0
LINE
  5
52E
330
39
100
AcDbEntity
  8
HAWA1
370
    -2
100
AcDbLine
 10
-52.97065166084951
 20
-73.223316351958
 30
0.0
 11
-52.9704268798731
 21
-64.22331547082399
 31
0.0
  0
LINE
  5
52F
330
39
100
AcDbEntity
  8
HAWA1
370
    -2
100
AcDbLine
 10
-52.97045185553468
 20
-65.2233154705121
 30
0.0
 11
-52.96963702433839
 21
-32.59830600031189
 31
0.0
  0
INSERT
  5
530
330
39
100
AcDbEntity
  8
HAWA1
370
    -2
100
AcDbBlockReference
  2
_Oblique
 10
-52.97065166084951
 20
-73.223316351958
 30
0.0
 41
2.0
 42
2.0
 43
2.0
 50
269.998569
  0
INSERT
  5
531
330
39
100
AcDbEntity
  8
HAWA1
370
    -2
100
AcDbBlockReference
  2
_Oblique
 10
-52.97045185553468
 20
-65.2233154705121
 30
0.0
 41
2.0
 42
2.0
 43
2.0
 50
89.99856899999997
  0
POINT
  5
532
330
39
100
AcDbEntity
  8
Defpoints
 62
     0
100
AcDbPoint
 10
-54.31057699999999
 20
-65.223282
 30
0.0
  0
POINT
  5
533
330
39
100
AcDbEntity
  8
Defpoints
 62
     0
100
AcDbPoint
 10
-54.34606899999998
 20
-73.22328199999998
 30
0.0
  0
POINT
  5
534
330
39
100
AcDbEntity
  8
Defpoints
 62
     0
100
AcDbPoint
 10
-52.97065166084951
 20
-73.223316351958
 30
0.0
  0
ENDBLK
  5
1F7
330
39
100
AcDbEntity
  8
HAWA1
100
AcDbBlockEnd
  0
BLOCK
  5
1F8
330
3B
100
AcDbEntity
  8
HAWA1
100
AcDbBlockBegin
  2
*D11
 70
     1
 10
0.0
 20
0.0
 30
0.0
  3
*D11
  1

  0
LINE
  5
464
330
3B
100
AcDbEntity
  8
HAWA1
370
    -2
100
AcDbLine
 10
61.705891
 20
-56.77328499999999
 30
0.0
 11
76.90533199999999
 21
-56.77328499999999
 31
0.0
  0
LINE
  5
465
330
3B
100
AcDbEntity
  8
HAWA1
370
    -2
100
AcDbLine
 10
61.705891
 20
-81.17327900000001
 30
0.0
 11
76.90533199999999
 21
-81.17327900000001
 31
0.0
  0
LINE
  5
466
330
3B
100
AcDbEntity
  8
HAWA1
370
    -2
100
AcDbLine
 10
75.90533199999999
 20
-55.773285
 30
0.0
 11
75.90533199999999
 21
-81.17327900000001
 31
0.0
  0
LINE
  5
467
330
3B
100
AcDbEntity
  8
HAWA1
370
    -2
100
AcDbLine
 10
75.90533199999999
 20
-81.17327900000001
 30
0.0
 11
75.90533199999997
 21
-122.846436
 31
0.0
  0
INSERT
  5
468
330
3B
100
AcDbEntity
  8
HAWA1
370
    -2
100
AcDbBlockReference
  2
_Oblique
 10
75.90533199999999
 20
-56.77328499999999
 30
0.0
 41
2.0
 42
2.0
 43
2.0
 50
90.0
  0
INSERT
  5
469
330
3B
100
AcDbEntity
  8
HAWA1
370
    -2
100
AcDbBlockReference
  2
_Oblique
 10
75.90533199999999
 20
-81.17327900000001
 30
0.0
 41
2.0
 42
2.0
 43
2.0
 50
270.0
  0
POINT
  5
46A
330
3B
100
AcDbEntity
  8
Defpoints
 62
     0
100
AcDbPoint
 10
59.705891
 20
-56.77328499999999
 30
0.0
  0
POINT
  5
46B
330
3B
100
AcDbEntity
  8
Defpoints
 62
     0
100
AcDbPoint
 10
59.705891
 20
-81.17327900000001
 30
0.0
  0
POINT
  5
46C
330
3B
100
AcDbEntity
  8
Defpoints
 62
     0
100
AcDbPoint
 10
75.90533199999999
 20
-81.17327900000001
 30
0.0
  0
ENDBLK
  5
1FE
330
3B
100
AcDbEntity
  8
HAWA1
100
AcDbBlockEnd
  0
BLOCK
  5
1FF
330
3D
100
AcDbEntity
  8
HAWA1
100
AcDbBlockBegin
  2
*D12
 70
     1
 10
0.0
 20
0.0
 30
0.0
  3
*D12
  1

  0
LINE
  5
3EF
330
3D
100
AcDbEntity
  8
HAWA1
370
    -2
100
AcDbLine
 10
115.905337
 20
-50.423279
 30
0.0
 11
149.607258
 21
-50.423279
 31
0.0
  0
LINE
  5
3F0
330
3D
100
AcDbEntity
  8
HAWA1
370
    -2
100
AcDbLine
 10
115.905337
 20
-88.02328499999999
 30
0.0
 11
149.607258
 21
-88.02328499999999
 31
0.0
  0
LINE
  5
3F1
330
3D
100
AcDbEntity
  8
HAWA1
370
    -2
100
AcDbLine
 10
148.607258
 20
-49.42327900000001
 30
0.0
 11
148.607258
 21
-89.02328500000001
 31
0.0
  0
INSERT
  5
3F2
330
3D
100
AcDbEntity
  8
HAWA1
370
    -2
100
AcDbBlockReference
  2
_Oblique
 10
148.607258
 20
-50.423279
 30
0.0
 41
2.0
 42
2.0
 43
2.0
 50
90.0
  0
INSERT
  5
3F3
330
3D
100
AcDbEntity
  8
HAWA1
370
    -2
100
AcDbBlockReference
  2
_Oblique
 10
148.607258
 20
-88.02328499999999
 30
0.0
 41
2.0
 42
2.0
 43
2.0
 50
270.0
  0
MTEXT
  5
3F4
330
3D
100
AcDbEntity
  8
HAWA1
100
AcDbMText
 10
144.1629076502387
 20
-69.22328199999999
 30
0.0
 40
3.5
 41
0.0
 71
     5
 72
     1
  1
\A1;37.6 [1{\H0.711429x;\S15/32;}"]
  7
Beschlag
 11
0.0000000000000001
 21
1.0
 31
0.0
 73
     1
 44
1.0
1001
ACAD
1000
MTEXTBEGIN
1070
    73
1070
     1
1070
    44
1040
1.0
1070
    74
1070
     0
1000
MTEXTEND
  0
POINT
  5
3F5
330
3D
100
AcDbEntity
  8
Defpoints
 62
     0
100
AcDbPoint
 10
113.905337
 20
-50.423279
 30
0.0
  0
POINT
  5
3F6
330
3D
100
AcDbEntity
  8
Defpoints
 62
     0
100
AcDbPoint
 10
113.905337
 20
-88.02328499999999
 30
0.0
  0
POINT
  5
3F7
330
3D
100
AcDbEntity
  8
Defpoints
 62
     0
100
AcDbPoint
 10
148.607258
 20
-88.02328499999999
 30
0.0
  0
ENDBLK
  5
20C
330
3D
100
AcDbEntity
  8
HAWA1
100
AcDbBlockEnd
  0
BLOCK
  5
20D
330
3F
100
AcDbEntity
  8
HAWA1
100
AcDbBlockBegin
  2
*D13
 70
     1
 10
0.0
 20
0.0
 30
0.0
  3
*D13
  1

  0
LINE
  5
3E6
330
3F
100
AcDbEntity
  8
HAWA1
370
    -2
100
AcDbLine
 10
113.9053036991179
 20
-110.0232849997228
 30
0.0
 11
113.905090185087
 21
-122.8466108256602
 31
0.0
  0
LINE
  5
3E7
330
3F
100
AcDbEntity
  8
HAWA1
370
    -2
100
AcDbLine
 10
92.90530369911788
 20
-88.02328499972277
 30
0.0
 11
92.9047238812056
 21
-122.8462611602987
 31
0.0
  0
LINE
  5
3E8
330
3F
100
AcDbEntity
  8
HAWA1
370
    -2
100
AcDbLine
 10
114.9051068353894
 20
-121.8466274762399
 30
0.0
 11
91.90474053178526
 21
-121.8462445099963
 31
0.0
  0
INSERT
  5
3E9
330
3F
100
AcDbEntity
  8
HAWA1
370
    -2
100
AcDbBlockReference
  2
_Oblique
 10
113.905106835528
 20
-121.8466108257988
 30
0.0
 41
2.0
 42
2.0
 43
2.0
 50
359.999046
  0
INSERT
  5
3EA
330
3F
100
AcDbEntity
  8
HAWA1
370
    -2
100
AcDbBlockReference
  2
_Oblique
 10
92.90474053164665
 20
-121.8462611604373
 30
0.0
 41
2.0
 42
2.0
 43
2.0
 50
179.999046
  0
MTEXT
  5
3EB
330
3F
100
AcDbEntity
  8
HAWA1
100
AcDbMText
 10
103.4049976839809
 20
-117.4020856439729
 30
0.0
 40
3.5
 41
0.0
 71
     5
 72
     1
  1
\A1;21 [{\H0.711429x;\S13/16;}"]
  7
Beschlag
 11
0.9999999998613814
 21
-0.0000166504410634
 31
0.0
 73
     1
 44
1.0
1001
ACAD
1000
MTEXTBEGIN
1070
    73
1070
     1
1070
    44
1040
1.0
1070
    74
1070
     0
1000
MTEXTEND
  0
POINT
  5
3EC
330
3F
100
AcDbEntity
  8
Defpoints
 62
     0
100
AcDbPoint
 10
113.905337
 20
-108.023285
 30
0.0
  0
POINT
  5
3ED
330
3F
100
AcDbEntity
  8
Defpoints
 62
     0
100
AcDbPoint
 10
92.90533700000002
 20
-86.023285
 30
0.0
  0
POINT
  5
3EE
330
3F
100
AcDbEntity
  8
Defpoints
 62
     0
100
AcDbPoint
 10
92.90474053164665
 20
-121.8462611604373
 30
0.0
  0
ENDBLK
  5
219
330
3F
100
AcDbEntity
  8
HAWA1
100
AcDbBlockEnd
  0
BLOCK
  5
21A
330
41
100
AcDbEntity
  8
HAWA1
100
AcDbBlockBegin
  2
*D14
 70
     1
 10
0.0
 20
0.0
 30
0.0
  3
*D14
  1

  0
LINE
  5
62C
330
41
100
AcDbEntity
  8
HAWA1
370
    -2
100
AcDbLine
 10
156.405338
 20
332.878527
 30
0.0
 11
175.832645
 21
332.878527
 31
0.0
  0
LINE
  5
62D
330
41
100
AcDbEntity
  8
HAWA1
370
    -2
100
AcDbLine
 10
156.405338
 20
314.878527
 30
0.0
 11
175.832645
 21
314.878527
 31
0.0
  0
LINE
  5
62E
330
41
100
AcDbEntity
  8
HAWA1
370
    -2
100
AcDbLine
 10
174.832645
 20
333.878527
 30
0.0
 11
174.832645
 21
314.878527
 31
0.0
  0
LINE
  5
62F
330
41
100
AcDbEntity
  8
HAWA1
370
    -2
100
AcDbLine
 10
174.832645
 20
314.878527
 30
0.0
 11
174.832645
 21
294.4731722933152
 31
0.0
  0
INSERT
  5
630
330
41
100
AcDbEntity
  8
HAWA1
370
    -2
100
AcDbBlockReference
  2
_Oblique
 10
174.832645
 20
332.878527
 30
0.0
 41
2.0
 42
2.0
 43
2.0
 50
90.0
  0
INSERT
  5
631
330
41
100
AcDbEntity
  8
HAWA1
370
    -2
100
AcDbBlockReference
  2
_Oblique
 10
174.832645
 20
314.878527
 30
0.0
 41
2.0
 42
2.0
 43
2.0
 50
270.0
  0
MTEXT
  5
632
330
41
100
AcDbEntity
  8
HAWA1
100
AcDbMText
 10
169.2885340404729
 20
303.6758496466577
 30
0.0
 40
3.5
 41
0.0
 71
     5
 72
     1
  1
\A1;%%c18{}{\S+0,5^ 0;}
  7
Beschlag
 11
0.0000000000000001
 21
1.0
 31
0.0
 73
     1
 44
1.0
1001
ACAD
1000
MTEXTBEGIN
1070
    73
1070
     1
1070
    44
1040
1.0
1070
    74
1070
     0
1000
MTEXTEND
  0
POINT
  5
633
330
41
100
AcDbEntity
  8
Defpoints
 62
     0
100
AcDbPoint
 10
154.405338
 20
332.878527
 30
0.0
  0
POINT
  5
634
330
41
100
AcDbEntity
  8
Defpoints
 62
     0
100
AcDbPoint
 10
154.405338
 20
314.878527
 30
0.0
  0
POINT
  5
635
330
41
100
AcDbEntity
  8
Defpoints
 62
     0
100
AcDbPoint
 10
174.832645
 20
314.878527
 30
0.0
  0
ENDBLK
  5
226
330
41
100
AcDbEntity
  8
HAWA1
100
AcDbBlockEnd
  0
BLOCK
  5
227
330
43
100
AcDbEntity
  8
HAWA1
100
AcDbBlockBegin
  2
*D15
 70
     1
 10
0.0
 20
0.0
 30
0.0
  3
*D15
  1

  0
LINE
  5
66F
330
43
100
AcDbEntity
  8
HAWA1
370
    -2
100
AcDbLine
 10
80.4053379993762
 20
210.3784770486768
 30
0.0
 11
123.3264626409046
 21
210.3774050651921
 31
0.0
  0
LINE
  5
670
330
43
100
AcDbEntity
  8
HAWA1
370
    -2
100
AcDbLine
 10
93.40533799937619
 20
200.3784770486768
 30
0.0
 11
123.326212892398
 21
200.3777297550306
 31
0.0
  0
LINE
  5
671
330
43
100
AcDbEntity
  8
HAWA1
370
    -2
100
AcDbLine
 10
122.3264876168781
 20
211.3774300405418
 30
0.0
 11
122.3262128927099
 21
200.3777547306922
 31
0.0
  0
LINE
  5
672
330
43
100
AcDbEntity
  8
HAWA1
370
    -2
100
AcDbLine
 10
122.3262128927099
 20
200.3777547306922
 30
0.0
 11
122.3256164291606
 21
176.4959629781623
 31
0.0
  0
INSERT
  5
673
330
43
100
AcDbEntity
  8
HAWA1
370
    -2
100
AcDbBlockReference
  2
_Oblique
 10
122.3264626412165
 20
210.3774300408537
 30
0.0
 41
2.0
 42
2.0
 43
2.0
 50
89.99856899999997
  0
INSERT
  5
674
330
43
100
AcDbEntity
  8
HAWA1
370
    -2
100
AcDbBlockReference
  2
_Oblique
 10
122.3262128927099
 20
200.3777547306922
 30
0.0
 41
2.0
 42
2.0
 43
2.0
 50
269.998569
  0
MTEXT
  5
675
330
43
100
AcDbEntity
  8
HAWA1
100
AcDbMText
 10
117.8806003426531
 20
183.8437086994792
 30
0.0
 40
3.5
 41
0.0
 71
     5
 72
     1
  1
\A1;10 [{\H0.711429x;\S13/32;}"]
  7
Beschlag
 11
0.0000249756615941
 21
0.9999999996881081
 31
0.0
 73
     1
 44
1.0
1001
ACAD
1000
MTEXTBEGIN
1070
    73
1070
     1
1070
    44
1040
1.0
1070
    74
1070
     0
1000
MTEXTEND
  0
POINT
  5
676
330
43
100
AcDbEntity
  8
Defpoints
 62
     0
100
AcDbPoint
 10
78.40533799999997
 20
210.3785269999999
 30
0.0
  0
POINT
  5
677
330
43
100
AcDbEntity
  8
Defpoints
 62
     0
100
AcDbPoint
 10
91.40533799999998
 20
200.378527
 30
0.0
  0
POINT
  5
678
330
43
100
AcDbEntity
  8
Defpoints
 62
     0
100
AcDbPoint
 10
122.3262128927099
 20
200.3777547306922
 30
0.0
  0
ENDBLK
  5
232
330
43
100
AcDbEntity
  8
HAWA1
100
AcDbBlockEnd
  0
BLOCK
  5
233
330
45
100
AcDbEntity
  8
HAWA1
100
AcDbBlockBegin
  2
*D16
 70
     1
 10
0.0
 20
0.0
 30
0.0
  3
*D16
  1

  0
LINE
  5
665
330
45
100
AcDbEntity
  8
HAWA1
370
    -2
100
AcDbLine
 10
93.40533799993066
 20
200.3785103495589
 30
0.0
 11
123.326180195784
 21
200.3782612519491
 31
0.0
  0
LINE
  5
666
330
45
100
AcDbEntity
  8
HAWA1
370
    -2
100
AcDbLine
 10
80.40533799993069
 20
210.3785103495589
 30
0.0
 11
123.3262634470883
 21
210.3781530233891
 31
0.0
  0
LINE
  5
667
330
45
100
AcDbEntity
  8
HAWA1
370
    -2
100
AcDbLine
 10
122.3262634471229
 20
210.3781613486096
 30
0.0
 11
122.3261718705981
 21
199.3782695772043
 31
0.0
  0
LINE
  5
668
330
45
100
AcDbEntity
  8
HAWA1
370
    -2
100
AcDbLine
 10
122.3261801958186
 20
200.3782695771696
 30
0.0
 11
122.326096789432
 21
190.3597497957978
 31
0.0
  0
INSERT
  5
669
330
45
100
AcDbEntity
  8
HAWA1
370
    -2
100
AcDbBlockReference
  2
_Oblique
 10
122.3262634471229
 20
210.3781613486096
 30
0.0
 41
2.0
 42
2.0
 43
2.0
 50
89.999523
  0
INSERT
  5
66A
330
45
100
AcDbEntity
  8
HAWA1
370
    -2
100
AcDbBlockReference
  2
_Oblique
 10
122.3261801958186
 20
200.3782695771696
 30
0.0
 41
2.0
 42
2.0
 43
2.0
 50
269.9995229999999
  0
MTEXT
  5
66B
330
45
100
AcDbEntity
  8
HAWA1
100
AcDbMText
 10
119.5391247104754
 20
194.3690328889535
 30
0.0
 40
3.5
 41
0.0
 71
     5
 72
     1
  1
\A1;-16
  7
Beschlag
 11
0.000008325220532
 21
0.9999999999653454
 31
0.0
 73
     1
 44
1.0
1001
ACAD
1000
MTEXTBEGIN
1070
    73
1070
     1
1070
    44
1040
1.0
1070
    74
1070
     0
1000
MTEXTEND
  0
POINT
  5
66C
330
45
100
AcDbEntity
  8
Defpoints
 62
     0
100
AcDbPoint
 10
91.40533799999998
 20
200.378527
 30
0.0
  0
POINT
  5
66D
330
45
100
AcDbEntity
  8
Defpoints
 62
     0
100
AcDbPoint
 10
78.40533799999999
 20
210.3785269999999
 30
0.0
  0
POINT
  5
66E
330
45
100
AcDbEntity
  8
Defpoints
 62
     0
100
AcDbPoint
 10
122.3262634471229
 20
210.3781613486096
 30
0.0
  0
ENDBLK
  5
23F
330
45
100
AcDbEntity
  8
HAWA1
100
AcDbBlockEnd
  0
BLOCK
  5
240
330
47
100
AcDbEntity
  8
HAWA1
100
AcDbBlockBegin
  2
*D17
 70
     1
 10
0.0
 20
0.0
 30
0.0
  3
*D17
  1

  0
MTEXT
  5
6AE
330
47
100
AcDbEntity
  8
HAWA1
100
AcDbMText
 10
61.63513148731476
 20
-118.5520916643929
 30
0.0
 40
3.5
 41
0.0
 71
     5
 72
     1
  1
\A1;(24
  7
Beschlag
 73
     1
 44
1.0
1001
ACAD
1000
MTEXTBEGIN
1070
    73
1070
     1
1070
    44
1040
1.0
1070
    74
1070
     0
1000
MTEXTEND
  0
POINT
  5
6AF
330
47
100
AcDbEntity
  8
Defpoints
 62
     0
100
AcDbPoint
 10
75.905338
 20
-121.84643
 30
0.0
  0
POINT
  5
6B0
330
47
100
AcDbEntity
  8
Defpoints
 62
     0
100
AcDbPoint
 10
45.69031210243702
 20
-121.84643
 30
0.0
  0
POINT
  5
6B1
330
47
100
AcDbEntity
  8
Defpoints
 62
     0
100
AcDbPoint
 10
45.69031210243702
 20
-121.84643
 30
0.0
  0
ENDBLK
  5
249
330
47
100
AcDbEntity
  8
HAWA1
100
AcDbBlockEnd
  0
BLOCK
  5
24A
330
49
100
AcDbEntity
  8
HAWA1
100
AcDbBlockBegin
  2
*D18
 70
     1
 10
0.0
 20
0.0
 30
0.0
  3
*D18
  1

  0
MTEXT
  5
6AA
330
49
100
AcDbEntity
  8
HAWA1
100
AcDbMText
 10
55.02642312676073
 20
-119.059424542974
 30
0.0
 40
3.5
 41
0.0
 71
     5
 72
     1
  1
\A1;26
  7
Beschlag
 73
     1
 44
1.0
1001
ACAD
1000
MTEXTBEGIN
1070
    73
1070
     1
1070
    44
1040
1.0
1070
    74
1070
     0
1000
MTEXTEND
  0
POINT
  5
6AB
330
49
100
AcDbEntity
  8
Defpoints
 62
     0
100
AcDbPoint
 10
75.905338
 20
-121.84643
 30
0.0
  0
POINT
  5
6AC
330
49
100
AcDbEntity
  8
Defpoints
 62
     0
100
AcDbPoint
 10
45.69031210243702
 20
-121.84643
 30
0.0
  0
POINT
  5
6AD
330
49
100
AcDbEntity
  8
Defpoints
 62
     0
100
AcDbPoint
 10
45.69031210243702
 20
-121.84643
 30
0.0
  0
ENDBLK
  5
253
330
49
100
AcDbEntity
  8
HAWA1
100
AcDbBlockEnd
  0
BLOCK
  5
254
330
4B
100
AcDbEntity
  8
HAWA1
100
AcDbBlockBegin
  2
*D19
 70
     1
 10
0.0
 20
0.0
 30
0.0
  3
*D19
  1

  0
LINE
  5
6EE
330
4B
100
AcDbEntity
  8
HAWA1
370
    -2
100
AcDbLine
 10
76.905338
 20
-121.84643
 30
0.0
 11
50.85495677078871
 21
-121.84643
 31
0.0
  0
MTEXT
  5
6EF
330
4B
100
AcDbEntity
  8
HAWA1
100
AcDbMText
 10
70.23388131282093
 20
-118.7430875716234
 30
0.0
 40
3.5
 41
0.0
 71
     5
 72
     1
  1
\A1;-28,7
  7
Beschlag
 73
     1
 44
1.0
1001
ACAD
1000
MTEXTBEGIN
1070
    73
1070
     1
1070
    44
1040
1.0
1070
    74
1070
     0
1000
MTEXTEND
  0
POINT
  5
6F0
330
4B
100
AcDbEntity
  8
Defpoints
 62
     0
100
AcDbPoint
 10
75.905338
 20
-121.84643
 30
0.0
  0
POINT
  5
6F1
330
4B
100
AcDbEntity
  8
Defpoints
 62
     0
100
AcDbPoint
 10
51.8549567707887
 20
-121.84643
 30
0.0
  0
POINT
  5
6F2
330
4B
100
AcDbEntity
  8
Defpoints
 62
     0
100
AcDbPoint
 10
51.8549567707887
 20
-121.84643
 30
0.0
  0
ENDBLK
  5
25F
330
4B
100
AcDbEntity
  8
HAWA1
100
AcDbBlockEnd
  0
BLOCK
  5
260
330
4D
100
AcDbEntity
  8
HAWA1
100
AcDbBlockBegin
  2
*D20
 70
     1
 10
0.0
 20
0.0
 30
0.0
  3
*D20
  1

  0
LINE
  5
6D6
330
4D
100
AcDbEntity
  8
HAWA1
370
    -2
100
AcDbLine
 10
-52.96966199999999
 20
-32.598306
 30
0.0
 11
-53.969662
 21
-32.598306
 31
0.0
  0
LINE
  5
6D7
330
4D
100
AcDbEntity
  8
HAWA1
370
    -2
100
AcDbLine
 10
-52.96966199999999
 20
-32.598306
 30
0.0
 11
-40.81465008735833
 21
-32.598306
 31
0.0
  0
MTEXT
  5
6D8
330
4D
100
AcDbEntity
  8
HAWA1
100
AcDbMText
 10
-43.54113371628057
 20
-29.30396766439291
 30
0.0
 40
3.5
 41
0.0
 71
     5
 72
     1
  1
\A1;(8
  7
Beschlag
 73
     1
 44
1.0
1001
ACAD
1000
MTEXTBEGIN
1070
    73
1070
     1
1070
    44
1040
1.0
1070
    74
1070
     0
1000
MTEXTEND
  0
POINT
  5
6D9
330
4D
100
AcDbEntity
  8
Defpoints
 62
     0
100
AcDbPoint
 10
1.352333
 20
-33.598306
 30
0.0
  0
POINT
  5
6DA
330
4D
100
AcDbEntity
  8
Defpoints
 62
     0
100
AcDbPoint
 10
-52.96966199999999
 20
-33.598306
 30
0.0
  0
POINT
  5
6DB
330
4D
100
AcDbEntity
  8
Defpoints
 62
     0
100
AcDbPoint
 10
-52.96966199999999
 20
-32.598306
 30
0.0
  0
ENDBLK
  5
269
330
4D
100
AcDbEntity
  8
HAWA1
100
AcDbBlockEnd
  0
BLOCK
  5
26A
330
4F
100
AcDbEntity
  8
HAWA1
100
AcDbBlockBegin
  2
*D21
 70
     1
 10
0.0
 20
0.0
 30
0.0
  3
*D21
  1

  0
LINE
  5
6E2
330
4F
100
AcDbEntity
  8
HAWA1
370
    -2
100
AcDbLine
 10
-52.96966199999999
 20
-32.598306
 30
0.0
 11
-53.969662
 21
-32.598306
 31
0.0
  0
LINE
  5
6E3
330
4F
100
AcDbEntity
  8
HAWA1
370
    -2
100
AcDbLine
 10
-52.96966199999999
 20
-32.598306
 30
0.0
 11
-44.75343224404004
 21
-32.598306
 31
0.0
  0
MTEXT
  5
6E4
330
4F
100
AcDbEntity
  8
HAWA1
100
AcDbMText
 10
-47.85593906532244
 20
-29.81130054297408
 30
0.0
 40
3.5
 41
0.0
 71
     5
 72
     1
  1
\A1;10
  7
Beschlag
 73
     1
 44
1.0
1001
ACAD
1000
MTEXTBEGIN
1070
    73
1070
     1
1070
    44
1040
1.0
1070
    74
1070
     0
1000
MTEXTEND
  0
POINT
  5
6E5
330
4F
100
AcDbEntity
  8
Defpoints
 62
     0
100
AcDbPoint
 10
1.352333
 20
-33.598306
 30
0.0
  0
POINT
  5
6E6
330
4F
100
AcDbEntity
  8
Defpoints
 62
     0
100
AcDbPoint
 10
-52.96966199999999
 20
-33.598306
 30
0.0
  0
POINT
  5
6E7
330
4F
100
AcDbEntity
  8
Defpoints
 62
     0
100
AcDbPoint
 10
-52.96966199999999
 20
-32.598306
 30
0.0
  0
ENDBLK
  5
272
330
4F
100
AcDbEntity
  8
HAWA1
100
AcDbBlockEnd
  0
BLOCK
  5
273
330
51
100
AcDbEntity
  8
HAWA1
100
AcDbBlockBegin
  2
*D22
 70
     1
 10
0.0
 20
0.0
 30
0.0
  3
*D22
  1

  0
LINE
  5
6DC
330
51
100
AcDbEntity
  8
HAWA1
370
    -2
100
AcDbLine
 10
-52.96966199999999
 20
-32.598306
 30
0.0
 11
-53.969662
 21
-32.598306
 31
0.0
  0
LINE
  5
6DD
330
51
100
AcDbEntity
  8
HAWA1
370
    -2
100
AcDbLine
 10
-52.96966199999999
 20
-32.598306
 30
0.0
 11
-29.72339613476831
 21
-32.598306
 31
0.0
  0
MTEXT
  5
6DE
330
51
100
AcDbEntity
  8
HAWA1
100
AcDbMText
 10
-35.56872355632356
 20
-29.49496357162347
 30
0.0
 40
3.5
 41
0.0
 71
     5
 72
     1
  1
\A1;-12,7
  7
Beschlag
 73
     1
 44
1.0
1001
ACAD
1000
MTEXTBEGIN
1070
    73
1070
     1
1070
    44
1040
1.0
1070
    74
1070
     0
1000
MTEXTEND
  0
POINT
  5
6DF
330
51
100
AcDbEntity
  8
Defpoints
 62
     0
100
AcDbPoint
 10
1.352333
 20
-33.598306
 30
0.0
  0
POINT
  5
6E0
330
51
100
AcDbEntity
  8
Defpoints
 62
     0
100
AcDbPoint
 10
-52.96966199999999
 20
-33.598306
 30
0.0
  0
POINT
  5
6E1
330
51
100
AcDbEntity
  8
Defpoints
 62
     0
100
AcDbPoint
 10
-52.96966199999999
 20
-32.598306
 30
0.0
  0
ENDBLK
  5
27D
330
51
100
AcDbEntity
  8
HAWA1
100
AcDbBlockEnd
  0
BLOCK
  5
2A9
330
2A8
100
AcDbEntity
  8
0
100
AcDbBlockBegin
  2
_Oblique
 70
     0
 10
0.0
 20
0.0
 30
0.0
  3
_Oblique
  1

  0
LINE
  5
2AA
330
2A8
100
AcDbEntity
  8
0
 62
     0
370
    -2
100
AcDbLine
 10
-0.5
 20
-0.5
 30
0.0
 11
0.5
 21
0.5
 31
0.0
  0
ENDBLK
  5
2AB
330
2A8
100
AcDbEntity
  8
0
100
AcDbBlockEnd
  0
BLOCK
  5
2BD
330
2BC
100
AcDbEntity
  8
0
100
AcDbBlockBegin
  2
HAWA
 70
     0
 10
0.0
 20
0.0
 30
0.0
  3
HAWA
  1

  0
ENDBLK
  5
2BE
330
2BC
100
AcDbEntity
  8
0
100
AcDbBlockEnd
  0
BLOCK
  5
4B9
330
4B8
100
AcDbEntity
  8
0
100
AcDbBlockBegin
  2
_None
 70
     0
 10
0.0
 20
0.0
 30
0.0
  3
_None
  1

  0
ENDBLK
  5
4BA
330
4B8
100
AcDbEntity
  8
0
100
AcDbBlockEnd
  0
ENDSEC
  0
SECTION
  2
ENTITIES
  0
DIMENSION
  5
26
330
A
100
AcDbEntity
  8
HAWA1
 62
     0
100
AcDbDimension
  2
*D0
 10
123.4047457588058
 20
254.5182152782794
 30
0.0
 11
100.4051229321508
 21
257.6223236161057
 31
0.0
 70
    32
  1
<>{}{%%p0,5}
 71
     5
 42
45.99945236689623
 52
89.999523
  3
HAWA-Strich
100
AcDbAlignedDimension
 13
77.405338
 23
255.858528
 33
0.0
 14
123.405338
 24
272.302765
 34
0.0
 50
359.998092
100
AcDbRotatedDimension
1001
ACAD
1000
DSTYLE
1002
{
1070
   170
1070
     0
1002
}
  0
DIMENSION
  5
28
330
A
100
AcDbEntity
  8
HAWA1
 62
     0
100
AcDbDimension
  2
*D1
 10
123.4049823563451
 20
254.5191115488803
 30
0.0
 11
138.9047592917906
 21
257.6221958995646
 31
0.0
 70
    32
  1
<>{}{%%p0,5}
 71
     5
 42
30.99945053114773
 52
89.999523
  3
HAWA-Strich
100
AcDbAlignedDimension
 13
154.405338
 23
308.878525
 33
0.0
 14
123.405338
 24
275.878525
 34
0.0
 50
179.999046
100
AcDbRotatedDimension
1001
ACAD
1000
DSTYLE
1002
{
1070
   170
1070
     0
1002
}
  0
DIMENSION
  5
2A
330
A
100
AcDbEntity
  8
HAWA1
 62
     0
100
AcDbDimension
  2
*D2
 10
133.664858
 20
326.878525
 30
0.0
 11
128.4669271223283
 21
334.7066627899045
 31
0.0
 70
    33
  1
%%c<>{}{\S+1^ 0;}
 71
     5
 42
6.0
 52
89.999523
  3
HAWA-Strich
100
AcDbAlignedDimension
 13
144.905338
 23
320.878525
 33
0.0
 14
144.905338
 24
326.878525
 34
0.0
1001
ACAD
1000
DSTYLE
1002
{
1070
   170
1070
     0
1002
}
  0
DIMENSION
  5
2C
330
A
100
AcDbEntity
  8
HAWA1
 62
     0
100
AcDbDimension
  2
*D3
 10
200.6555250000001
 20
359.878525
 30
0.0
 11
197.5521825716235
 21
323.8785250000001
 31
0.0
 70
    33
  1
<>{}{%%p0,5}
 71
     5
 42
72.0
 52
89.999523
  3
HAWA-Strich
100
AcDbAlignedDimension
 13
135.405338
 23
287.878525
 33
0.0
 14
135.405338
 24
359.878525
 34
0.0
1001
ACAD
1000
DSTYLE
1002
{
1070
   170
1070
     0
1002
}
  0
DIMENSION
  5
2E
330
A
100
AcDbEntity
  8
HAWA1
 62
     0
100
AcDbDimension
  2
*D4
 10
100.9308348544922
 20
359.878587787241
 30
0.0
 11
96.48548540033752
 21
341.8785758562506
 31
0.0
 70
    32
 71
     5
 42
36.00009787776247
 52
89.999523
  3
HAWA-Strich
100
AcDbAlignedDimension
 13
96.71571899999999
 23
323.878525
 33
0.0
 14
108.472646
 24
359.878525
 34
0.0
 50
89.999523
100
AcDbRotatedDimension
  0
DIMENSION
  5
30
330
A
100
AcDbEntity
  8
HAWA1
 62
     0
100
AcDbDimension
  2
*D5
 10
100.930235442796
 20
287.8787133766937
 30
0.0
 11
96.48548540311747
 21
305.8787025998965
 31
0.0
 70
    32
 71
     5
 42
35.99975641403182
 52
89.999523
  3
HAWA-Strich
100
AcDbAlignedDimension
 13
98.720162
 23
323.878525
 33
0.0
 14
108.472646
 24
287.878525
 34
0.0
 50
269.998569
100
AcDbRotatedDimension
  0
DIMENSION
  5
32
330
A
100
AcDbEntity
  8
HAWA1
 62
     0
100
AcDbDimension
  2
*D6
 10
144.9056426000731
 20
344.9366060745345
 30
0.0
 11
149.6555906849038
 21
344.9365269858039
 31
0.0
 70
   160
 71
     5
 42
9.499896170978303
 52
89.999523
  3
HAWA-Strich
100
AcDbAlignedDimension
 13
154.405338
 23
332.878525
 33
0.0
 14
144.905338
 24
326.642792
 34
0.0
 50
179.999046
100
AcDbRotatedDimension
  0
DIMENSION
  5
34
330
A
100
AcDbEntity
  8
HAWA1
 62
     0
100
AcDbDimension
  2
*D7
 10
77.40476928924095
 20
179.2226274584243
 30
0.0
 11
84.90502594240691
 21
183.6668529262203
 31
0.0
 70
    32
 71
     5
 42
15.00036530762412
 52
89.999523
  3
HAWA-Strich
100
AcDbAlignedDimension
 13
92.405337
 23
191.378525
 33
0.0
 14
77.405338
 24
213.378525
 34
0.0
 50
179.999046
100
AcDbRotatedDimension
  0
DIMENSION
  5
36
330
A
100
AcDbEntity
  8
HAWA1
 62
     0
100
AcDbDimension
  2
*D8
 10
-44.74201567136158
 20
24.97115125921251
 30
0.0
 11
-49.16369866541188
 21
82.47124275146653
 31
0.0
 70
    32
 71
     5
 42
114.9999620797241
 52
89.999523
  3
HAWA-Strich
100
AcDbAlignedDimension
 13
19.575592
 23
139.969507
 33
0.0
 14
21.172523
 24
24.969505
 34
0.0
 50
269.998569
100
AcDbRotatedDimension
  0
DIMENSION
  5
38
330
A
100
AcDbEntity
  8
HAWA1
 62
     0
100
AcDbDimension
  2
*D9
 10
174.4025553718985
 20
-0.9705699426882546
 30
0.0
 11
134.4036449316627
 21
3.453031904093524
 31
0.0
 70
    32
 71
     5
 42
79.99811545580216
 52
89.999523
  3
HAWA-Strich
100
AcDbAlignedDimension
 13
94.40533700000001
 23
25.969505
 33
0.0
 14
174.405334
 24
82.469505
 34
0.0
 50
359.998092
100
AcDbRotatedDimension
  0
DIMENSION
  5
3A
330
A
100
AcDbEntity
  8
HAWA1
 62
     0
100
AcDbDimension
  2
*D10
 10
-52.97065166084951
 20
-73.223316351958
 30
0.0
 11
-52.96966199999999
 21
-33.598306
 31
0.0
 70
   160
  1
 
 71
     5
 42
8.000000883941041
 52
89.999523
  3
HAWA-Strich
100
AcDbAlignedDimension
 13
-54.310577
 23
-65.223282
 33
0.0
 14
-54.34606899999999
 24
-73.223282
 34
0.0
 50
269.998569
100
AcDbRotatedDimension
  0
DIMENSION
  5
3C
330
A
100
AcDbEntity
  8
HAWA1
 62
     0
100
AcDbDimension
  2
*D11
 10
75.90533199999999
 20
-81.17327900000001
 30
0.0
 11
75.90533199999999
 21
-121.846436
 31
0.0
 70
   161
  1
 
 71
     5
 42
24.39999400000001
 52
89.999523
  3
HAWA-Strich
100
AcDbAlignedDimension
 13
59.705891
 23
-56.77328499999999
 33
0.0
 14
59.705891
 24
-81.17327900000001
 34
0.0
  0
DIMENSION
  5
3E
330
A
100
AcDbEntity
  8
HAWA1
 62
     0
100
AcDbDimension
  2
*D12
 10
148.607258
 20
-88.02328499999999
 30
0.0
 11
144.1629076502387
 21
-69.22328199999999
 31
0.0
 70
    33
 71
     5
 42
37.600006
 52
89.999523
  3
HAWA-Strich
100
AcDbAlignedDimension
 13
113.905337
 23
-50.423279
 33
0.0
 14
113.905337
 24
-88.02328499999999
 34
0.0
  0
DIMENSION
  5
40
330
A
100
AcDbEntity
  8
HAWA1
 62
     0
100
AcDbDimension
  2
*D13
 10
92.90474053164665
 20
-121.8462611604373
 30
0.0
 11
103.4049976839809
 21
-117.4020856439729
 31
0.0
 70
    32
 71
     5
 42
21.00036630679241
 52
89.999523
  3
HAWA-Strich
100
AcDbAlignedDimension
 13
113.905337
 23
-108.023285
 33
0.0
 14
92.90533700000001
 24
-86.023285
 34
0.0
 50
179.999046
100
AcDbRotatedDimension
  0
DIMENSION
  5
42
330
A
100
AcDbEntity
  8
HAWA1
 62
     0
100
AcDbDimension
  2
*D14
 10
174.832645
 20
314.878527
 30
0.0
 11
169.2885340404729
 21
303.6758496466577
 31
0.0
 70
    33
  1
%%c<>{}{\S+0,5^ 0;}
 71
     5
 42
18.0
 52
89.999523
  3
HAWA-Strich
100
AcDbAlignedDimension
 13
154.405338
 23
332.878527
 33
0.0
 14
154.405338
 24
314.878527
 34
0.0
1001
ACAD
1000
DSTYLE
1002
{
1070
   170
1070
     0
1002
}
  0
DIMENSION
  5
44
330
A
100
AcDbEntity
  8
HAWA1
 62
     0
100
AcDbDimension
  2
*D15
 10
122.3262128927099
 20
200.3777547306922
 30
0.0
 11
122.3257999411984
 21
183.8435976776783
 31
0.0
 70
   160
 71
     5
 42
9.999675313280334
 52
89.999523
  3
HAWA-Strich
100
AcDbAlignedDimension
 13
78.405338
 23
210.378527
 33
0.0
 14
91.405338
 24
200.378527
 34
0.0
 50
269.998569
100
AcDbRotatedDimension
  0
DIMENSION
  5
46
330
A
100
AcDbEntity
  8
HAWA1
 62
     0
100
AcDbDimension
  2
*D16
 10
122.3262634471229
 20
210.3781613486096
 30
0.0
 11
122.3261301674048
 21
194.3690096865184
 31
0.0
 70
   160
  1
-16
 71
     5
 42
9.999891771786508
 52
89.999523
  3
HAWA-Strich
100
AcDbAlignedDimension
 13
91.405338
 23
200.378527
 33
0.0
 14
78.405338
 24
210.378527
 34
0.0
 50
89.999523
100
AcDbRotatedDimension
  0
DIMENSION
  5
48
330
A
100
AcDbEntity
  8
HAWA1
 62
     0
100
AcDbDimension
  2
*D17
 10
45.69031210243702
 20
-121.84643
 30
0.0
 11
61.63513148731476
 21
-121.84643
 31
0.0
 70
   161
  1
(24
 71
     5
 42
30.21502589756298
 52
89.999523
  3
HAWA-Strich
100
AcDbAlignedDimension
 13
75.905338
 23
-121.84643
 33
0.0
 14
45.69031210243702
 24
-121.84643
 34
0.0
1001
ACAD
1000
DSTYLE
1002
{
1070
    76
1070
     1
1070
    75
1070
     1
1070
   282
1070
     1
1070
   281
1070
     1
1070
   344
1005
4B8
1070
   343
1005
4B8
1002
}
  0
DIMENSION
  5
4A
330
A
100
AcDbEntity
  8
HAWA1
 62
     0
100
AcDbDimension
  2
*D18
 10
45.69031210243702
 20
-121.84643
 30
0.0
 11
55.02642312676073
 21
-121.84643
 31
0.0
 70
   161
  1
26
 71
     5
 42
30.21502589756298
 52
89.999523
  3
HAWA-Strich
100
AcDbAlignedDimension
 13
75.905338
 23
-121.84643
 33
0.0
 14
45.69031210243702
 24
-121.84643
 34
0.0
1001
ACAD
1000
DSTYLE
1002
{
1070
    76
1070
     1
1070
    75
1070
     1
1070
   282
1070
     1
1070
   281
1070
     1
1070
   344
1005
4B8
1070
   343
1005
4B8
1002
}
  0
DIMENSION
  5
4C
330
A
100
AcDbEntity
  8
HAWA1
 62
     0
100
AcDbDimension
  2
*D19
 10
51.8549567707887
 20
-121.84643
 30
0.0
 11
70.23388131282093
 21
-121.84643
 31
0.0
 70
   161
  1
-28,7
 71
     5
 42
24.0503812292113
 52
89.999523
  3
HAWA-Strich
100
AcDbAlignedDimension
 13
75.905338
 23
-121.84643
 33
0.0
 14
51.8549567707887
 24
-121.84643
 34
0.0
1001
ACAD
1000
DSTYLE
1002
{
1070
    76
1070
     1
1070
    75
1070
     1
1070
   344
1005
4B8
1070
   343
1005
4B8
1002
}
  0
DIMENSION
  5
4E
330
A
100
AcDbEntity
  8
HAWA1
 62
     0
100
AcDbDimension
  2
*D20
 10
-52.96966199999999
 20
-32.598306
 30
0.0
 11
-43.54113371628057
 21
-32.598306
 31
0.0
 70
   161
  1
(8
 71
     5
 42
54.321995
 52
89.999523
  3
HAWA-Strich
100
AcDbAlignedDimension
 13
1.352333
 23
-33.598306
 33
0.0
 14
-52.96966199999999
 24
-33.598306
 34
0.0
1001
ACAD
1000
DSTYLE
1002
{
1070
   282
1070
     0
1070
   281
1070
     1
1070
    76
1070
     1
1070
    75
1070
     1
1070
   344
1005
4B8
1070
   343
1005
4B8
1002
}
  0
DIMENSION
  5
50
330
A
100
AcDbEntity
  8
HAWA1
 62
     0
100
AcDbDimension
  2
*D21
 10
-52.96966199999999
 20
-32.598306
 30
0.0
 11
-47.85593906532244
 21
-32.598306
 31
0.0
 70
   161
  1
10
 71
     5
 42
54.321995
 52
89.999523
  3
HAWA-Strich
100
AcDbAlignedDimension
 13
1.352333
 23
-33.598306
 33
0.0
 14
-52.96966199999999
 24
-33.598306
 34
0.0
1001
ACAD
1000
DSTYLE
1002
{
1070
   282
1070
     0
1070
   281
1070
     1
1070
    76
1070
     1
1070
    75
1070
     1
1070
   344
1005
4B8
1070
   343
1005
4B8
1002
}
  0
DIMENSION
  5
52
330
A
100
AcDbEntity
  8
HAWA1
 62
     0
100
AcDbDimension
  2
*D22
 10
-52.96966199999999
 20
-32.598306
 30
0.0
 11
-35.56872355632356
 21
-32.598306
 31
0.0
 70
   161
  1
-12,7
 71
     5
 42
54.321995
 52
89.999523
  3
HAWA-Strich
100
AcDbAlignedDimension
 13
1.352333
 23
-33.598306
 33
0.0
 14
-52.96966199999999
 24
-33.598306
 34
0.0
1001
ACAD
1000
DSTYLE
1002
{
1070
   282
1070
     0
1070
   281
1070
     1
1070
    76
1070
     1
1070
    75
1070
     1
1070
   344
1005
4B8
1070
   343
1005
4B8
1002
}
  0
POINT
  5
53
330
A
100
AcDbEntity
  8
Hawa5
 62
     1
100
AcDbPoint
 10
154.405338
 20
332.878525
 30
0.0
  0
POINT
  5
54
330
A
100
AcDbEntity
  8
Hawa5
 62
     1
100
AcDbPoint
 10
154.405338
 20
314.878525
 30
0.0
  0
LINE
  5
55
330
A
100
AcDbEntity
  8
Hawa5
  6
DASHED
 62
     1
100
AcDbLine
 10
53.405338
 20
276.878525
 30
0.0
 11
53.405338
 21
241.878525
 31
0.0
  0
LINE
  5
56
330
A
100
AcDbEntity
  8
Hawa5
  6
DASHDOT
 62
     1
100
AcDbLine
 10
74.654062
 20
323.878525
 30
0.0
 11
-11.529869
 21
323.878525
 31
0.0
  0
LINE
  5
57
330
A
100
AcDbEntity
  8
Hawa5
  6
DASHED
 62
     1
100
AcDbLine
 10
53.405338
 20
370.878525
 30
0.0
 11
53.405338
 21
400.878525
 31
0.0
  0
LINE
  5
58
330
A
100
AcDbEntity
  8
Hawa5
  6
DASHED
 62
     1
100
AcDbLine
 10
-60.239395
 20
200.378525
 30
0.0
 11
52.405338
 21
200.378525
 31
0.0
  0
LINE
  5
59
330
A
100
AcDbEntity
  8
Hawa5
  6
DASHED
 62
     1
100
AcDbLine
 10
53.405338
 20
370.878525
 30
0.0
 11
-22.594666
 21
370.878525
 31
0.0
  0
LINE
  5
5A
330
A
100
AcDbEntity
  8
Hawa5
  6
DASHED
 62
     1
100
AcDbLine
 10
52.405338
 20
276.878525
 30
0.0
 11
52.405338
 21
241.878525
 31
0.0
  0
LINE
  5
5B
330
A
100
AcDbEntity
  8
Hawa5
  6
DASHED
 62
     1
100
AcDbLine
 10
52.405338
 20
370.878525
 30
0.0
 11
52.405338
 21
400.878525
 31
0.0
  0
LINE
  5
5C
330
A
100
AcDbEntity
  8
Hawa5
  6
DASHDOT
 62
     1
100
AcDbLine
 10
80.261106
 20
323.878525
 30
0.0
 11
142.340542
 21
323.878525
 31
0.0
  0
LINE
  5
5D
330
A
100
AcDbEntity
  8
Hawa5
 62
     1
100
AcDbLine
 10
77.405338
 20
241.878525
 30
0.0
 11
77.405338
 21
400.878525
 31
0.0
  0
LINE
  5
5E
330
A
100
AcDbEntity
  8
Hawa5
  6
DASHED
 62
     1
100
AcDbLine
 10
-60.239395
 20
190.378525
 30
0.0
 11
52.405338
 21
190.378525
 31
0.0
  0
LINE
  5
5F
330
A
100
AcDbEntity
  8
Hawa5
  6
DASHED
 62
     1
 48
0.25
100
AcDbLine
 10
163.405338
 20
220.378525
 30
0.0
 11
163.405338
 21
210.378525
 31
0.0
  0
LINE
  5
60
330
A
100
AcDbEntity
  8
Hawa5
 62
     1
100
AcDbLine
 10
214.260475
 20
210.378525
 30
0.0
 11
78.405338
 21
210.378525
 31
0.0
  0
LINE
  5
61
330
A
100
AcDbEntity
  8
Hawa5
  6
DASHED
 62
     1
100
AcDbLine
 10
53.405338
 20
276.878525
 30
0.0
 11
-22.594666
 21
276.878525
 31
0.0
  0
LINE
  5
62
330
A
100
AcDbEntity
  8
Hawa5
  6
DASHED
 62
     1
 48
0.25
100
AcDbLine
 10
110.905338
 20
220.378525
 30
0.0
 11
110.905338
 21
210.378525
 31
0.0
  0
LINE
  5
63
330
A
100
AcDbEntity
  8
Hawa5
 62
     1
100
AcDbLine
 10
214.260475
 20
220.378525
 30
0.0
 11
78.405338
 21
220.378525
 31
0.0
  0
LINE
  5
64
330
A
100
AcDbEntity
  8
Hawa5
  6
DASHED
 62
     1
 48
0.25
100
AcDbLine
 10
-31.594666
 20
200.378525
 30
0.0
 11
-31.594666
 21
190.378525
 31
0.0
  0
LINE
  5
65
330
A
100
AcDbEntity
  8
Hawa5
 62
     1
 48
0.2
100
AcDbLine
 10
77.405338
 20
211.378525
 30
0.0
 11
77.405338
 21
219.378525
 31
0.0
  0
LINE
  5
66
330
A
100
AcDbEntity
  8
Hawa5
  6
DASHED
 62
     1
 48
0.25
100
AcDbLine
 10
-50.594666
 20
200.378525
 30
0.0
 11
-50.594666
 21
190.378525
 31
0.0
  0
LINE
  5
67
330
A
100
AcDbEntity
  8
Hawa5
  6
DASHED
 62
     1
 48
0.25
100
AcDbLine
 10
-33.80043
 20
200.378525
 30
0.0
 11
-33.80043
 21
190.378525
 31
0.0
  0
LINE
  5
68
330
A
100
AcDbEntity
  8
Hawa5
  6
DASHED
 62
     1
 48
0.25
100
AcDbLine
 10
132.405338
 20
220.378525
 30
0.0
 11
132.405338
 21
210.378525
 31
0.0
  0
LINE
  5
69
330
A
100
AcDbEntity
  8
Hawa5
 62
     1
100
AcDbLine
 10
78.405338
 20
241.878525
 30
0.0
 11
78.405338
 21
400.878525
 31
0.0
  0
LINE
  5
6A
330
A
100
AcDbEntity
  8
Hawa5
  6
PHANTOM
 62
     1
100
AcDbLine
 10
214.260475
 20
400.878525
 30
0.0
 11
214.260475
 21
241.878525
 31
0.0
  0
LINE
  5
6B
330
A
100
AcDbEntity
  8
Hawa6
 62
     3
100
AcDbLine
 10
91.90533700000001
 20
24.969505
 30
0.0
 11
28.90533400000001
 21
24.969505
 31
0.0
  0
LINE
  5
6C
330
A
100
AcDbEntity
  8
Hawa6
 62
     3
100
AcDbLine
 10
91.90533700000001
 20
139.969507
 30
0.0
 11
28.90533400000001
 21
139.969507
 31
0.0
  0
LINE
  5
6D
330
A
100
AcDbEntity
  8
Hawa6
 62
     3
100
AcDbLine
 10
28.90533400000001
 20
131.927074
 30
0.0
 11
91.90533700000001
 21
131.927074
 31
0.0
  0
LINE
  5
6E
330
A
100
AcDbEntity
  8
Hawa6
 62
     3
 48
0.314385
100
AcDbLine
 10
36.305336
 20
50.469505
 30
0.0
 11
36.305336
 21
63.04491399999999
 31
0.0
  0
LINE
  5
6F
330
A
100
AcDbEntity
  8
Hawa6
 62
     3
100
AcDbLine
 10
28.90533400000001
 20
33.01194000000001
 30
0.0
 11
91.90533700000001
 21
33.01194000000001
 31
0.0
  0
LINE
  5
70
330
A
100
AcDbEntity
  8
Hawa6
 62
     3
 48
0.314385
100
AcDbLine
 10
46.50533699999999
 20
50.469505
 30
0.0
 11
46.50533699999999
 21
63.04491399999999
 31
0.0
  0
LINE
  5
71
330
A
100
AcDbEntity
  8
Hawa5
 62
     1
100
AcDbLine
 10
92.405337
 20
139.969507
 30
0.0
 11
92.405337
 21
167.737795
 31
0.0
  0
LINE
  5
72
330
A
100
AcDbEntity
  8
Hawa5
  6
DASHED
 62
     1
100
AcDbLine
 10
77.405338
 20
-1.692871
 30
0.0
 11
77.405338
 21
24.969505
 31
0.0
  0
LINE
  5
73
330
A
100
AcDbEntity
  8
Hawa5
 62
     1
100
AcDbLine
 10
92.405337
 20
-1.751372999999999
 30
0.0
 11
92.405337
 21
24.969505
 31
0.0
  0
LINE
  5
74
330
A
100
AcDbEntity
  8
Hawa6
 62
     3
100
AcDbLine
 10
91.90533700000001
 20
139.969507
 30
0.0
 11
91.90533700000001
 21
24.969505
 31
0.0
  0
LINE
  5
75
330
A
100
AcDbEntity
  8
Hawa6
  6
DASHDOT
 62
     3
 48
0.096164
100
AcDbLine
 10
94.73957699999999
 20
73.469505
 30
0.0
 11
90.89302899999999
 21
73.469505
 31
0.0
  0
LINE
  5
76
330
A
100
AcDbEntity
  8
Hawa6
 62
     3
100
AcDbLine
 10
93.40533699999999
 20
110.969505
 30
0.0
 11
93.40533699999999
 21
73.469505
 31
0.0
  0
LINE
  5
77
330
A
100
AcDbEntity
  8
Hawa6
  6
DASHDOT
 62
     3
 48
0.096164
100
AcDbLine
 10
93.07109699999999
 20
73.469505
 30
0.0
 11
96.91764499999999
 21
73.469505
 31
0.0
  0
LINE
  5
78
330
A
100
AcDbEntity
  8
Hawa6
 62
     3
 48
0.4400000000000001
100
AcDbLine
 10
93.40533699999999
 20
139.169507
 30
0.0
 11
93.40533699999999
 21
121.569508
 31
0.0
  0
LINE
  5
79
330
A
100
AcDbEntity
  8
Hawa6
 62
     3
100
AcDbLine
 10
93.40533699999999
 20
51.46950499999999
 30
0.0
 11
93.40533699999999
 21
25.769508
 31
0.0
  0
LINE
  5
7A
330
A
100
AcDbEntity
  8
Hawa6
 62
     3
100
AcDbLine
 10
93.40533699999999
 20
73.469505
 30
0.0
 11
93.40533699999999
 21
51.46950499999999
 31
0.0
  0
LINE
  5
7B
330
A
100
AcDbEntity
  8
Hawa6
 62
     3
 48
0.265
100
AcDbLine
 10
93.40533699999999
 20
121.569508
 30
0.0
 11
93.40533699999999
 21
110.969505
 31
0.0
  0
LINE
  5
7C
330
A
100
AcDbEntity
  8
Hawa6
 62
     3
 48
0.0175
100
AcDbLine
 10
92.60533800000001
 20
139.969507
 30
0.0
 11
91.90533700000001
 21
139.969507
 31
0.0
  0
LINE
  5
7D
330
A
100
AcDbEntity
  8
Hawa6
 62
     3
 48
0.0175
100
AcDbLine
 10
92.60533800000001
 20
24.969505
 30
0.0
 11
91.90533700000001
 21
24.969505
 31
0.0
  0
LINE
  5
7E
330
A
100
AcDbEntity
  8
Hawa6
 62
     3
 48
0.015
100
AcDbLine
 10
94.00533799999999
 20
77.469505
 30
0.0
 11
93.40533699999999
 21
77.469505
 31
0.0
  0
LINE
  5
7F
330
A
100
AcDbEntity
  8
Hawa6
 62
     3
 48
0.015
100
AcDbLine
 10
94.00533799999999
 20
69.46950499999999
 30
0.0
 11
93.40533699999999
 21
69.46950499999999
 31
0.0
  0
LINE
  5
80
330
A
100
AcDbEntity
  8
Hawa6
 62
     3
 48
0.2
100
AcDbLine
 10
94.00533799999999
 20
69.46950499999999
 30
0.0
 11
94.00533799999999
 21
77.469505
 31
0.0
  0
LINE
  5
81
330
A
100
AcDbEntity
  8
Hawa6
  6
DASHDOT
 62
     3
 48
0.326406
100
AcDbLine
 10
41.405338
 20
83.025757
 30
0.0
 11
41.405338
 21
69.969505
 31
0.0
  0
LINE
  5
82
330
A
100
AcDbEntity
  8
Hawa6
  6
DASHDOT
 62
     3
100
AcDbLine
 10
41.405338
 20
41.22122199999999
 30
0.0
 11
41.405338
 21
69.969505
 31
0.0
  0
LINE
  5
83
330
A
100
AcDbEntity
  8
Hawa6
  6
DASHDOT
 62
     3
100
AcDbLine
 10
16.778633
 20
69.969505
 30
0.0
 11
65.573357
 21
69.969505
 31
0.0
  0
LINE
  5
84
330
A
100
AcDbEntity
  8
Hawa5
  6
DASHDOT
 62
     1
 48
0.2
100
AcDbLine
 10
92.405337
 20
191.378525
 30
0.0
 11
92.405337
 21
199.378525
 31
0.0
  0
LINE
  5
85
330
A
100
AcDbEntity
  8
Hawa5
 62
     1
 48
0.035355
100
AcDbLine
 10
77.405338
 20
211.378525
 30
0.0
 11
78.405338
 21
210.378525
 31
0.0
  0
LINE
  5
86
330
A
100
AcDbEntity
  8
Hawa5
 62
     1
 48
0.035355
100
AcDbLine
 10
77.405338
 20
219.378525
 30
0.0
 11
78.405338
 21
220.378525
 31
0.0
  0
LINE
  5
87
330
A
100
AcDbEntity
  8
Hawa5
  6
DASHDOT
 62
     1
 48
0.035355
100
AcDbLine
 10
91.405337
 20
200.378525
 30
0.0
 11
92.405337
 21
199.378525
 31
0.0
  0
LINE
  5
88
330
A
100
AcDbEntity
  8
Hawa5
  6
DASHDOT
 62
     1
 48
0.035355
100
AcDbLine
 10
91.405337
 20
190.378525
 30
0.0
 11
92.405337
 21
191.378525
 31
0.0
  0
LINE
  5
89
330
A
100
AcDbEntity
  8
Hawa5
 62
     1
100
AcDbLine
 10
91.405337
 20
-1.751372999999999
 30
0.0
 11
91.405337
 21
24.969505
 31
0.0
  0
LINE
  5
8A
330
A
100
AcDbEntity
  8
Hawa5
 62
     1
100
AcDbLine
 10
91.405337
 20
139.969507
 30
0.0
 11
91.405337
 21
167.737795
 31
0.0
  0
LINE
  5
8B
330
A
100
AcDbEntity
  8
Hawa5
  6
DASHED
 62
     1
100
AcDbLine
 10
78.405338
 20
-1.692871
 30
0.0
 11
78.405338
 21
24.969505
 31
0.0
  0
LINE
  5
8C
330
A
100
AcDbEntity
  8
Hawa5
  6
PHANTOM
 62
     1
100
AcDbLine
 10
-60.239395
 20
400.878525
 30
0.0
 11
-60.239395
 21
241.878525
 31
0.0
  0
LINE
  5
8D
330
A
100
AcDbEntity
  8
Hawa5
  6
DASHDOT
 62
     1
100
AcDbLine
 10
154.405338
 20
311.878525
 30
0.0
 11
154.405338
 21
335.878525
 31
0.0
  0
LINE
  5
8E
330
A
100
AcDbEntity
  8
Hawa5
  6
DASHDOT
 62
     1
100
AcDbLine
 10
77.405338
 20
323.878525
 30
0.0
 11
164.960045
 21
323.878525
 31
0.0
  0
LINE
  5
90
330
A
100
AcDbEntity
  8
Hawa5
  6
DASHDOT
 62
     1
 48
0.276285
100
AcDbLine
 10
144.905338
 20
318.5914
 30
0.0
 11
144.905338
 21
329.642792
 31
0.0
  0
LINE
  5
91
330
A
100
AcDbEntity
  8
Hawa5
  6
DASHDOT
 62
     1
100
AcDbLine
 10
123.405338
 20
275.878525
 30
0.0
 11
123.405338
 21
299.878525
 31
0.0
  0
LINE
  5
92
330
A
100
AcDbEntity
  8
Hawa5
  6
DASHDOT
 62
     1
 48
0.276285
100
AcDbLine
 10
113.905337
 20
282.5914
 30
0.0
 11
113.905337
 21
293.642792
 31
0.0
  0
LINE
  5
94
330
A
100
AcDbEntity
  8
Hawa5
  6
DASHDOT
 62
     1
100
AcDbLine
 10
108.472646
 20
287.878525
 30
0.0
 11
135.405338
 21
287.878525
 31
0.0
  0
LINE
  5
95
330
A
100
AcDbEntity
  8
Hawa5
  6
DASHDOT
 62
     1
100
AcDbLine
 10
123.405338
 20
347.878525
 30
0.0
 11
123.405338
 21
371.878525
 31
0.0
  0
LINE
  5
96
330
A
100
AcDbEntity
  8
Hawa5
  6
DASHDOT
 62
     1
 48
0.276285
100
AcDbLine
 10
113.905337
 20
354.5914
 30
0.0
 11
113.905337
 21
365.642792
 31
0.0
  0
LINE
  5
98
330
A
100
AcDbEntity
  8
Hawa5
  6
DASHDOT
 62
     1
100
AcDbLine
 10
108.472646
 20
359.878525
 30
0.0
 11
135.405338
 21
359.878525
 31
0.0
  0
LINE
  5
99
330
A
100
AcDbEntity
  8
Hawa5
  6
DASHED
 62
     1
 48
0.25
100
AcDbLine
 10
114.865864
 20
220.378525
 30
0.0
 11
114.865864
 21
210.378525
 31
0.0
  0
LINE
  5
9A
330
A
100
AcDbEntity
  8
Hawa5
  6
DASHED
 62
     1
 48
0.25
100
AcDbLine
 10
141.905338
 20
220.378525
 30
0.0
 11
141.905338
 21
210.378525
 31
0.0
  0
LINE
  5
9B
330
A
100
AcDbEntity
  8
Hawa5
  6
DASHED
 62
     1
 48
0.25
100
AcDbLine
 10
145.865864
 20
220.378525
 30
0.0
 11
145.865864
 21
210.378525
 31
0.0
  0
LINE
  5
9C
330
A
100
AcDbEntity
  8
Hawa6
 62
     3
100
AcDbLine
 10
116.905337
 20
32.969505
 30
0.0
 11
94.40533700000001
 21
32.969505
 31
0.0
  0
LINE
  5
9D
330
A
100
AcDbEntity
  8
Hawa6
 62
     3
100
AcDbLine
 10
116.905337
 20
131.969507
 30
0.0
 11
94.40533700000001
 21
131.969507
 31
0.0
  0
LINE
  5
9E
330
A
100
AcDbEntity
  8
Hawa6
 62
     3
100
AcDbLine
 10
119.405337
 20
34.472237
 30
0.0
 11
119.405337
 21
130.286848
 31
0.0
  0
LINE
  5
9F
330
A
100
AcDbEntity
  8
Hawa6
 62
     3
100
AcDbLine
 10
108.405338
 20
130.544582
 30
0.0
 11
108.405338
 21
35.183067
 31
0.0
  0
LINE
  5
A0
330
A
100
AcDbEntity
  8
Hawa6
 62
     3
100
AcDbLine
 10
94.40533700000001
 20
138.969507
 30
0.0
 11
94.40533700000001
 21
25.969505
 31
0.0
  0
LINE
  5
A1
330
A
100
AcDbEntity
  8
Hawa6
 62
     3
 48
0.025
100
AcDbLine
 10
94.40533700000001
 20
24.969505
 30
0.0
 11
94.40533700000001
 21
25.969505
 31
0.0
  0
LINE
  5
A2
330
A
100
AcDbEntity
  8
Hawa6
 62
     3
100
AcDbLine
 10
116.905337
 20
131.969507
 30
0.0
 11
116.905337
 21
32.969505
 31
0.0
  0
LINE
  5
A3
330
A
100
AcDbEntity
  8
Hawa6
 62
     3
100
AcDbLine
 10
94.40533700000001
 20
139.969507
 30
0.0
 11
116.905337
 21
139.969507
 31
0.0
  0
LINE
  5
A4
330
A
100
AcDbEntity
  8
Hawa6
 62
     3
100
AcDbLine
 10
94.40533700000001
 20
24.969505
 30
0.0
 11
116.905337
 21
24.969505
 31
0.0
  0
LINE
  5
A5
330
A
100
AcDbEntity
  8
Hawa6
 62
     3
 48
0.025
100
AcDbLine
 10
94.40533700000001
 20
139.969507
 30
0.0
 11
94.40533700000001
 21
138.969507
 31
0.0
  0
LINE
  5
A6
330
A
100
AcDbEntity
  8
Hawa6
 62
     3
 48
0.097665
100
AcDbLine
 10
95.40533700000001
 20
75.422813
 30
0.0
 11
95.40533700000001
 21
71.51620499999999
 31
0.0
  0
LINE
  5
A7
330
A
100
AcDbEntity
  8
Hawa5
  6
DASHED
 62
     1
100
AcDbLine
 10
77.405338
 20
139.969507
 30
0.0
 11
77.405338
 21
167.737795
 31
0.0
  0
LINE
  5
A8
330
A
100
AcDbEntity
  8
Hawa5
  6
DASHED
 62
     1
100
AcDbLine
 10
78.405338
 20
139.969507
 30
0.0
 11
78.405338
 21
167.737795
 31
0.0
  0
LINE
  5
AB
330
A
100
AcDbEntity
  8
Hawa5
 62
     1
100
AcDbLine
 10
113.905337
 20
-108.023285
 30
0.0
 11
113.905337
 21
-69.22328199999999
 31
0.0
  0
LINE
  5
AC
330
A
100
AcDbEntity
  8
Hawa6
 62
     3
 48
0.125
100
AcDbLine
 10
95.10533800000001
 20
-53.223282
 30
0.0
 11
95.10533800000001
 21
-58.223282
 31
0.0
  0
LINE
  5
AD
330
A
100
AcDbEntity
  8
Hawa6
 62
     3
 48
0.1625
100
AcDbLine
 10
101.305338
 20
-82.723282
 30
0.0
 11
101.305338
 21
-76.223282
 31
0.0
  0
LINE
  5
AE
330
A
100
AcDbEntity
  8
Hawa6
 62
     3
 48
0.225
100
AcDbLine
 10
98.30533800000001
 20
-85.223282
 30
0.0
 11
98.30533800000001
 21
-76.223282
 31
0.0
  0
LINE
  5
AF
330
A
100
AcDbEntity
  8
Hawa6
 62
     3
 48
0.125
100
AcDbLine
 10
95.10533800000001
 20
-85.223282
 30
0.0
 11
95.10533800000001
 21
-80.223282
 31
0.0
  0
LINE
  5
B0
330
A
100
AcDbEntity
  8
Hawa6
  6
DASHDOT
 62
     3
100
AcDbLine
 10
91.635948
 20
-69.22328199999999
 30
0.0
 11
115.443212
 21
-69.22328199999999
 31
0.0
  0
LINE
  5
B1
330
A
100
AcDbEntity
  8
Hawa6
 62
     3
 48
0.475
100
AcDbLine
 10
94.905337
 20
-88.02328499999999
 30
0.0
 11
113.905337
 21
-88.02328499999999
 31
0.0
  0
LINE
  5
B2
330
A
100
AcDbEntity
  8
Hawa6
 62
     3
 48
0.010607
100
AcDbLine
 10
110.405338
 20
-69.523285
 30
0.0
 11
110.7053379999999
 21
-69.22328199999999
 31
0.0
  0
LINE
  5
B3
330
A
100
AcDbEntity
  8
Hawa6
 62
     3
 48
0.010607
100
AcDbLine
 10
110.7053379999999
 20
-69.22328199999999
 30
0.0
 11
110.405338
 21
-68.92327900000001
 31
0.0
  0
LINE
  5
B4
330
A
100
AcDbEntity
  8
Hawa6
 62
     3
 48
0.3925
100
AcDbLine
 10
113.405337
 20
-53.52328499999999
 30
0.0
 11
113.405337
 21
-69.22328199999999
 31
0.0
  0
LINE
  5
B5
330
A
100
AcDbEntity
  8
Hawa6
 62
     3
 48
0.33
100
AcDbLine
 10
110.405338
 20
-55.723282
 30
0.0
 11
110.405338
 21
-68.92327900000001
 31
0.0
  0
LINE
  5
B6
330
A
100
AcDbEntity
  8
Hawa6
 62
     3
 48
0.08
100
AcDbLine
 10
95.10533800000001
 20
-53.223282
 30
0.0
 11
98.30533800000001
 21
-53.223282
 31
0.0
  0
LINE
  5
B7
330
A
100
AcDbEntity
  8
Hawa6
 62
     3
 48
0.04375
100
AcDbLine
 10
103.805338
 20
-53.223282
 30
0.0
 11
105.555338
 21
-53.223282
 31
0.0
  0
LINE
  5
B8
330
A
100
AcDbEntity
  8
Hawa6
 62
     3
 48
0.475
100
AcDbLine
 10
94.905337
 20
-50.423279
 30
0.0
 11
113.905337
 21
-50.423279
 31
0.0
  0
LINE
  5
B9
330
A
100
AcDbEntity
  8
Hawa6
 62
     3
 48
0.225
100
AcDbLine
 10
98.30533800000001
 20
-53.223282
 30
0.0
 11
98.30533800000001
 21
-62.22328199999999
 31
0.0
  0
LINE
  5
BA
330
A
100
AcDbEntity
  8
Hawa6
 62
     3
 48
0.106888
100
AcDbLine
 10
92.931813
 20
-52.74763499999999
 30
0.0
 11
93.62519499999999
 21
-56.966537
 31
0.0
  0
LINE
  5
BB
330
A
100
AcDbEntity
  8
Hawa6
 62
     3
 48
0.106888
100
AcDbLine
 10
92.931813
 20
-85.69892900000001
 30
0.0
 11
93.62519499999999
 21
-81.48002599999999
 31
0.0
  0
LINE
  5
BC
330
A
100
AcDbEntity
  8
Hawa6
 62
     3
 48
0.005
100
AcDbLine
 10
113.705338
 20
-53.223282
 30
0.0
 11
113.905337
 21
-53.223282
 31
0.0
  0
LINE
  5
BD
330
A
100
AcDbEntity
  8
Hawa6
 62
     3
 48
0.1625
100
AcDbLine
 10
101.305338
 20
-55.723282
 30
0.0
 11
101.305338
 21
-62.22328199999999
 31
0.0
  0
LINE
  5
BE
330
A
100
AcDbEntity
  8
Hawa5
 62
     1
100
AcDbLine
 10
113.905337
 20
-30.423279
 30
0.0
 11
113.905337
 21
-69.22328199999999
 31
0.0
  0
LINE
  5
BF
330
A
100
AcDbEntity
  8
Hawa6
 62
     3
 48
0.1025
100
AcDbLine
 10
103.805338
 20
-85.223282
 30
0.0
 11
107.905338
 21
-85.223282
 31
0.0
  0
LINE
  5
C0
330
A
100
AcDbEntity
  8
Hawa6
 62
     3
 48
0.08
100
AcDbLine
 10
95.10533800000001
 20
-85.223282
 30
0.0
 11
98.30533800000001
 21
-85.223282
 31
0.0
  0
LINE
  5
C1
330
A
100
AcDbEntity
  8
Hawa6
 62
     3
 48
0.33
100
AcDbLine
 10
110.405338
 20
-82.723282
 30
0.0
 11
110.405338
 21
-69.523285
 31
0.0
  0
LINE
  5
C2
330
A
100
AcDbEntity
  8
Hawa6
 62
     3
 48
0.005
100
AcDbLine
 10
113.705338
 20
-85.223282
 30
0.0
 11
113.905337
 21
-85.223282
 31
0.0
  0
LINE
  5
C3
330
A
100
AcDbEntity
  8
Hawa6
 62
     3
 48
0.3925
100
AcDbLine
 10
113.405337
 20
-84.92327900000001
 30
0.0
 11
113.405337
 21
-69.22328199999999
 31
0.0
  0
LINE
  5
C4
330
A
100
AcDbEntity
  8
Hawa6
 62
     3
 48
0.010607
100
AcDbLine
 10
105.855338
 20
-53.52328499999999
 30
0.0
 11
105.555338
 21
-53.223282
 31
0.0
  0
LINE
  5
C5
330
A
100
AcDbEntity
  8
Hawa6
 62
     3
 48
0.010607
100
AcDbLine
 10
105.855338
 20
-53.52328499999999
 30
0.0
 11
106.155338
 21
-53.223282
 31
0.0
  0
LINE
  5
C6
330
A
100
AcDbEntity
  8
Hawa6
 62
     3
 48
0.04375
100
AcDbLine
 10
106.155338
 20
-53.223282
 30
0.0
 11
107.905338
 21
-53.223282
 31
0.0
  0
LINE
  5
C7
330
A
100
AcDbEntity
  8
Hawa6
 62
     3
 48
0.211706
100
AcDbLine
 10
83.437117
 20
-65.223282
 30
0.0
 11
91.90533700000001
 21
-65.223282
 31
0.0
  0
LINE
  5
C8
330
A
100
AcDbEntity
  8
Hawa6
 62
     3
 48
0.035355
100
AcDbLine
 10
91.90533700000001
 20
-65.223282
 30
0.0
 11
92.90533700000001
 21
-66.223282
 31
0.0
  0
LINE
  5
C9
330
A
100
AcDbEntity
  8
Hawa6
 62
     3
 48
0.035355
100
AcDbLine
 10
91.90533700000001
 20
-73.223282
 30
0.0
 11
92.90533700000001
 21
-72.22328199999999
 31
0.0
  0
LINE
  5
CA
330
A
100
AcDbEntity
  8
Hawa6
 62
     3
 48
0.425
100
AcDbLine
 10
93.905337
 20
-77.723282
 30
0.0
 11
93.905337
 21
-60.723282
 31
0.0
  0
LINE
  5
CB
330
A
100
AcDbEntity
  8
Hawa6
  6
DASHDOT
 62
     3
 48
0.09446
100
AcDbLine
 10
94.294934
 20
-69.22328199999999
 30
0.0
 11
90.516541
 21
-69.22328199999999
 31
0.0
  0
LINE
  5
CC
330
A
100
AcDbEntity
  8
Hawa6
 62
     3
100
AcDbLine
 10
92.405337
 20
-79.22328199999999
 30
0.0
 11
92.405337
 21
-59.22328199999999
 31
0.0
  0
LINE
  5
CD
330
A
100
AcDbEntity
  8
Hawa5
 62
     1
 48
0.375
100
AcDbLine
 10
98.905338
 20
-93.02328499999999
 30
0.0
 11
98.905338
 21
-108.023285
 31
0.0
  0
LINE
  5
CE
330
A
100
AcDbEntity
  8
Hawa5
 62
     1
 48
0.375
100
AcDbLine
 10
98.905338
 20
-93.02328499999999
 30
0.0
 11
113.905337
 21
-93.02328499999999
 31
0.0
  0
LINE
  5
CF
330
A
100
AcDbEntity
  8
Hawa6
 62
     3
 48
0.075
100
AcDbLine
 10
101.305338
 20
-76.223282
 30
0.0
 11
98.30533800000001
 21
-76.223282
 31
0.0
  0
LINE
  5
D0
330
A
100
AcDbEntity
  8
Hawa6
 62
     3
 48
0.075
100
AcDbLine
 10
101.305338
 20
-62.22328199999999
 30
0.0
 11
98.30533800000001
 21
-62.22328199999999
 31
0.0
  0
LINE
  5
D1
330
A
100
AcDbEntity
  8
Hawa6
 62
     3
 48
0.006699
100
AcDbLine
 10
98.30533800000001
 20
-79.99122599999999
 30
0.0
 11
98.30533800000001
 21
-79.72328199999999
 31
0.0
  0
LINE
  5
D2
330
A
100
AcDbEntity
  8
Hawa5
  6
DASHDOT
 62
     1
100
AcDbLine
 10
-60.764023
 20
-69.22328199999999
 30
0.0
 11
114.2022
 21
-69.22328199999999
 31
0.0
  0
LINE
  5
D3
330
A
100
AcDbEntity
  8
Hawa6
  6
DASHED
 62
     3
 48
0.035355
100
AcDbLine
 10
91.90533700000001
 20
-65.223282
 30
0.0
 11
92.90533700000001
 21
-66.223282
 31
0.0
  0
LINE
  5
D4
330
A
100
AcDbEntity
  8
Hawa6
  6
DASHED
 62
     3
 48
0.035355
100
AcDbLine
 10
91.90533700000001
 20
-73.223282
 30
0.0
 11
92.90533700000001
 21
-72.22328199999999
 31
0.0
  0
LINE
  5
D6
330
A
100
AcDbEntity
  8
Hawa6
 62
     3
 48
0.088619
100
AcDbLine
 10
97.76059400000001
 20
-62.22328199999999
 30
0.0
 11
101.305338
 21
-62.22328199999999
 31
0.0
  0
LINE
  5
D7
330
A
100
AcDbEntity
  8
Hawa6
 62
     3
 48
0.0625
100
AcDbLine
 10
98.80533800000002
 20
-76.223282
 30
0.0
 11
101.305338
 21
-76.223282
 31
0.0
  0
LINE
  5
D8
330
A
100
AcDbEntity
  8
Hawa6
 62
     3
 48
0.088619
100
AcDbLine
 10
97.76059400000001
 20
-76.223282
 30
0.0
 11
101.305338
 21
-76.223282
 31
0.0
  0
LINE
  5
D9
330
A
100
AcDbEntity
  8
Hawa6
 62
     3
 48
0.025
100
AcDbLine
 10
101.305338
 20
-62.22328199999999
 30
0.0
 11
101.305338
 21
-61.223282
 31
0.0
  0
LINE
  5
DA
330
A
100
AcDbEntity
  8
Hawa6
 62
     3
 48
0.0475
100
AcDbLine
 10
98.30533800000001
 20
-56.823288
 30
0.0
 11
98.30533800000001
 21
-58.723282
 31
0.0
  0
LINE
  5
DB
330
A
100
AcDbEntity
  8
Hawa6
 62
     3
 48
0.0475
100
AcDbLine
 10
98.30533800000001
 20
-81.62327600000001
 30
0.0
 11
98.30533800000001
 21
-79.72328199999999
 31
0.0
  0
LINE
  5
DC
330
A
100
AcDbEntity
  8
Hawa6
 62
     3
 48
0.00638
100
AcDbLine
 10
97.550143
 20
-59.22328199999999
 30
0.0
 11
97.805338
 21
-59.22328199999999
 31
0.0
  0
LINE
  5
DD
330
A
100
AcDbEntity
  8
Hawa6
 62
     3
 48
0.00638
100
AcDbLine
 10
97.550143
 20
-79.22328199999999
 30
0.0
 11
97.805338
 21
-79.22328199999999
 31
0.0
  0
LINE
  5
DE
330
A
100
AcDbEntity
  8
Hawa6
 62
     3
 48
0.108253
100
AcDbLine
 10
102.055338
 20
-77.656296
 30
0.0
 11
105.805338
 21
-75.491226
 31
0.0
  0
LINE
  5
DF
330
A
100
AcDbEntity
  8
Hawa6
 62
     3
 48
0.108253
100
AcDbLine
 10
105.805338
 20
-62.955338
 30
0.0
 11
102.055338
 21
-60.79026800000001
 31
0.0
  0
LINE
  5
E0
330
A
100
AcDbEntity
  8
Hawa6
 62
     3
 48
0.091195
100
AcDbLine
 10
95.10533800000001
 20
-82.68737800000002
 30
0.0
 11
95.10533800000001
 21
-79.039597
 31
0.0
  0
LINE
  5
E1
330
A
100
AcDbEntity
  8
Hawa6
 62
     3
 48
0.2
100
AcDbLine
 10
95.90533699999999
 20
-73.223282
 30
0.0
 11
95.90533699999999
 21
-65.223282
 31
0.0
  0
LINE
  5
E2
330
A
100
AcDbEntity
  8
Hawa6
 62
     3
 48
0.091195
100
AcDbLine
 10
95.10533800000001
 20
-59.406967
 30
0.0
 11
95.10533800000001
 21
-55.759186
 31
0.0
  0
LINE
  5
E3
330
A
100
AcDbEntity
  8
Hawa6
 62
     3
 48
0.185
100
AcDbLine
 10
96.90533700000001
 20
-74.22328199999999
 30
0.0
 11
104.305338
 21
-74.22328199999999
 31
0.0
  0
LINE
  5
E4
330
A
100
AcDbEntity
  8
Hawa6
 62
     3
 48
0.185
100
AcDbLine
 10
96.90533700000001
 20
-64.22328199999999
 30
0.0
 11
104.305338
 21
-64.22328199999999
 31
0.0
  0
LINE
  5
E5
330
A
100
AcDbEntity
  8
Hawa6
 62
     3
 48
0.025
100
AcDbLine
 10
101.305338
 20
-77.22328199999999
 30
0.0
 11
101.305338
 21
-76.223282
 31
0.0
  0
LINE
  5
E6
330
A
100
AcDbEntity
  8
Hawa5
  6
PHANTOM
 62
     1
100
AcDbLine
 10
94.905337
 20
-108.023285
 30
0.0
 11
130.905338
 21
-108.023285
 31
0.0
  0
LINE
  5
E7
330
A
100
AcDbEntity
  8
Hawa5
  6
PHANTOM
 62
     1
100
AcDbLine
 10
94.905337
 20
-30.423279
 30
0.0
 11
130.905338
 21
-30.423279
 31
0.0
  0
LINE
  5
E8
330
A
100
AcDbEntity
  8
Hawa5
  6
PHANTOM
 62
     1
100
AcDbLine
 10
130.905338
 20
-30.423279
 30
0.0
 11
130.905338
 21
-108.023285
 31
0.0
  0
LINE
  5
E9
330
A
100
AcDbEntity
  8
Hawa6
 62
     3
100
AcDbLine
 10
90.90533699999999
 20
-81.17327900000001
 30
0.0
 11
-18.117943
 21
-81.17327900000001
 31
0.0
  0
LINE
  5
EA
330
A
100
AcDbEntity
  8
Hawa6
 62
     3
100
AcDbLine
 10
90.90533699999999
 20
-56.77328499999999
 30
0.0
 11
-18.117943
 21
-56.77328499999999
 31
0.0
  0
LINE
  5
EB
330
A
100
AcDbEntity
  8
Hawa6
 62
     3
100
AcDbLine
 10
92.405337
 20
-58.273285
 30
0.0
 11
92.405337
 21
-79.673279
 31
0.0
  0
LINE
  5
EC
330
A
100
AcDbEntity
  8
Hawa6
  6
DASHED
 62
     3
 48
0.15
100
AcDbLine
 10
92.90533700000001
 20
-72.22328199999999
 30
0.0
 11
92.90533700000001
 21
-66.223282
 31
0.0
  0
LINE
  5
ED
330
A
100
AcDbEntity
  8
Hawa6
 62
     3
 48
0.179676
100
AcDbLine
 10
-20.854103
 20
-80.69082599999999
 30
0.0
 11
-27.607697
 21
-78.232712
 31
0.0
  0
LINE
  5
EE
330
A
100
AcDbEntity
  8
Hawa6
 62
     3
 48
0.089997
100
AcDbLine
 10
-28.594666
 20
-76.823181
 30
0.0
 11
-28.594666
 21
-73.223282
 31
0.0
  0
LINE
  5
EF
330
A
100
AcDbEntity
  8
Hawa6
 62
     3
 48
0.179676
100
AcDbLine
 10
-20.854103
 20
-57.25573699999999
 30
0.0
 11
-27.607697
 21
-59.713852
 31
0.0
  0
LINE
  5
F0
330
A
100
AcDbEntity
  8
Hawa6
 62
     3
 48
0.096247
100
AcDbLine
 10
-28.594666
 20
-61.123383
 30
0.0
 11
-28.594666
 21
-64.973282
 31
0.0
  0
LINE
  5
F2
330
A
100
AcDbEntity
  8
Hawa5
 62
     1
100
AcDbLine
 10
-52.96966600000001
 20
-73.223282
 30
0.0
 11
92.405337
 21
-73.223282
 31
0.0
  0
LINE
  5
F3
330
A
100
AcDbEntity
  8
Hawa5
 62
     1
100
AcDbLine
 10
-52.96966600000001
 20
-65.223282
 30
0.0
 11
92.405337
 21
-65.223282
 31
0.0
  0
LINE
  5
F4
330
A
100
AcDbEntity
  8
Hawa5
 62
     1
 48
0.425
100
AcDbLine
 10
32.90533400000001
 20
-36.723282
 30
0.0
 11
49.905338
 21
-36.723282
 31
0.0
  0
LINE
  5
F5
330
A
100
AcDbEntity
  8
Hawa5
 62
     1
 48
0.425
100
AcDbLine
 10
32.90533400000001
 20
-101.723282
 30
0.0
 11
49.905338
 21
-101.723282
 31
0.0
  0
LINE
  5
F6
330
A
100
AcDbEntity
  8
Hawa6
 62
     3
 48
0.270096
100
AcDbLine
 10
106.305338
 20
-74.62519799999999
 30
0.0
 11
106.305338
 21
-63.821365
 31
0.0
  0
LINE
  5
F7
330
A
100
AcDbEntity
  8
Hawa6
 62
     3
 48
0.2
100
AcDbLine
 10
105.305338
 20
-73.223282
 30
0.0
 11
105.305338
 21
-65.223282
 31
0.0
  0
LINE
  5
F8
330
A
100
AcDbEntity
  8
Hawa5
 62
     1
100
AcDbLine
 10
49.905338
 20
-101.723282
 30
0.0
 11
49.905338
 21
-81.17327900000001
 31
0.0
  0
LINE
  5
F9
330
A
100
AcDbEntity
  8
Hawa5
 62
     1
100
AcDbLine
 10
32.90533400000001
 20
-101.723282
 30
0.0
 11
32.90533400000001
 21
-81.17327900000001
 31
0.0
  0
LINE
  5
FA
330
A
100
AcDbEntity
  8
Hawa5
 62
     1
100
AcDbLine
 10
32.90533400000001
 20
-56.77328499999999
 30
0.0
 11
32.90533400000001
 21
-36.723282
 31
0.0
  0
LINE
  5
FB
330
A
100
AcDbEntity
  8
Hawa5
 62
     1
100
AcDbLine
 10
49.905338
 20
-56.77328499999999
 30
0.0
 11
49.905338
 21
-36.723282
 31
0.0
  0
LINE
  5
FC
330
A
100
AcDbEntity
  8
Hawa5
 62
     1
 48
0.375
100
AcDbLine
 10
101.905338
 20
-108.023285
 30
0.0
 11
101.905338
 21
-93.02328499999999
 31
0.0
  0
LINE
  5
FE
330
A
100
AcDbEntity
  8
Hawa5
 62
     1
 48
0.375
100
AcDbLine
 10
98.905338
 20
-45.423279
 30
0.0
 11
98.905338
 21
-30.423279
 31
0.0
  0
LINE
  5
FF
330
A
100
AcDbEntity
  8
Hawa5
 62
     1
 48
0.375
100
AcDbLine
 10
98.905338
 20
-45.423279
 30
0.0
 11
113.905337
 21
-45.423279
 31
0.0
  0
LINE
  5
100
330
A
100
AcDbEntity
  8
Hawa5
 62
     1
 48
0.375
100
AcDbLine
 10
101.905338
 20
-30.423279
 30
0.0
 11
101.905338
 21
-45.423279
 31
0.0
  0
LINE
  5
101
330
A
100
AcDbEntity
  8
Hawa5
 62
     1
100
AcDbLine
 10
108.891461
 20
2.367888999999999
 30
0.0
 11
126.63986
 21
20.116287
 31
0.0
  0
LINE
  5
102
330
A
100
AcDbEntity
  8
Hawa5
 62
     1
 48
0.277138
100
AcDbLine
 10
109.006737
 20
10.968445
 30
0.0
 11
116.84538
 21
18.807083
 31
0.0
  0
LINE
  5
103
330
A
100
AcDbEntity
  8
Hawa5
 62
     1
 48
0.264197
100
AcDbLine
 10
118.295182
 20
3.286330999999999
 30
0.0
 11
125.767815
 21
10.758957
 31
0.0
  0
LINE
  5
104
330
A
100
AcDbEntity
  8
Hawa5
 62
     1
100
AcDbLine
 10
45.39264699999999
 20
148.72094
 30
0.0
 11
63.14104799999999
 21
166.469337
 31
0.0
  0
LINE
  5
105
330
A
100
AcDbEntity
  8
Hawa5
 62
     1
 48
0.264197
100
AcDbLine
 10
54.79637099999999
 20
149.63938
 30
0.0
 11
62.269001
 21
157.112011
 31
0.0
  0
LINE
  5
106
330
A
100
AcDbEntity
  8
Hawa5
 62
     1
 48
0.277138
100
AcDbLine
 10
45.507923
 20
157.321497
 30
0.0
 11
53.34656899999999
 21
165.160141
 31
0.0
  0
LINE
  5
107
330
A
100
AcDbEntity
  8
Hawa5
 62
     1
 48
0.277138
100
AcDbLine
 10
164.851982
 20
158.604754
 30
0.0
 11
172.690628
 21
166.443398
 31
0.0
  0
LINE
  5
108
330
A
100
AcDbEntity
  8
Hawa5
 62
     1
100
AcDbLine
 10
164.736706
 20
150.004197
 30
0.0
 11
182.485107
 21
167.752596
 31
0.0
  0
LINE
  5
109
330
A
100
AcDbEntity
  8
Hawa5
 62
     1
 48
0.264197
100
AcDbLine
 10
174.140427
 20
150.922637
 30
0.0
 11
181.61306
 21
158.395268
 31
0.0
  0
LINE
  5
10A
330
A
100
AcDbEntity
  8
Hawa5
 62
     1
 48
0.264197
100
AcDbLine
 10
-26.385269
 20
1.915420999999999
 30
0.0
 11
-18.912636
 21
9.388046000000001
 31
0.0
  0
LINE
  5
10B
330
A
100
AcDbEntity
  8
Hawa5
 62
     1
100
AcDbLine
 10
-35.788986
 20
0.9969789999999999
 30
0.0
 11
-18.040588
 21
18.745377
 31
0.0
  0
LINE
  5
10C
330
A
100
AcDbEntity
  8
Hawa5
 62
     1
 48
0.277138
100
AcDbLine
 10
-35.673706
 20
9.597533999999999
 30
0.0
 11
-27.835068
 21
17.436172
 31
0.0
  0
LINE
  5
10D
330
A
100
AcDbEntity
  8
Hawa5
  6
PHANTOM
 62
     1
100
AcDbLine
 10
214.260475
 20
241.878525
 30
0.0
 11
41.61557
 21
241.878525
 31
0.0
  0
LINE
  5
10E
330
A
100
AcDbEntity
  8
Hawa5
 62
     1
 48
0.277138
100
AcDbLine
 10
14.72261
 20
385.093704
 30
0.0
 11
22.561256
 21
392.932343
 31
0.0
  0
LINE
  5
10F
330
A
100
AcDbEntity
  8
Hawa5
 62
     1
100
AcDbLine
 10
14.607338
 20
376.493149
 30
0.0
 11
32.355736
 21
394.241547
 31
0.0
  0
LINE
  5
110
330
A
100
AcDbEntity
  8
Hawa5
 62
     1
 48
0.264197
100
AcDbLine
 10
24.011063
 20
377.411591
 30
0.0
 11
31.483688
 21
384.8842160000001
 31
0.0
  0
LINE
  5
111
330
A
100
AcDbEntity
  8
Hawa5
 62
     1
100
AcDbLine
 10
181.912155
 20
376.493149
 30
0.0
 11
199.660553
 21
394.241547
 31
0.0
  0
LINE
  5
112
330
A
100
AcDbEntity
  8
Hawa5
 62
     1
 48
0.277138
100
AcDbLine
 10
182.027428
 20
385.093704
 30
0.0
 11
189.866074
 21
392.932343
 31
0.0
  0
LINE
  5
113
330
A
100
AcDbEntity
  8
Hawa5
 62
     1
 48
0.264197
100
AcDbLine
 10
191.315872
 20
377.411591
 30
0.0
 11
198.788506
 21
384.8842160000001
 31
0.0
  0
LINE
  5
114
330
A
100
AcDbEntity
  8
Hawa5
 62
     1
 48
0.277138
100
AcDbLine
 10
85.43111600000001
 20
273.814751
 30
0.0
 11
93.26975899999998
 21
281.653397
 31
0.0
  0
LINE
  5
115
330
A
100
AcDbEntity
  8
Hawa5
 62
     1
100
AcDbLine
 10
85.31584
 20
265.214188
 30
0.0
 11
103.064239
 21
282.962585
 31
0.0
  0
LINE
  5
116
330
A
100
AcDbEntity
  8
Hawa5
 62
     1
 48
0.264197
100
AcDbLine
 10
94.71956199999999
 20
266.132629
 30
0.0
 11
102.192193
 21
273.605263
 31
0.0
  0
LINE
  5
117
330
A
100
AcDbEntity
  8
Hawa5
  6
PHANTOM
 62
     1
100
AcDbLine
 10
214.260475
 20
400.878525
 30
0.0
 11
-60.239395
 21
400.878525
 31
0.0
  0
LINE
  5
118
330
A
100
AcDbEntity
  8
Hawa5
  6
PHANTOM
 62
     1
 48
0.470658
100
AcDbLine
 10
-60.239395
 20
204.554874
 30
0.0
 11
-60.239395
 21
185.72855
 31
0.0
  0
LINE
  5
119
330
A
100
AcDbEntity
  8
Hawa5
  6
PHANTOM
 62
     1
100
AcDbLine
 10
214.260475
 20
225.277351
 30
0.0
 11
214.260475
 21
202.122936
 31
0.0
  0
LINE
  5
11A
330
A
100
AcDbEntity
  8
Hawa5
  6
DASHED
 62
     1
 48
0.035355
100
AcDbLine
 10
52.405338
 20
190.378525
 30
0.0
 11
53.405338
 21
191.378525
 31
0.0
  0
LINE
  5
11B
330
A
100
AcDbEntity
  8
Hawa5
  6
DASHED
 62
     1
 48
0.035355
100
AcDbLine
 10
52.405338
 20
200.378525
 30
0.0
 11
53.405338
 21
199.378525
 31
0.0
  0
LINE
  5
11C
330
A
100
AcDbEntity
  8
Hawa5
  6
DASHED
 62
     1
 48
0.2
100
AcDbLine
 10
53.405338
 20
191.378525
 30
0.0
 11
53.405338
 21
199.378525
 31
0.0
  0
LINE
  5
11D
330
A
100
AcDbEntity
  8
Hawa5
  6
DASHDOT
 62
     1
100
AcDbLine
 10
52.405338
 20
200.378525
 30
0.0
 11
91.405337
 21
200.378525
 31
0.0
  0
LINE
  5
11E
330
A
100
AcDbEntity
  8
Hawa5
  6
DASHDOT
 62
     1
100
AcDbLine
 10
52.405338
 20
190.378525
 30
0.0
 11
91.405337
 21
190.378525
 31
0.0
  0
LINE
  5
11F
330
A
100
AcDbEntity
  8
Hawa5
 62
     1
 48
0.056602
100
AcDbLine
 10
18.668304
 20
304.413712
 30
0.0
 11
18.668304
 21
306.677795
 31
0.0
  0
LINE
  5
120
330
A
100
AcDbEntity
  8
Hawa5
 62
     1
 48
0.056602
100
AcDbLine
 10
0.668442
 20
304.413712
 30
0.0
 11
0.668442
 21
306.677811
 31
0.0
  0
LINE
  5
121
330
A
100
AcDbEntity
  8
Hawa5
 62
     1
 48
0.173205
100
AcDbLine
 10
-5.331573
 20
303.213699
 30
0.0
 11
0.668419
 21
306.677795
 31
0.0
  0
LINE
  5
122
330
A
100
AcDbEntity
  8
Hawa5
 62
     1
 48
0.173205
100
AcDbLine
 10
-5.331573
 20
303.21373
 30
0.0
 11
0.668411
 21
299.749634
 31
0.0
  0
LINE
  5
123
330
A
100
AcDbEntity
  8
Hawa5
 62
     1
 48
0.173204
100
AcDbLine
 10
18.668282
 20
306.677811
 30
0.0
 11
24.668251
 21
303.21373
 31
0.0
  0
LINE
  5
124
330
A
100
AcDbEntity
  8
Hawa5
 62
     1
 48
0.173205
100
AcDbLine
 10
18.668282
 20
299.749603
 30
0.0
 11
24.668259
 21
303.213699
 31
0.0
  0
LINE
  5
125
330
A
100
AcDbEntity
  8
Hawa5
 62
     1
 48
0.449998
100
AcDbLine
 10
0.668358
 20
304.413712
 30
0.0
 11
18.668274
 21
304.413696
 31
0.0
  0
LINE
  5
126
330
A
100
AcDbEntity
  8
Hawa5
 62
     1
 48
0.449998
100
AcDbLine
 10
0.668358
 20
302.013702
 30
0.0
 11
18.668266
 21
302.013702
 31
0.0
  0
LINE
  5
127
330
A
100
AcDbEntity
  8
Hawa5
 62
     1
 48
0.056602
100
AcDbLine
 10
0.668442
 20
299.749619
 30
0.0
 11
0.668442
 21
302.013718
 31
0.0
  0
LINE
  5
128
330
A
100
AcDbEntity
  8
Hawa5
 62
     1
 48
0.056602
100
AcDbLine
 10
18.668304
 20
299.749634
 30
0.0
 11
18.668304
 21
302.013718
 31
0.0
  0
ARC
  5
129
330
A
100
AcDbEntity
  8
Hawa5
  6
DASHED
 62
     1
100
AcDbCircle
 10
-22.594666
 20
361.878525
 30
0.0
 40
9.0
100
AcDbArc
 50
90.00000300000001
 51
180.000005
  0
ARC
  5
12A
330
A
100
AcDbEntity
  8
Hawa5
  6
DASHED
 62
     1
100
AcDbCircle
 10
-22.594666
 20
285.878525
 30
0.0
 40
9.0
100
AcDbArc
 50
179.999991
 51
270.000001
  0
ARC
  5
12B
330
A
100
AcDbEntity
  8
Hawa6
 62
     3
100
AcDbCircle
 10
28.90533400000001
 20
82.469505
 30
0.0
 40
57.5
100
AcDbArc
 50
90.00000300000001
 51
180.000005
  0
ARC
  5
12C
330
A
100
AcDbEntity
  8
Hawa6
 62
     3
100
AcDbCircle
 10
28.90533400000001
 20
82.469505
 30
0.0
 40
57.5
100
AcDbArc
 50
179.999991
 51
270.000001
  0
ARC
  5
12D
330
A
100
AcDbEntity
  8
Hawa6
 62
     3
100
AcDbCircle
 10
41.405338
 20
69.969505
 30
0.0
 40
8.599999999999999
100
AcDbArc
 50
306.37185
 51
233.62815
  0
ARC
  5
12E
330
A
100
AcDbEntity
  8
Hawa6
 62
     3
100
AcDbCircle
 10
41.405338
 20
50.469505
 30
0.0
 40
5.099999999999999
100
AcDbArc
 50
179.999991
 51
360.0
  0
ARC
  5
12F
330
A
100
AcDbEntity
  8
Hawa6
 62
     3
100
AcDbCircle
 10
92.60533800000001
 20
139.169507
 30
0.0
 40
0.8
100
AcDbArc
 50
0.0
 51
90.00000300000001
  0
ARC
  5
130
330
A
100
AcDbEntity
  8
Hawa6
 62
     3
100
AcDbCircle
 10
92.60533800000001
 20
25.769508
 30
0.0
 40
0.8
100
AcDbArc
 50
270.000001
 51
360.0
  0
ARC
  5
131
330
A
100
AcDbEntity
  8
Hawa6
 62
     3
100
AcDbCircle
 10
90.35369600000001
 20
73.469505
 30
0.0
 40
5.416132
100
AcDbArc
 50
312.393292
 51
338.860138
  0
ARC
  5
132
330
A
100
AcDbEntity
  8
Hawa6
 62
     3
100
AcDbCircle
 10
90.35369600000001
 20
73.469505
 30
0.0
 40
5.416132
100
AcDbArc
 50
21.139867
 51
47.60672299999999
  0
ARC
  5
133
330
A
100
AcDbEntity
  8
Hawa5
 62
     1
100
AcDbCircle
 10
154.405338
 20
323.878525
 30
0.0
 40
9.0
100
AcDbArc
 50
198.408267
 51
161.591729
  0
ARC
  5
134
330
A
100
AcDbEntity
  8
Hawa5
 62
     1
100
AcDbCircle
 10
144.905338
 20
323.878525
 30
0.0
 40
3.0
100
AcDbArc
 50
71.32646300000001
 51
288.673546
  0
ARC
  5
135
330
A
100
AcDbEntity
  8
Hawa5
 62
     1
100
AcDbCircle
 10
123.405338
 20
287.878525
 30
0.0
 40
9.0
100
AcDbArc
 50
198.408267
 51
161.591729
  0
ARC
  5
136
330
A
100
AcDbEntity
  8
Hawa5
 62
     1
100
AcDbCircle
 10
113.905337
 20
287.878525
 30
0.0
 40
3.0
100
AcDbArc
 50
71.32646300000001
 51
288.673546
  0
ARC
  5
137
330
A
100
AcDbEntity
  8
Hawa5
 62
     1
100
AcDbCircle
 10
123.405338
 20
359.878525
 30
0.0
 40
9.0
100
AcDbArc
 50
198.408267
 51
161.591729
  0
ARC
  5
138
330
A
100
AcDbEntity
  8
Hawa5
 62
     1
100
AcDbCircle
 10
113.905337
 20
359.878525
 30
0.0
 40
3.0
100
AcDbArc
 50
71.32646300000001
 51
288.673546
  0
ARC
  5
139
330
A
100
AcDbEntity
  8
Hawa6
 62
     3
100
AcDbCircle
 10
116.905337
 20
82.469505
 30
0.0
 40
49.5
100
AcDbArc
 50
270.000001
 51
90.00000300000001
  0
ARC
  5
13A
330
A
100
AcDbEntity
  8
Hawa6
 62
     3
100
AcDbCircle
 10
116.905337
 20
82.469505
 30
0.0
 40
57.5
100
AcDbArc
 50
270.000001
 51
90.00000300000001
  0
ARC
  5
13B
330
A
100
AcDbEntity
  8
Hawa6
 62
     3
100
AcDbCircle
 10
28.90533400000001
 20
82.469505
 30
0.0
 40
49.457569
100
AcDbArc
 50
90.00000300000001
 51
270.000001
  0
ARC
  5
13C
330
A
100
AcDbEntity
  8
Hawa6
 62
     3
100
AcDbCircle
 10
104.305338
 20
-65.223282
 30
0.0
 40
1.0
100
AcDbArc
 50
0.0
 51
90.00000300000001
  0
ARC
  5
13D
330
A
100
AcDbEntity
  8
Hawa6
 62
     3
100
AcDbCircle
 10
95.10533800000001
 20
-56.72328199999999
 30
0.0
 40
1.5
100
AcDbArc
 50
189.333158
 51
270.000001
  0
ARC
  5
13E
330
A
100
AcDbEntity
  8
Hawa6
 62
     3
100
AcDbCircle
 10
95.10533800000001
 20
-81.723282
 30
0.0
 40
1.5
100
AcDbArc
 50
90.00000300000001
 51
170.666838
  0
ARC
  5
13F
330
A
100
AcDbEntity
  8
Hawa6
 62
     3
100
AcDbCircle
 10
113.705338
 20
-53.52328499999999
 30
0.0
 40
0.3
100
AcDbArc
 50
90.00000300000001
 51
180.000005
  0
ARC
  5
140
330
A
100
AcDbEntity
  8
Hawa6
 62
     3
100
AcDbCircle
 10
94.905337
 20
-52.423279
 30
0.0
 40
2.0
100
AcDbArc
 50
90.00000300000001
 51
189.333158
  0
ARC
  5
141
330
A
100
AcDbEntity
  8
Hawa6
 62
     3
100
AcDbCircle
 10
107.905338
 20
-55.723282
 30
0.0
 40
2.5
100
AcDbArc
 50
0.0
 51
90.00000300000001
  0
ARC
  5
142
330
A
100
AcDbEntity
  8
Hawa6
 62
     3
100
AcDbCircle
 10
103.805338
 20
-55.723282
 30
0.0
 40
2.5
100
AcDbArc
 50
90.00000300000001
 51
180.000005
  0
ARC
  5
143
330
A
100
AcDbEntity
  8
Hawa6
 62
     3
100
AcDbCircle
 10
94.905337
 20
-86.023285
 30
0.0
 40
2.0
100
AcDbArc
 50
170.666838
 51
270.000001
  0
ARC
  5
144
330
A
100
AcDbEntity
  8
Hawa6
 62
     3
100
AcDbCircle
 10
103.805338
 20
-82.723282
 30
0.0
 40
2.5
100
AcDbArc
 50
180.000005
 51
270.000001
  0
ARC
  5
145
330
A
100
AcDbEntity
  8
Hawa6
 62
     3
100
AcDbCircle
 10
107.905338
 20
-82.723282
 30
0.0
 40
2.5
100
AcDbArc
 50
270.000001
 51
360.0
  0
ARC
  5
146
330
A
100
AcDbEntity
  8
Hawa6
 62
     3
100
AcDbCircle
 10
113.705338
 20
-84.92327900000001
 30
0.0
 40
0.3
100
AcDbArc
 50
180.000005
 51
270.000001
  0
ARC
  5
147
330
A
100
AcDbEntity
  8
Hawa6
 62
     3
100
AcDbCircle
 10
92.405337
 20
-77.723282
 30
0.0
 40
1.5
100
AcDbArc
 50
270.000001
 51
360.0
  0
ARC
  5
148
330
A
100
AcDbEntity
  8
Hawa6
 62
     3
100
AcDbCircle
 10
92.405337
 20
-60.723282
 30
0.0
 40
1.5
100
AcDbArc
 50
0.0
 51
90.00000300000001
  0
ARC
  5
149
330
A
100
AcDbEntity
  8
Hawa5
 62
     1
100
AcDbCircle
 10
93.450982
 20
-90.52328499999999
 30
0.0
 40
6.0
100
AcDbArc
 50
335.375675
 51
24.624318
  0
CIRCLE
  5
14A
330
A
100
AcDbEntity
  8
Hawa5
 62
     1
100
AcDbCircle
 10
104.132353
 20
-90.52328499999999
 30
0.0
 40
2.5
  0
ARC
  5
14B
330
A
100
AcDbEntity
  8
Hawa6
 62
     3
100
AcDbCircle
 10
101.805338
 20
-77.22328199999999
 30
0.0
 40
0.5
100
AcDbArc
 50
180.000005
 51
299.999994
  0
ARC
  5
14C
330
A
100
AcDbEntity
  8
Hawa6
 62
     3
100
AcDbCircle
 10
104.305338
 20
-73.223282
 30
0.0
 40
1.0
100
AcDbArc
 50
270.000001
 51
360.0
  0
ARC
  5
14D
330
A
100
AcDbEntity
  8
Hawa6
 62
     3
100
AcDbCircle
 10
101.805338
 20
-61.223282
 30
0.0
 40
0.5
100
AcDbArc
 50
60.00000299999999
 51
180.000005
  0
ARC
  5
14E
330
A
100
AcDbEntity
  8
Hawa6
 62
     3
100
AcDbCircle
 10
97.805338
 20
-79.72328199999999
 30
0.0
 40
0.5
100
AcDbArc
 50
0.0
 51
90.00000300000001
  0
ARC
  5
14F
330
A
100
AcDbEntity
  8
Hawa6
 62
     3
100
AcDbCircle
 10
89.10533800000001
 20
-79.69036899999998
 30
0.0
 40
8.0
100
AcDbArc
 50
6.532999
 51
15.909654
  0
ARC
  5
150
330
A
100
AcDbEntity
  8
Hawa6
 62
     3
100
AcDbCircle
 10
97.805338
 20
-58.723282
 30
0.0
 40
0.5
100
AcDbArc
 50
270.000001
 51
360.0
  0
ARC
  5
151
330
A
100
AcDbEntity
  8
Hawa6
 62
     3
100
AcDbCircle
 10
97.76059400000001
 20
-61.223282
 30
0.0
 40
1.0
100
AcDbArc
 50
164.09035
 51
270.000001
  0
ARC
  5
152
330
A
100
AcDbEntity
  8
Hawa6
 62
     3
100
AcDbCircle
 10
97.550143
 20
-59.72328199999999
 30
0.0
 40
0.5
100
AcDbArc
 50
90.00000300000001
 51
173.466997
  0
ARC
  5
153
330
A
100
AcDbEntity
  8
Hawa6
 62
     3
100
AcDbCircle
 10
97.76059400000001
 20
-77.22328199999999
 30
0.0
 40
1.0
100
AcDbArc
 50
90.00000300000001
 51
195.90966
  0
ARC
  5
154
330
A
100
AcDbEntity
  8
Hawa6
 62
     3
100
AcDbCircle
 10
97.550143
 20
-78.723282
 30
0.0
 40
0.5
100
AcDbArc
 50
186.532999
 51
270.000001
  0
ARC
  5
155
330
A
100
AcDbEntity
  8
Hawa6
 62
     3
100
AcDbCircle
 10
96.90533700000001
 20
-73.223282
 30
0.0
 40
1.0
100
AcDbArc
 50
180.000005
 51
270.000001
  0
ARC
  5
156
330
A
100
AcDbEntity
  8
Hawa6
 62
     3
100
AcDbCircle
 10
89.10533800000001
 20
-58.75619499999999
 30
0.0
 40
8.0
100
AcDbArc
 50
344.090341
 51
353.466989
  0
ARC
  5
157
330
A
100
AcDbEntity
  8
Hawa6
 62
     3
100
AcDbCircle
 10
96.90533700000001
 20
-65.223282
 30
0.0
 40
1.0
100
AcDbArc
 50
90.00000300000001
 51
180.000005
  0
ARC
  5
158
330
A
100
AcDbEntity
  8
Hawa6
 62
     3
100
AcDbCircle
 10
95.10533800000001
 20
-59.22328199999999
 30
0.0
 40
4.0
100
AcDbArc
 50
36.869898
 51
81.78678899999999
  0
ARC
  5
159
330
A
100
AcDbEntity
  8
Hawa6
 62
     3
100
AcDbCircle
 10
95.60533799999999
 20
-82.68737800000002
 30
0.0
 40
0.5
100
AcDbArc
 50
180.000005
 51
278.213221
  0
ARC
  5
15A
330
A
100
AcDbEntity
  8
Hawa6
 62
     3
100
AcDbCircle
 10
95.60533799999999
 20
-55.759186
 30
0.0
 40
0.5
100
AcDbArc
 50
81.78678899999999
 51
180.000005
  0
ARC
  5
15B
330
A
100
AcDbEntity
  8
Hawa6
 62
     3
100
AcDbCircle
 10
95.10533800000001
 20
-79.22328199999999
 30
0.0
 40
4.0
100
AcDbArc
 50
278.213221
 51
323.130102
  0
ARC
  5
15C
330
A
100
AcDbEntity
  8
Hawa6
 62
     3
100
AcDbCircle
 10
109.905338
 20
-69.22328199999999
 30
0.0
 40
17.0
100
AcDbArc
 50
199.749921
 51
205.26441
  0
ARC
  5
15D
330
A
100
AcDbEntity
  8
Hawa6
 62
     3
100
AcDbCircle
 10
90.90533699999999
 20
-79.673279
 30
0.0
 40
1.5
100
AcDbArc
 50
270.000001
 51
360.0
  0
ARC
  5
15E
330
A
100
AcDbEntity
  8
Hawa6
 62
     3
100
AcDbCircle
 10
90.90533699999999
 20
-58.273285
 30
0.0
 40
1.5
100
AcDbArc
 50
0.0
 51
90.00000300000001
  0
ARC
  5
15F
330
A
100
AcDbEntity
  8
Hawa6
 62
     3
100
AcDbCircle
 10
-18.117943
 20
-73.17327900000001
 30
0.0
 40
8.0
100
AcDbArc
 50
250.000005
 51
270.000001
  0
ARC
  5
160
330
A
100
AcDbEntity
  8
Hawa6
 62
     3
100
AcDbCircle
 10
-27.094666
 20
-76.823181
 30
0.0
 40
1.5
100
AcDbArc
 50
180.000005
 51
250.000005
  0
ARC
  5
161
330
A
100
AcDbEntity
  8
Hawa6
 62
     3
100
AcDbCircle
 10
-18.117943
 20
-64.773285
 30
0.0
 40
8.0
100
AcDbArc
 50
90.00000300000001
 51
109.999999
  0
ARC
  5
162
330
A
100
AcDbEntity
  8
Hawa6
 62
     3
100
AcDbCircle
 10
-27.094666
 20
-61.123383
 30
0.0
 40
1.5
100
AcDbArc
 50
109.999999
 51
180.000005
  0
ARC
  5
163
330
A
100
AcDbEntity
  8
Hawa6
 62
     3
100
AcDbCircle
 10
89.10533800000001
 20
-79.039597
 30
0.0
 40
6.0
100
AcDbArc
 50
0.0
 51
25.26441
  0
ARC
  5
164
330
A
100
AcDbEntity
  8
Hawa6
 62
     3
100
AcDbCircle
 10
89.10533800000001
 20
-59.406967
 30
0.0
 40
6.0
100
AcDbArc
 50
334.735576
 51
360.0
  0
ARC
  5
165
330
A
100
AcDbEntity
  8
Hawa6
 62
     3
100
AcDbCircle
 10
105.305338
 20
-74.62519799999999
 30
0.0
 40
1.0
100
AcDbArc
 50
299.999994
 51
360.0
  0
ARC
  5
166
330
A
100
AcDbEntity
  8
Hawa6
 62
     3
100
AcDbCircle
 10
105.305338
 20
-63.821365
 30
0.0
 40
1.0
100
AcDbArc
 50
0.0
 51
60.00000299999999
  0
ARC
  5
167
330
A
100
AcDbEntity
  8
Hawa6
 62
     3
100
AcDbCircle
 10
109.905338
 20
-69.22328199999999
 30
0.0
 40
17.0
100
AcDbArc
 50
154.735586
 51
160.250076
  0
ARC
  5
168
330
A
100
AcDbEntity
  8
Hawa5
 62
     1
100
AcDbCircle
 10
93.450982
 20
-47.923279
 30
0.0
 40
6.0
100
AcDbArc
 50
335.375675
 51
24.624318
  0
CIRCLE
  5
169
330
A
100
AcDbEntity
  8
Hawa5
 62
     1
100
AcDbCircle
 10
104.132353
 20
-47.923279
 30
0.0
 40
2.5
  0
LWPOLYLINE
  5
16A
330
A
100
AcDbEntity
  8
Hawa6
 62
     3
100
AcDbPolyline
 90
        3
 70
     0
 43
0.0
 10
121.905338
 20
34.472237
 10
121.896235
 20
34.47131300000001
 10
121.887125
 20
34.470436
  0
LINE
  5
16F
330
A
100
AcDbEntity
  8
Hawa5
 62
     1
 48
0.006165
100
AcDbLine
 10
110.958631
 20
-45.194489
 30
0.0
 11
111.144209
 21
-45.356873
 31
0.0
  0
LINE
  5
170
330
A
100
AcDbEntity
  8
Hawa5
 62
     1
 48
0.003668
100
AcDbLine
 10
111.144209
 20
-45.356873
 30
0.0
 11
111.283394
 21
-45.310486
 31
0.0
  0
LINE
  5
171
330
A
100
AcDbEntity
  8
Hawa5
  6
DASHDOT
 62
     1
100
AcDbLine
 10
-41.594666
 20
337.090271
 30
0.0
 11
-41.594666
 21
311.543365
 31
0.0
  0
LINE
  5
172
330
A
100
AcDbEntity
  8
Hawa5
  6
DASHED
 62
     1
100
AcDbLine
 10
-31.594666
 20
285.878525
 30
0.0
 11
-31.594666
 21
318.378525
 31
0.0
  0
LINE
  5
173
330
A
100
AcDbEntity
  8
Hawa5
  6
DASHED
 62
     1
100
AcDbLine
 10
-31.594666
 20
361.878525
 30
0.0
 11
-31.594666
 21
329.378525
 31
0.0
  0
LINE
  5
174
330
A
100
AcDbEntity
  8
Hawa5
  6
DASHDOT
 62
     1
100
AcDbLine
 10
-19.328262
 20
323.878525
 30
0.0
 11
-65.76268
 21
323.878525
 31
0.0
  0
ARC
  5
175
330
A
100
AcDbEntity
  8
Hawa5
  6
DASHED
 62
     1
100
AcDbCircle
 10
-41.594666
 20
323.878525
 30
0.0
 40
9.0
100
AcDbArc
 50
30.0
 51
329.999989
  0
LINE
  5
176
330
A
100
AcDbEntity
  8
Hawa5
  6
DASHED
 62
     1
 48
0.060546
100
AcDbLine
 10
-33.80043
 20
328.378525
 30
0.0
 11
-31.594666
 21
329.378525
 31
0.0
  0
LINE
  5
177
330
A
100
AcDbEntity
  8
Hawa5
  6
DASHED
 62
     1
 48
0.060546
100
AcDbLine
 10
-33.80043
 20
319.378525
 30
0.0
 11
-31.594666
 21
318.378525
 31
0.0
  0
INSERT
  5
2BF
330
A
100
AcDbEntity
  8
HAWA1
100
AcDbBlockReference
  2
HAWA
 10
0.0
 20
0.0
 30
0.0
  0
VIEWPORT
  5
178
102
{ACAD_XDICTIONARY
360
6F7
102
}
330
B
100
AcDbEntity
 67
     1
  8
HAWA1
 62
     0
100
AcDbViewport
 10
0.0
 20
0.0
 30
0.0
 40
1000.0
 41
1000.0
 68
     1
 69
     1
 12
0.0
 22
0.0
 13
0.0
 23
0.0
 14
1.0
 24
1.0
 15
1.0
 25
1.0
 16
0.0
 26
0.0
 36
1.0
 17
0.0
 27
0.0
 37
0.0
 42
50.0
 43
0.0
 44
0.0
 45
1000.0
 50
0.0
 51
0.0
 72
   100
 90
   557216
  1

281
     0
 71
     1
 74
     0
110
0.0
120
0.0
130
0.0
111
1.0
121
0.0
131
0.0
112
0.0
122
1.0
132
0.0
 79
     0
146
0.0
  0
ENDSEC
  0
SECTION
  2
OBJECTS
  0
DICTIONARY
  5
19
330
0
100
AcDbDictionary
281
     1
  3
ACAD_COLOR
350
2A2
  3
ACAD_GROUP
350
1A
  3
ACAD_LAYOUT
350
27E
  3
ACAD_MATERIAL
350
28D
  3
ACAD_MLINESTYLE
350
1B
  3
ACAD_PLOTSETTINGS
350
2A5
  3
ACAD_PLOTSTYLENAME
350
286
  3
ACAD_TABLESTYLE
350
2A3
  3
ACAD_VISUALSTYLE
350
291
  3
AcDbVariableDictionary
350
51C
  3
DWGPROPS
350
6F6
  0
DICTIONARY
  5
6F7
330
178
100
AcDbDictionary
280
     1
281
     1
  3
ACAD_XREC_ROUNDTRIP
360
6F8
  0
DICTIONARY
  5
2A2
102
{ACAD_REACTORS
330
19
102
}
330
19
100
AcDbDictionary
281
     1
  0
DICTIONARY
  5
1A
102
{ACAD_REACTORS
330
19
102
}
330
19
100
AcDbDictionary
281
     1
  3
*A1
350
2B1
  3
*A10
350
2BA
  3
*A11
350
2BB
  3
*A2
350
2B2
  3
*A3
350
2B3
  3
*A4
350
2B4
  3
*A5
350
2B5
  3
*A6
350
2B6
  3
*A7
350
2B7
  3
*A8
350
2B8
  3
*A9
350
2B9
  0
DICTIONARY
  5
27E
102
{ACAD_REACTORS
330
19
102
}
330
19
100
AcDbDictionary
281
     1
  3
Layout1
350
280
  3
Model
350
27F
  0
DICTIONARY
  5
28D
102
{ACAD_REACTORS
330
19
102
}
330
19
100
AcDbDictionary
281
     1
  3
ByBlock
350
28F
  3
ByLayer
350
28E
  3
Global
350
290
  0
DICTIONARY
  5
1B
102
{ACAD_REACTORS
330
19
102
}
330
19
100
AcDbDictionary
281
     1
  3
STANDARD
350
1C
  0
DICTIONARY
  5
2A5
102
{ACAD_REACTORS
330
19
102
}
330
19
100
AcDbDictionary
281
     1
  0
ACDBDICTIONARYWDFLT
  5
286
102
{ACAD_REACTORS
330
19
102
}
330
19
100
AcDbDictionary
281
     1
  3
Normal
350
287
100
AcDbDictionaryWithDefault
340
287
  0
DICTIONARY
  5
2A3
102
{ACAD_REACTORS
330
19
102
}
330
19
100
AcDbDictionary
281
     1
  3
Standard
350
2A4
  0
DICTIONARY
  5
291
102
{ACAD_REACTORS
330
19
102
}
330
19
100
AcDbDictionary
281
     1
  3
2dWireframe
350
297
  3
3D Hidden
350
299
  3
3dWireframe
350
298
  3
Basic
350
296
  3
Brighten
350
29D
  3
ColorChange
350
2A1
  3
Conceptual
350
29A
  3
Dim
350
29C
  3
Facepattern
350
2A0
  3
Flat
350
292
  3
FlatWithEdges
350
293
  3
Gouraud
350
294
  3
GouraudWithEdges
350
295
  3
Linepattern
350
29F
  3
Realistic
350
29B
  3
Thicken
350
29E
  0
DICTIONARY
  5
51C
102
{ACAD_REACTORS
330
19
102
}
330
19
100
AcDbDictionary
281
     1
  3
CTABLESTYLE
350
51D
  3
DIMASSOC
350
6F5
  3
INDEXCTL
350
6F4
  3
SORTENTS
350
6F3
  0
XRECORD
  5
6F6
102
{ACAD_REACTORS
330
19
102
}
330
19
100
AcDbXrecord
280
     1
  1
DWGPROPS COOKIE
  2

  3

  4

  6

  7

  8
stj
  9

300
=
301
=
302
=
303
=
304
=
305
=
306
=
307
=
308
=
309
=
 40
0.0114409722222222
 41
2447893.0
 42
2455265.485840023
  1

 90
        0
  0
XRECORD
  5
6F8
102
{ACAD_REACTORS
330
6F7
102
}
330
6F7
100
AcDbXrecord
280
     1
102
SHADEPLOT
 70
     0
  0
GROUP
  5
2B1
102
{ACAD_REACTORS
330
1A
102
}
330
1A
100
AcDbGroup
300

 70
     1
 71
     1
  0
GROUP
  5
2BA
102
{ACAD_REACTORS
330
1A
102
}
330
1A
100
AcDbGroup
300

 70
     1
 71
     1
  0
GROUP
  5
2BB
102
{ACAD_REACTORS
330
1A
102
}
330
1A
100
AcDbGroup
300

 70
     1
 71
     1
  0
GROUP
  5
2B2
102
{ACAD_REACTORS
330
1A
102
}
330
1A
100
AcDbGroup
300

 70
     1
 71
     1
  0
GROUP
  5
2B3
102
{ACAD_REACTORS
330
1A
102
}
330
1A
100
AcDbGroup
300

 70
     1
 71
     1
  0
GROUP
  5
2B4
102
{ACAD_REACTORS
330
1A
102
}
330
1A
100
AcDbGroup
300

 70
     1
 71
     1
  0
GROUP
  5
2B5
102
{ACAD_REACTORS
330
1A
102
}
330
1A
100
AcDbGroup
300

 70
     1
 71
     1
  0
GROUP
  5
2B6
102
{ACAD_REACTORS
330
1A
102
}
330
1A
100
AcDbGroup
300

 70
     1
 71
     1
  0
GROUP
  5
2B7
102
{ACAD_REACTORS
330
1A
102
}
330
1A
100
AcDbGroup
300

 70
     1
 71
     1
  0
GROUP
  5
2B8
102
{ACAD_REACTORS
330
1A
102
}
330
1A
100
AcDbGroup
300

 70
     1
 71
     1
  0
GROUP
  5
2B9
102
{ACAD_REACTORS
330
1A
102
}
330
1A
100
AcDbGroup
300

 70
     1
 71
     1
  0
LAYOUT
  5
280
102
{ACAD_XDICTIONARY
360
6FB
102
}
102
{ACAD_REACTORS
330
27E
102
}
330
27E
100
AcDbPlotSettings
  1

  2
none_device
  4

  6

 40
0.0
 41
0.0
 42
0.0
 43
0.0
 44
0.0
 45
0.0
 46
0.0
 47
0.0
 48
0.0
 49
0.0
140
0.0
141
0.0
142
1.0
143
1.0
 70
   688
 72
     0
 73
     0
 74
     5
  7

 75
    16
147
1.0
148
0.0
149
0.0
100
AcDbLayout
  1
Layout1
 70
     1
 71
     1
 10
0.0
 20
0.0
 11
420.0
 21
297.0
 12
0.0
 22
0.0
 32
0.0
 14
0.0
 24
0.0
 34
0.0
 15
109.260475
 25
252.378525
 35
2.0
146
0.0
 13
0.0
 23
0.0
 33
0.0
 16
1.0
 26
0.0
 36
0.0
 17
0.0
 27
1.0
 37
0.0
 76
     0
330
B
331
178
  0
LAYOUT
  5
27F
102
{ACAD_XDICTIONARY
360
6F9
102
}
102
{ACAD_REACTORS
330
27E
102
}
330
27E
100
AcDbPlotSettings
  1

  2
none_device
  4

  6

 40
0.0
 41
0.0
 42
0.0
 43
0.0
 44
0.0
 45
0.0
 46
0.0
 47
0.0
 48
0.0
 49
0.0
140
0.0
141
0.0
142
1.0
143
1.0
 70
   688
 72
     0
 73
     0
 74
     5
  7

 75
    16
147
1.0
148
0.0
149
0.0
100
AcDbLayout
  1
Model
 70
     1
 71
     0
 10
0.0
 20
0.0
 11
0.0
 21
0.0
 12
0.0
 22
0.0
 32
0.0
 14
0.0
 24
0.0
 34
0.0
 15
0.0
 25
0.0
 35
0.0
146
0.0
 13
0.0
 23
0.0
 33
0.0
 16
1.0
 26
0.0
 36
0.0
 17
0.0
 27
1.0
 37
0.0
 76
     0
330
A
331
15
  0
MATERIAL
  5
28F
102
{ACAD_XDICTIONARY
360
6FF
102
}
102
{ACAD_REACTORS
330
28D
102
}
330
28D
100
AcDbMaterial
  1
ByBlock
  0
MATERIAL
  5
28E
102
{ACAD_XDICTIONARY
360
6FD
102
}
102
{ACAD_REACTORS
330
28D
102
}
330
28D
100
AcDbMaterial
  1
ByLayer
  0
MATERIAL
  5
290
102
{ACAD_XDICTIONARY
360
701
102
}
102
{ACAD_REACTORS
330
28D
102
}
330
28D
100
AcDbMaterial
  1
Global
  0
MLINESTYLE
  5
1C
102
{ACAD_REACTORS
330
1B
102
}
330
1B
100
AcDbMlineStyle
  2
STANDARD
 70
     0
  3

 62
     0
 51
90.0
 52
90.0
 71
     2
 49
0.5
 62
   256
  6
BYLAYER
 49
-0.5
 62
   256
  6
BYLAYER
  0
ACDBPLACEHOLDER
  5
287
102
{ACAD_REACTORS
330
286
102
}
330
286
  0
TABLESTYLE
  5
2A4
102
{ACAD_XDICTIONARY
360
703
102
}
102
{ACAD_REACTORS
330
2A3
102
}
330
2A3
100
AcDbTableStyle
  3
Standard
 70
     0
 71
     0
 40
1.5
 41
1.5
280
     0
281
     0
  7
STANDARD
140
4.5
170
     2
 62
     0
 63
     7
283
     0
274
    -2
284
     1
 64
     0
275
    -2
285
     1
 65
     0
276
    -2
286
     1
 66
     0
277
    -2
287
     1
 67
     0
278
    -2
288
     1
 68
     0
279
    -2
289
     1
 69
     0
  7
STANDARD
140
6.0
170
     5
 62
     0
 63
     7
283
     0
274
    -2
284
     1
 64
     0
275
    -2
285
     1
 65
     0
276
    -2
286
     1
 66
     0
277
    -2
287
     1
 67
     0
278
    -2
288
     1
 68
     0
279
    -2
289
     1
 69
     0
  7
STANDARD
140
4.5
170
     5
 62
     0
 63
     7
283
     0
274
    -2
284
     1
 64
     0
275
    -2
285
     1
 65
     0
276
    -2
286
     1
 66
     0
277
    -2
287
     1
 67
     0
278
    -2
288
     1
 68
     0
279
    -2
289
     1
 69
     0
  0
VISUALSTYLE
  5
297
102
{ACAD_REACTORS
330
291
102
}
330
291
100
AcDbVisualStyle
  2
2dWireframe
 70
     4
 71
     0
 72
     2
 73
     0
 90
        0
 40
-0.6
 41
-30.0
 62
     5
 63
     7
 74
     1
 91
        4
 64
     7
 65
   257
 75
     1
175
     1
 42
1.0
 92
        0
 66
   257
 43
1.0
 76
     1
 77
     6
 78
     2
 67
     7
 79
     5
170
     0
171
     0
290
     0
174
     0
 93
        1
 44
0.0
173
     0
291
     0
 45
0.0
1001
ACAD
1000
AcDbSavedByObjectVersion
1070
     0
  0
VISUALSTYLE
  5
299
102
{ACAD_REACTORS
330
291
102
}
330
291
100
AcDbVisualStyle
  2
3D Hidden
 70
     6
 71
     1
 72
     2
 73
     2
 90
        0
 40
-0.6
 41
-30.0
 62
     5
 63
     7
 74
     2
 91
        2
 64
     7
 65
   257
 75
     2
175
     1
 42
40.0
 92
        0
 66
   257
 43
1.0
 76
     1
 77
     6
 78
     2
 67
     7
 79
     3
170
     0
171
     0
290
     0
174
     0
 93
        1
 44
0.0
173
     0
291
     0
 45
0.0
1001
ACAD
1000
AcDbSavedByObjectVersion
1070
     0
  0
VISUALSTYLE
  5
298
102
{ACAD_REACTORS
330
291
102
}
330
291
100
AcDbVisualStyle
  2
3dWireframe
 70
     5
 71
     0
 72
     2
 73
     0
 90
        0
 40
-0.6
 41
-30.0
 62
     5
 63
     7
 74
     1
 91
        4
 64
     7
 65
   257
 75
     1
175
     1
 42
1.0
 92
        0
 66
   257
 43
1.0
 76
     1
 77
     6
 78
     2
 67
     7
 79
     5
170
     0
171
     0
290
     0
174
     0
 93
        1
 44
0.0
173
     0
291
     0
 45
0.0
1001
ACAD
1000
AcDbSavedByObjectVersion
1070
     0
  0
VISUALSTYLE
  5
296
102
{ACAD_REACTORS
330
291
102
}
330
291
100
AcDbVisualStyle
  2
Basic
 70
     7
 71
     1
 72
     0
 73
     1
 90
        0
 40
-0.6
 41
-30.0
 62
     5
 63
     7
 74
     0
 91
        4
 64
     7
 65
   257
 75
     1
175
     1
 42
1.0
 92
        8
 66
     7
 43
1.0
 76
     1
 77
     6
 78
     2
 67
     7
 79
     5
170
     0
171
     0
290
     0
174
     0
 93
        1
 44
0.0
173
     0
291
     1
 45
0.0
1001
ACAD
1000
AcDbSavedByObjectVersion
1070
     0
  0
VISUALSTYLE
  5
29D
102
{ACAD_REACTORS
330
291
102
}
330
291
100
AcDbVisualStyle
  2
Brighten
 70
    12
 71
     2
 72
     2
 73
     0
 90
        0
 40
-0.6
 41
-30.0
 62
     5
 63
     7
 74
     1
 91
        4
 64
     7
 65
   257
 75
     1
175
     1
 42
1.0
 92
        8
 66
     7
 43
1.0
 76
     1
 77
     6
 78
     2
 67
     7
 79
     5
170
     0
171
     0
290
     0
174
     0
 93
        1
 44
50.0
173
     0
291
     1
 45
0.0
1001
ACAD
1000
AcDbSavedByObjectVersion
1070
     0
  0
VISUALSTYLE
  5
2A1
102
{ACAD_REACTORS
330
291
102
}
330
291
100
AcDbVisualStyle
  2
ColorChange
 70
    16
 71
     2
 72
     2
 73
     3
 90
        0
 40
-0.6
 41
-30.0
 62
     5
 63
     8
 74
     1
 91
        4
 64
     7
 65
   257
 75
     1
175
     1
 42
1.0
 92
        8
 66
     8
 43
1.0
 76
     1
 77
     6
 78
     2
 67
     7
 79
     5
170
     0
171
     0
290
     0
174
     0
 93
        1
 44
0.0
173
     0
291
     1
 45
0.0
1001
ACAD
1000
AcDbSavedByObjectVersion
1070
     0
  0
VISUALSTYLE
  5
29A
102
{ACAD_REACTORS
330
291
102
}
330
291
100
AcDbVisualStyle
  2
Conceptual
 70
     9
 71
     3
 72
     2
 73
     0
 90
        0
 40
-0.6
 41
-30.0
 62
     5
 63
     7
 74
     2
 91
        2
 64
     7
 65
   257
 75
     1
175
     1
 42
40.0
 92
        8
 66
     7
 43
1.0
 76
     1
 77
     6
 78
     2
 67
     7
 79
     3
170
     0
171
     0
290
     0
174
     0
 93
        1
 44
0.0
173
     0
291
     0
 45
0.0
1001
ACAD
1000
AcDbSavedByObjectVersion
1070
     0
  0
VISUALSTYLE
  5
29C
102
{ACAD_REACTORS
330
291
102
}
330
291
100
AcDbVisualStyle
  2
Dim
 70
    11
 71
     2
 72
     2
 73
     0
 90
        0
 40
-0.6
 41
-30.0
 62
     5
 63
     7
 74
     1
 91
        4
 64
     7
 65
   257
 75
     1
175
     1
 42
1.0
 92
        8
 66
     7
 43
1.0
 76
     1
 77
     6
 78
     2
 67
     7
 79
     5
170
     0
171
     0
290
     0
174
     0
 93
        1
 44
-50.0
173
     0
291
     1
 45
0.0
1001
ACAD
1000
AcDbSavedByObjectVersion
1070
     0
  0
VISUALSTYLE
  5
2A0
102
{ACAD_REACTORS
330
291
102
}
330
291
100
AcDbVisualStyle
  2
Facepattern
 70
    15
 71
     2
 72
     2
 73
     0
 90
        0
 40
-0.6
 41
-30.0
 62
     5
 63
     7
 74
     1
 91
        4
 64
     7
 65
   257
 75
     1
175
     1
 42
1.0
 92
        8
 66
     7
 43
1.0
 76
     1
 77
     6
 78
     2
 67
     7
 79
     5
170
     0
171
     0
290
     0
174
     0
 93
        1
 44
0.0
173
     0
291
     1
 45
0.0
1001
ACAD
1000
AcDbSavedByObjectVersion
1070
     0
  0
VISUALSTYLE
  5
292
102
{ACAD_REACTORS
330
291
102
}
330
291
100
AcDbVisualStyle
  2
Flat
 70
     0
 71
     2
 72
     1
 73
     1
 90
        2
 40
-0.6
 41
30.0
 62
     5
 63
     7
 74
     0
 91
        4
 64
     7
 65
   257
 75
     1
175
     1
 42
1.0
 92
        8
 66
     7
 43
1.0
 76
     1
 77
     6
 78
     2
 67
     7
 79
     5
170
     0
171
     0
290
     0
174
     0
 93
       13
 44
0.0
173
     0
291
     1
 45
0.0
1001
ACAD
1000
AcDbSavedByObjectVersion
1070
     0
  0
VISUALSTYLE
  5
293
102
{ACAD_REACTORS
330
291
102
}
330
291
100
AcDbVisualStyle
  2
FlatWithEdges
 70
     1
 71
     2
 72
     1
 73
     1
 90
        2
 40
-0.6
 41
30.0
 62
     5
 63
     7
 74
     1
 91
        4
 64
     7
 65
   257
 75
     1
175
     1
 42
1.0
 92
        0
 66
   257
 43
1.0
 76
     1
 77
     6
 78
     2
 67
     7
 79
     5
170
     0
171
     0
290
     0
174
     0
 93
       13
 44
0.0
173
     0
291
     1
 45
0.0
1001
ACAD
1000
AcDbSavedByObjectVersion
1070
     0
  0
VISUALSTYLE
  5
294
102
{ACAD_REACTORS
330
291
102
}
330
291
100
AcDbVisualStyle
  2
Gouraud
 70
     2
 71
     2
 72
     2
 73
     1
 90
        2
 40
-0.6
 41
30.0
 62
     5
 63
     7
 74
     0
 91
        4
 64
     7
 65
   257
 75
     1
175
     1
 42
1.0
 92
        0
 66
     7
 43
1.0
 76
     1
 77
     6
 78
     2
 67
     7
 79
     5
170
     0
171
     0
290
     0
174
     0
 93
       13
 44
0.0
173
     0
291
     1
 45
0.0
1001
ACAD
1000
AcDbSavedByObjectVersion
1070
     0
  0
VISUALSTYLE
  5
295
102
{ACAD_REACTORS
330
291
102
}
330
291
100
AcDbVisualStyle
  2
GouraudWithEdges
 70
     3
 71
     2
 72
     2
 73
     1
 90
        2
 40
-0.6
 41
30.0
 62
     5
 63
     7
 74
     1
 91
        4
 64
     7
 65
   257
 75
     1
175
     1
 42
1.0
 92
        0
 66
   257
 43
1.0
 76
     1
 77
     6
 78
     2
 67
     7
 79
     5
170
     0
171
     0
290
     0
174
     0
 93
       13
 44
0.0
173
     0
291
     1
 45
0.0
1001
ACAD
1000
AcDbSavedByObjectVersion
1070
     0
  0
VISUALSTYLE
  5
29F
102
{ACAD_REACTORS
330
291
102
}
330
291
100
AcDbVisualStyle
  2
Linepattern
 70
    14
 71
     2
 72
     2
 73
     0
 90
        0
 40
-0.6
 41
-30.0
 62
     5
 63
     7
 74
     1
 91
        4
 64
     7
 65
   257
 75
     7
175
     7
 42
1.0
 92
        8
 66
     7
 43
1.0
 76
     1
 77
     6
 78
     2
 67
     7
 79
     5
170
     0
171
     0
290
     0
174
     0
 93
        1
 44
0.0
173
     0
291
     1
 45
0.0
1001
ACAD
1000
AcDbSavedByObjectVersion
1070
     0
  0
VISUALSTYLE
  5
29B
102
{ACAD_REACTORS
330
291
102
}
330
291
100
AcDbVisualStyle
  2
Realistic
 70
     8
 71
     2
 72
     2
 73
     0
 90
        0
 40
-0.6
 41
-30.0
 62
     5
 63
     7
 74
     1
 91
        0
 64
     7
 65
   257
 75
     1
175
     1
 42
1.0
 92
        8
 66
     8
 43
1.0
 76
     1
 77
     6
 78
     2
 67
     7
 79
     5
170
     0
171
     0
290
     0
174
     0
 93
       13
 44
0.0
173
     0
291
     0
 45
0.0
1001
ACAD
1000
AcDbSavedByObjectVersion
1070
     0
  0
VISUALSTYLE
  5
29E
102
{ACAD_REACTORS
330
291
102
}
330
291
100
AcDbVisualStyle
  2
Thicken
 70
    13
 71
     2
 72
     2
 73
     0
 90
        0
 40
-0.6
 41
-30.0
 62
     5
 63
     7
 74
     1
 91
        4
 64
     7
 65
   257
 75
     1
175
     1
 42
1.0
 92
       12
 66
     7
 43
1.0
 76
     1
 77
     6
 78
     2
 67
     7
 79
     5
170
     0
171
     0
290
     0
174
     0
 93
        1
 44
0.0
173
     0
291
     1
 45
0.0
1001
ACAD
1000
AcDbSavedByObjectVersion
1070
     0
  0
DICTIONARYVAR
  5
51D
102
{ACAD_REACTORS
330
51C
102
}
330
51C
100
DictionaryVariables
280
     0
  1
STANDARD
  0
DICTIONARYVAR
  5
6F5
102
{ACAD_REACTORS
330
51C
102
}
330
51C
100
DictionaryVariables
280
     0
  1
1
  0
DICTIONARYVAR
  5
6F4
102
{ACAD_REACTORS
330
51C
102
}
330
51C
100
DictionaryVariables
280
     0
  1
0
  0
DICTIONARYVAR
  5
6F3
102
{ACAD_REACTORS
330
51C
102
}
330
51C
100
DictionaryVariables
280
     0
  1
127
  0
DICTIONARY
  5
6FB
330
280
100
AcDbDictionary
280
     1
281
     1
  3
ACAD_XREC_ROUNDTRIP
360
6FC
  0
DICTIONARY
  5
6F9
330
27F
100
AcDbDictionary
280
     1
281
     1
  3
ACAD_XREC_ROUNDTRIP
360
6FA
  0
DICTIONARY
  5
6FF
330
28F
100
AcDbDictionary
280
     1
281
     1
  3
ACAD_XREC_ROUNDTRIP
360
700
  0
DICTIONARY
  5
6FD
330
28E
100
AcDbDictionary
280
     1
281
     1
  3
ACAD_XREC_ROUNDTRIP
360
6FE
  0
DICTIONARY
  5
701
330
290
100
AcDbDictionary
280
     1
281
     1
  3
ACAD_XREC_ROUNDTRIP
360
702
  0
DICTIONARY
  5
703
330
2A4
100
AcDbDictionary
280
     1
281
     1
  3
ACAD_XREC_ROUNDTRIP
360
704
  0
XRECORD
  5
6FC
102
{ACAD_REACTORS
330
6FB
102
}
330
6FB
100
AcDbXrecord
280
     1
102
SHADEPLOT
 70
     0
102
SHADEPLOTRESLEVEL
 70
     2
102
SHADEPLOTCUSTOMDPI
 70
   300
  0
XRECORD
  5
6FA
102
{ACAD_REACTORS
330
6F9
102
}
330
6F9
100
AcDbXrecord
280
     1
102
SHADEPLOT
 70
     0
102
SHADEPLOTRESLEVEL
 70
     2
102
SHADEPLOTCUSTOMDPI
 70
   300
  0
XRECORD
  5
700
102
{ACAD_REACTORS
330
6FF
102
}
330
6FF
100
AcDbXrecord
280
     1
102
MATERIAL
148
0.0
149
0.0
149
0.0
 93
        0
 94
       63
282
     0
 72
     1
 77
     1
171
     1
175
     1
179
     1
273
     0
  0
XRECORD
  5
6FE
102
{ACAD_REACTORS
330
6FD
102
}
330
6FD
100
AcDbXrecord
280
     1
102
MATERIAL
148
0.0
149
0.0
149
0.0
 93
        0
 94
       63
282
     0
 72
     1
 77
     1
171
     1
175
     1
179
     1
273
     0
  0
XRECORD
  5
702
102
{ACAD_REACTORS
330
701
102
}
330
701
100
AcDbXrecord
280
     1
102
MATERIAL
148
0.0
149
0.0
149
0.0
 93
        0
 94
       63
282
     0
 72
     1
 77
     1
171
     1
175
     1
179
     1
273
     0
  0
XRECORD
  5
704
102
{ACAD_REACTORS
330
703
102
}
330
703
100
AcDbXrecord
280
     1
102
ACAD_ROUNDTRIP_PRE2007_TABLESTYLE
 90
      512
 91
        0
  1

 92
      512
 93
        0
  2

 94
      512
 95
        0
  3

  0
ENDSEC
  0
EOF
