  0
SECTION
  2
HEADER
  9
$ACADVER
  1
AC1015
  9
$ACADMAINTVER
 70
    20
  9
$DWGCODEPAGE
  3
ANSI_1252
  9
$INSBASE
 10
0.0
 20
0.0
 30
0.0
  9
$EXTMIN
 10
26.278571
 20
29.07069139815686
 30
0.0
  9
$EXTMAX
 10
229.9294430000001
 20
132.08553
 30
0.0
  9
$LIMMIN
 10
0.0
 20
0.0
  9
$LIMMAX
 10
420.0
 20
297.0
  9
$ORTHOMODE
 70
     0
  9
$REGENMODE
 70
     1
  9
$FILLMODE
 70
     1
  9
$QTEXTMODE
 70
     0
  9
$MIRRTEXT
 70
     1
  9
$LTSCALE
 40
1.0
  9
$ATTMODE
 70
     1
  9
$TEXTSIZE
 40
2.5
  9
$TRACEWID
 40
1.0
  9
$TEXTSTYLE
  7
STANDARD
  9
$CLAYER
  8
0
  9
$CELTYPE
  6
BYLAYER
  9
$CECOLOR
 62
   256
  9
$CELTSCALE
 40
1.0
  9
$DISPSILH
 70
     0
  9
$DIMSCALE
 40
1.0
  9
$DIMASZ
 40
2.0
  9
$DIMEXO
 40
2.0
  9
$DIMDLI
 40
0.0
  9
$DIMRND
 40
0.0
  9
$DIMDLE
 40
1.0
  9
$DIMEXE
 40
1.0
  9
$DIMTP
 40
0.0
  9
$DIMTM
 40
0.0
  9
$DIMTXT
 40
3.5
  9
$DIMCEN
 40
0.0
  9
$DIMTSZ
 40
0.0
  9
$DIMTOL
 70
     0
  9
$DIMLIM
 70
     0
  9
$DIMTIH
 70
     0
  9
$DIMTOH
 70
     0
  9
$DIMSE1
 70
     0
  9
$DIMSE2
 70
     0
  9
$DIMTAD
 70
     1
  9
$DIMZIN
 70
     8
  9
$DIMBLK
  1

  9
$DIMASO
 70
     1
  9
$DIMSHO
 70
     1
  9
$DIMPOST
  1

  9
$DIMAPOST
  1

  9
$DIMALT
 70
     1
  9
$DIMALTD
 70
     5
  9
$DIMALTF
 40
0.039370078740157
  9
$DIMLFAC
 40
1.0
  9
$DIMTOFL
 70
     1
  9
$DIMTVP
 40
0.0
  9
$DIMTIX
 70
     0
  9
$DIMSOXD
 70
     0
  9
$DIMSAH
 70
     1
  9
$DIMBLK1
  1
Oblique
  9
$DIMBLK2
  1
Oblique
  9
$DIMSTYLE
  2
HAWA-Strich
  9
$DIMCLRD
 70
   256
  9
$DIMCLRE
 70
   256
  9
$DIMCLRT
 70
   256
  9
$DIMTFAC
 40
0.7114285714285719
  9
$DIMGAP
 40
1.0
  9
$DIMJUST
 70
     0
  9
$DIMSD1
 70
     0
  9
$DIMSD2
 70
     0
  9
$DIMTOLJ
 70
     1
  9
$DIMTZIN
 70
     8
  9
$DIMALTZ
 70
     8
  9
$DIMALTTZ
 70
     8
  9
$DIMUPT
 70
     0
  9
$DIMDEC
 70
     1
  9
$DIMTDEC
 70
     1
  9
$DIMALTU
 70
     4
  9
$DIMALTTD
 70
     5
  9
$DIMTXSTY
  7
Beschlag
  9
$DIMAUNIT
 70
     0
  9
$DIMADEC
 70
     1
  9
$DIMALTRND
 40
0.0
  9
$DIMAZIN
 70
     2
  9
$DIMDSEP
 70
    46
  9
$DIMATFIT
 70
     3
  9
$DIMFRAC
 70
     0
  9
$DIMLDRBLK
  1
Oblique
  9
$DIMLUNIT
 70
     2
  9
$DIMLWD
 70
    -2
  9
$DIMLWE
 70
    -2
  9
$DIMTMOVE
 70
     0
  9
$LUNITS
 70
     2
  9
$LUPREC
 70
     4
  9
$SKETCHINC
 40
1.0
  9
$FILLETRAD
 40
2.5
  9
$AUNITS
 70
     0
  9
$AUPREC
 70
     0
  9
$MENU
  1
.
  9
$ELEVATION
 40
0.0
  9
$PELEVATION
 40
0.0
  9
$THICKNESS
 40
0.0
  9
$LIMCHECK
 70
     0
  9
$CHAMFERA
 40
2.5
  9
$CHAMFERB
 40
2.5
  9
$CHAMFERC
 40
0.0
  9
$CHAMFERD
 40
0.0
  9
$SKPOLY
 70
     0
  9
$TDCREATE
 40
2447893.000000000
  9
$TDUCREATE
 40
2447892.958333333
  9
$TDUPDATE
 40
2456596.419459699
  9
$TDUUPDATE
 40
2456596.377793033
  9
$TDINDWG
 40
0.0159487384
  9
$TDUSRTIMER
 40
0.0159483681
  9
$USRTIMER
 70
     1
  9
$ANGBASE
 50
0.0
  9
$ANGDIR
 70
     0
  9
$PDMODE
 70
     0
  9
$PDSIZE
 40
0.0
  9
$PLINEWID
 40
0.0
  9
$SPLFRAME
 70
     0
  9
$SPLINETYPE
 70
     6
  9
$SPLINESEGS
 70
     8
  9
$HANDSEED
  5
439
  9
$SURFTAB1
 70
     6
  9
$SURFTAB2
 70
     6
  9
$SURFTYPE
 70
     6
  9
$SURFU
 70
     6
  9
$SURFV
 70
     6
  9
$UCSBASE
  2

  9
$UCSNAME
  2

  9
$UCSORG
 10
0.0
 20
0.0
 30
0.0
  9
$UCSXDIR
 10
1.0
 20
0.0
 30
0.0
  9
$UCSYDIR
 10
0.0
 20
1.0
 30
0.0
  9
$UCSORTHOREF
  2

  9
$UCSORTHOVIEW
 70
     0
  9
$UCSORGTOP
 10
0.0
 20
0.0
 30
0.0
  9
$UCSORGBOTTOM
 10
0.0
 20
0.0
 30
0.0
  9
$UCSORGLEFT
 10
0.0
 20
0.0
 30
0.0
  9
$UCSORGRIGHT
 10
0.0
 20
0.0
 30
0.0
  9
$UCSORGFRONT
 10
0.0
 20
0.0
 30
0.0
  9
$UCSORGBACK
 10
0.0
 20
0.0
 30
0.0
  9
$PUCSBASE
  2

  9
$PUCSNAME
  2

  9
$PUCSORG
 10
0.0
 20
0.0
 30
0.0
  9
$PUCSXDIR
 10
1.0
 20
0.0
 30
0.0
  9
$PUCSYDIR
 10
0.0
 20
1.0
 30
0.0
  9
$PUCSORTHOREF
  2

  9
$PUCSORTHOVIEW
 70
     0
  9
$PUCSORGTOP
 10
0.0
 20
0.0
 30
0.0
  9
$PUCSORGBOTTOM
 10
0.0
 20
0.0
 30
0.0
  9
$PUCSORGLEFT
 10
0.0
 20
0.0
 30
0.0
  9
$PUCSORGRIGHT
 10
0.0
 20
0.0
 30
0.0
  9
$PUCSORGFRONT
 10
0.0
 20
0.0
 30
0.0
  9
$PUCSORGBACK
 10
0.0
 20
0.0
 30
0.0
  9
$USERI1
 70
     0
  9
$USERI2
 70
     0
  9
$USERI3
 70
     0
  9
$USERI4
 70
     0
  9
$USERI5
 70
     0
  9
$USERR1
 40
0.0
  9
$USERR2
 40
0.0
  9
$USERR3
 40
0.0
  9
$USERR4
 40
0.0
  9
$USERR5
 40
0.0
  9
$WORLDVIEW
 70
     1
  9
$SHADEDGE
 70
     3
  9
$SHADEDIF
 70
    70
  9
$TILEMODE
 70
     1
  9
$MAXACTVP
 70
    48
  9
$PINSBASE
 10
0.0
 20
0.0
 30
0.0
  9
$PLIMCHECK
 70
     0
  9
$PEXTMIN
 10
0.0
 20
0.0
 30
0.0
  9
$PEXTMAX
 10
611.7115479999998
 20
176.750076
 30
2.0
  9
$PLIMMIN
 10
0.0
 20
0.0
  9
$PLIMMAX
 10
420.0
 20
297.0
  9
$UNITMODE
 70
     0
  9
$VISRETAIN
 70
     0
  9
$PLINEGEN
 70
     0
  9
$PSLTSCALE
 70
     1
  9
$TREEDEPTH
 70
  3020
  9
$CMLSTYLE
  2
STANDARD
  9
$CMLJUST
 70
     0
  9
$CMLSCALE
 40
20.0
  9
$PROXYGRAPHICS
 70
     1
  9
$MEASUREMENT
 70
     1
  9
$CELWEIGHT
370
    -1
  9
$ENDCAPS
280
     0
  9
$JOINSTYLE
280
     0
  9
$LWDISPLAY
290
     0
  9
$INSUNITS
 70
     0
  9
$HYPERLINKBASE
  1

  9
$STYLESHEET
  1

  9
$XEDIT
290
     1
  9
$CEPSNTYPE
380
     0
  9
$PSTYLEMODE
290
     1
  9
$FINGERPRINTGUID
  2
{E62D7DAE-4C9D-4915-B3E1-F307596EF3F9}
  9
$VERSIONGUID
  2
{93E362AA-670F-49CD-80D0-44F24B148847}
  9
$EXTNAMES
290
     1
  9
$PSVPSCALE
 40
0.0
  9
$OLESTARTUP
290
     0
  0
ENDSEC
  0
SECTION
  2
CLASSES
  0
CLASS
  1
LWPOLYLINE
  2
AcDbPolyline
  3
ObjectDBX Classes
 90
    32768
280
     0
281
     1
  0
CLASS
  1
IMAGE
  2
AcDbRasterImage
  3
ISM
 90
    34943
280
     0
281
     1
  0
CLASS
  1
OLE2FRAME
  2
AcDbOle2Frame
  3
ObjectDBX Classes
 90
    32768
280
     0
281
     1
  0
CLASS
  1
HATCH
  2
AcDbHatch
  3
ObjectDBX Classes
 90
    32768
280
     0
281
     1
  0
CLASS
  1
DICTIONARYVAR
  2
AcDbDictionaryVar
  3
ObjectDBX Classes
 90
        0
280
     0
281
     0
  0
CLASS
  1
RASTERVARIABLES
  2
AcDbRasterVariables
  3
ISM
 90
    32768
280
     0
281
     0
  0
CLASS
  1
IMAGEDEF
  2
AcDbRasterImageDef
  3
ISM
 90
    32768
280
     0
281
     0
  0
CLASS
  1
IMAGEDEF_REACTOR
  2
AcDbRasterImageDefReactor
  3
ISM
 90
    32769
280
     0
281
     0
  0
CLASS
  1
IDBUFFER
  2
AcDbIdBuffer
  3
ObjectDBX Classes
 90
    32768
280
     0
281
     0
  0
CLASS
  1
SPATIAL_FILTER
  2
AcDbSpatialFilter
  3
ObjectDBX Classes
 90
    32768
280
     0
281
     0
  0
CLASS
  1
XRECORD
  2
AcDbXrecord
  3
ObjectDBX Classes
 90
        0
280
     0
281
     0
  0
CLASS
  1
SORTENTSTABLE
  2
AcDbSortentsTable
  3
ObjectDBX Classes
 90
    32768
280
     0
281
     0
  0
CLASS
  1
LAYER_INDEX
  2
AcDbLayerIndex
  3
ObjectDBX Classes
 90
    32768
280
     0
281
     0
  0
CLASS
  1
SPATIAL_INDEX
  2
AcDbSpatialIndex
  3
ObjectDBX Classes
 90
    32768
280
     0
281
     0
  0
CLASS
  1
OBJECT_PTR
  2
CAseDLPNTableRecord
  3
ASE-LPNTableRecord
 90
    32769
280
     0
281
     0
  0
CLASS
  1
LAYOUT
  2
AcDbLayout
  3
ObjectDBX Classes
 90
        0
280
     0
281
     0
  0
CLASS
  1
PLOTSETTINGS
  2
AcDbPlotSettings
  3
ObjectDBX Classes
 90
    32768
280
     0
281
     0
  0
CLASS
  1
ACDBDICTIONARYWDFLT
  2
AcDbDictionaryWithDefault
  3
ObjectDBX Classes
 90
        0
280
     0
281
     0
  0
CLASS
  1
ACDBPLACEHOLDER
  2
AcDbPlaceHolder
  3
ObjectDBX Classes
 90
        0
280
     0
281
     0
  0
CLASS
  1
VBA_PROJECT
  2
AcDbVbaProject
  3
acad
 90
    32768
280
     0
281
     0
  0
CLASS
  1
WIPEOUT
  2
AcDbWipeout
  3
"WipeOut|Product Desc: Object Enabler for WipeOut entity                        |Company: Autodesk, Inc.                        |WEB Address: www.autodesk.com"
 90
    34943
280
     0
281
     1
  0
CLASS
  1
WIPEOUTVARIABLES
  2
AcDbWipeoutVariables
  3
"WipeOut|Product Desc:     WipeOut Dbx Application|Company:          Autodesk, Inc.|WEB Address:      www.autodesk.com"
 90
    32768
280
     0
281
     0
  0
CLASS
  1
RTEXT
  2
RText
  3
RText|AutoCAD Express Tool|expresstools@autodesk.com
 90
    32768
280
     0
281
     1
  0
CLASS
  1
ARCALIGNEDTEXT
  2
AcDbArcAlignedText
  3
ATEXT|AutoCAD Express Tool|expresstools@autodesk.com
 90
    32768
280
     0
281
     1
  0
CLASS
  1
SCALE
  2
AcDbScale
  3
ObjectDBX Classes
 90
     1153
280
     0
281
     0
  0
CLASS
  1
MATERIAL
  2
AcDbMaterial
  3
ObjectDBX Classes
 90
     1024
280
     0
281
     0
  0
CLASS
  1
VISUALSTYLE
  2
AcDbVisualStyle
  3
ObjectDBX Classes
 90
     4095
280
     0
281
     0
  0
CLASS
  1
TABLESTYLE
  2
AcDbTableStyle
  3
ObjectDBX Classes
 90
     4095
280
     0
281
     0
  0
ENDSEC
  0
SECTION
  2
TABLES
  0
TABLE
  2
VPORT
  5
7
330
0
100
AcDbSymbolTable
 70
     1
  0
VPORT
  5
15
330
7
100
AcDbSymbolTableRecord
100
AcDbViewportTableRecord
  2
*ACTIVE
 70
     0
 10
0.0
 20
0.0
 11
1.0
 21
1.0
 12
129.4551004954826
 22
92.34076226803969
 13
0.0
 23
0.0
 14
1.0
 24
1.0
 15
0.0
 25
0.0
 16
0.0
 26
0.0
 36
1.0
 17
0.0
 27
0.0
 37
0.0
 40
151.9640092638789
 41
2.090832632464255
 42
50.0
 43
0.0
 44
0.0
 50
0.0
 51
0.0
 71
     0
 72
   100
 73
     1
 74
     1
 75
     0
 76
     0
 77
     0
 78
     0
281
     0
 65
     1
110
0.0
120
0.0
130
0.0
111
1.0
121
0.0
131
0.0
112
0.0
122
1.0
132
0.0
 79
     0
146
0.0
  0
ENDTAB
  0
TABLE
  2
LTYPE
  5
4
330
0
100
AcDbSymbolTable
 70
     3
  0
LTYPE
  5
11
330
4
100
AcDbSymbolTableRecord
100
AcDbLinetypeTableRecord
  2
BYBLOCK
 70
     0
  3

 72
    65
 73
     0
 40
0.0
  0
LTYPE
  5
12
330
4
100
AcDbSymbolTableRecord
100
AcDbLinetypeTableRecord
  2
BYLAYER
 70
     0
  3

 72
    65
 73
     0
 40
0.0
  0
LTYPE
  5
13
330
4
100
AcDbSymbolTableRecord
100
AcDbLinetypeTableRecord
  2
CONTINUOUS
 70
     0
  3
Solid line
 72
    65
 73
     0
 40
0.0
  0
LTYPE
  5
1D
330
4
100
AcDbSymbolTableRecord
100
AcDbLinetypeTableRecord
  2
DASHDOT
 70
     0
  3
 __ . __ . __ . __ . __ . __ . __ . 
 72
    65
 73
     4
 40
18.5
 49
12.0
 74
     0
 49
-3.0
 74
     0
 49
0.5
 74
     0
 49
-3.0
 74
     0
  0
LTYPE
  5
1E
330
4
100
AcDbSymbolTableRecord
100
AcDbLinetypeTableRecord
  2
PHANTOM
 70
     0
  3
____________    ____    ____   _
 72
    65
 73
     6
 40
20.0
 49
10.0
 74
     0
 49
-2.0
 74
     0
 49
2.0
 74
     0
 49
-2.0
 74
     0
 49
2.0
 74
     0
 49
-2.0
 74
     0
  0
ENDTAB
  0
TABLE
  2
LAYER
  5
2
330
0
100
AcDbSymbolTable
 70
     5
  0
LAYER
  5
14
330
2
100
AcDbSymbolTableRecord
100
AcDbLayerTableRecord
  2
0
 70
     0
 62
     7
  6
CONTINUOUS
370
    -3
390
167
  0
LAYER
  5
158
330
2
100
AcDbSymbolTableRecord
100
AcDbLayerTableRecord
  2
Hawa1
 70
     0
 62
     2
  6
CONTINUOUS
370
     0
390
167
  0
LAYER
  5
15B
330
2
100
AcDbSymbolTableRecord
100
AcDbLayerTableRecord
  2
Hawa5
 70
     0
 62
     1
  6
CONTINUOUS
370
    -3
390
167
  0
LAYER
  5
15C
330
2
100
AcDbSymbolTableRecord
100
AcDbLayerTableRecord
  2
Hawa6
 70
     0
 62
     3
  6
CONTINUOUS
370
    -3
390
167
  0
LAYER
  5
183
330
2
100
AcDbSymbolTableRecord
100
AcDbLayerTableRecord
  2
Defpoints
 70
     0
 62
     7
  6
CONTINUOUS
290
     0
370
    -3
390
167
  0
ENDTAB
  0
TABLE
  2
STYLE
  5
3
330
0
100
AcDbSymbolTable
 70
     3
  0
STYLE
  5
17
330
3
100
AcDbSymbolTableRecord
100
AcDbTextStyleTableRecord
  2
STANDARD
 70
     0
 40
0.0
 41
1.0
 50
0.0
 71
     0
 42
2.5
  3
isocp.shx
  4

  0
STYLE
  5
1F
330
3
100
AcDbSymbolTableRecord
100
AcDbTextStyleTableRecord
  2
GDT
 70
     0
 40
0.0
 41
1.0
 50
0.0
 71
     0
 42
2.5
  3
gdt.shx
  4

  0
STYLE
  5
185
330
3
100
AcDbSymbolTableRecord
100
AcDbTextStyleTableRecord
  2
Beschlag
 70
     0
 40
0.0
 41
0.9
 50
0.0
 71
     0
 42
3.5
  3
arial.ttf
  4

1001
ACAD
1000
Arial
1071
       34
  0
ENDTAB
  0
TABLE
  2
VIEW
  5
5
330
0
100
AcDbSymbolTable
 70
     0
  0
ENDTAB
  0
TABLE
  2
UCS
  5
6
330
0
100
AcDbSymbolTable
 70
     0
  0
ENDTAB
  0
TABLE
  2
APPID
  5
8
330
0
100
AcDbSymbolTable
 70
     1
  0
APPID
  5
16
330
8
100
AcDbSymbolTableRecord
100
AcDbRegAppTableRecord
  2
ACAD
 70
     0
  0
ENDTAB
  0
TABLE
  2
DIMSTYLE
  5
9
330
0
100
AcDbSymbolTable
 70
     2
100
AcDbDimStyleTable
 71
     1
340
184
  0
DIMSTYLE
105
18
330
9
100
AcDbSymbolTableRecord
100
AcDbDimStyleTableRecord
  2
STANDARD
 70
     0
 41
2.5
 42
0.625
 43
3.75
 44
1.25
 73
     0
 74
     0
 77
     1
 78
     8
140
2.5
141
2.5
143
0.03937
147
0.625
171
     3
172
     1
271
     2
272
     2
274
     3
283
     0
284
     8
289
     0
340
17
  0
DIMSTYLE
105
184
102
{ACAD_REACTORS
330
29
330
27
330
25
330
23
330
21
102
}
330
9
100
AcDbSymbolTableRecord
100
AcDbDimStyleTableRecord
  2
HAWA-Strich
 70
     0
 41
2.0
 42
2.0
 43
0.0
 44
1.0
 46
1.0
 73
     0
 74
     0
 77
     1
 78
     8
 79
     2
140
3.5
141
0.0
143
0.039370078740157
146
0.7114285714285719
147
1.0
170
     1
171
     5
172
     1
173
     1
176
   256
177
   256
178
   256
179
     1
271
     1
272
     1
273
     4
274
     5
284
     8
285
     8
286
     8
340
185
341
186
343
186
344
186
  0
ENDTAB
  0
TABLE
  2
BLOCK_RECORD
  5
1
330
0
100
AcDbSymbolTable
 70
     7
  0
BLOCK_RECORD
  5
A
330
1
100
AcDbSymbolTableRecord
100
AcDbBlockTableRecord
  2
*MODEL_SPACE
340
D4
  0
BLOCK_RECORD
  5
B
330
1
100
AcDbSymbolTableRecord
100
AcDbBlockTableRecord
  2
*PAPER_SPACE
340
D5
  0
BLOCK_RECORD
  5
20
330
1
100
AcDbSymbolTableRecord
100
AcDbBlockTableRecord
  2
*D0
340
0
  0
BLOCK_RECORD
  5
22
330
1
100
AcDbSymbolTableRecord
100
AcDbBlockTableRecord
  2
*D1
340
0
  0
BLOCK_RECORD
  5
24
330
1
100
AcDbSymbolTableRecord
100
AcDbBlockTableRecord
  2
*D2
340
0
  0
BLOCK_RECORD
  5
26
330
1
100
AcDbSymbolTableRecord
100
AcDbBlockTableRecord
  2
*D3
340
0
  0
BLOCK_RECORD
  5
28
330
1
100
AcDbSymbolTableRecord
100
AcDbBlockTableRecord
  2
*D4
340
0
  0
BLOCK_RECORD
  5
2D
330
1
100
AcDbSymbolTableRecord
100
AcDbBlockTableRecord
  2
BLOCK1
340
0
  0
BLOCK_RECORD
  5
186
330
1
100
AcDbSymbolTableRecord
100
AcDbBlockTableRecord
  2
_Oblique
340
0
102
{BLKREFS
331
323
331
324
331
32C
331
32D
331
3E5
331
3E6
331
3EF
331
3F0
331
421
331
422
102
}
  0
ENDTAB
  0
ENDSEC
  0
SECTION
  2
BLOCKS
  0
BLOCK
  5
D
330
A
100
AcDbEntity
  8
0
100
AcDbBlockBegin
  2
*MODEL_SPACE
 70
     0
 10
0.0
 20
0.0
 30
0.0
  3
*MODEL_SPACE
  1

  0
ENDBLK
  5
E
330
A
100
AcDbEntity
  8
0
100
AcDbBlockEnd
  0
BLOCK
  5
F
330
B
100
AcDbEntity
 67
     1
  8
0
100
AcDbBlockBegin
  2
*PAPER_SPACE
 70
     0
 10
0.0
 20
0.0
 30
0.0
  3
*PAPER_SPACE
  1

  0
ENDBLK
  5
10
330
B
100
AcDbEntity
 67
     1
  8
0
100
AcDbBlockEnd
  0
BLOCK
  5
2E
330
20
100
AcDbEntity
  8
Hawa1
100
AcDbBlockBegin
  2
*D0
 70
     1
 10
0.0
 20
0.0
 30
0.0
  3
*D0
  1

  0
LINE
  5
329
330
20
100
AcDbEntity
  8
Hawa1
370
    -2
100
AcDbLine
 10
184.2785043982357
 20
82.50658500110894
 30
0.0
 11
184.2778144399853
 21
61.78766687982682
 31
0.0
  0
LINE
  5
32A
330
20
100
AcDbEntity
  8
Hawa1
370
    -2
100
AcDbLine
 10
205.2785043982357
 20
80.30658500110895
 30
0.0
 11
205.277887678638
 21
61.78696755886296
 31
0.0
  0
LINE
  5
32B
330
20
100
AcDbEntity
  8
Hawa1
370
    -2
100
AcDbLine
 10
183.2778477414219
 20
62.78770018015446
 30
0.0
 11
206.2779209789657
 21
62.78693425742637
 31
0.0
  0
INSERT
  5
32C
330
20
100
AcDbEntity
  8
Hawa1
370
    -2
100
AcDbBlockReference
  2
_Oblique
 10
184.2778477408674
 20
62.78766687927236
 30
0.0
 41
2.0
 42
2.0
 43
2.0
 50
179.998092
  0
INSERT
  5
32D
330
20
100
AcDbEntity
  8
Hawa1
370
    -2
100
AcDbBlockReference
  2
_Oblique
 10
205.2779209795201
 20
62.7869675583085
 30
0.0
 41
2.0
 42
2.0
 43
2.0
 50
359.998092
  0
MTEXT
  5
32E
330
20
100
AcDbEntity
  8
Hawa1
100
AcDbMText
 10
194.7780323609809
 20
67.2316675660874
 30
0.0
 40
3.5
 41
0.0
 71
     5
 72
     1
  1
\A1;21 [{\H0.711429x;\S13/16;}"]
  7
Beschlag
 11
0.9999999994455256
 21
-0.0000333008821221
 31
0.0
 73
     1
 44
1.0
1001
ACAD
1000
MTEXTBEGIN
1070
    73
1070
     1
1070
    44
1040
1.0
1070
    74
1070
     0
1000
MTEXTEND
  0
POINT
  5
32F
330
20
100
AcDbEntity
  8
Defpoints
 62
     0
100
AcDbPoint
 10
184.278571
 20
84.50658500000001
 30
0.0
  0
POINT
  5
330
330
20
100
AcDbEntity
  8
Defpoints
 62
     0
100
AcDbPoint
 10
205.278571
 20
82.30658500000002
 30
0.0
  0
POINT
  5
331
330
20
100
AcDbEntity
  8
Defpoints
 62
     0
100
AcDbPoint
 10
205.2779209795201
 20
62.7869675583085
 30
0.0
  0
ENDBLK
  5
3A
330
20
100
AcDbEntity
  8
Hawa1
100
AcDbBlockEnd
  0
BLOCK
  5
3B
330
22
100
AcDbEntity
  8
Hawa1
100
AcDbBlockBegin
  2
*D1
 70
     1
 10
0.0
 20
0.0
 30
0.0
  3
*D1
  1

  0
LINE
  5
320
330
22
100
AcDbEntity
  8
Hawa1
370
    -2
100
AcDbLine
 10
207.278571
 20
120.306585
 30
0.0
 11
229.9294430000001
 21
120.306585
 31
0.0
  0
LINE
  5
321
330
22
100
AcDbEntity
  8
Hawa1
370
    -2
100
AcDbLine
 10
207.278571
 20
82.306585
 30
0.0
 11
229.9294430000001
 21
82.30658499999998
 31
0.0
  0
LINE
  5
322
330
22
100
AcDbEntity
  8
Hawa1
370
    -2
100
AcDbLine
 10
228.929443
 20
121.306585
 30
0.0
 11
228.929443
 21
81.30658499999999
 31
0.0
  0
INSERT
  5
323
330
22
100
AcDbEntity
  8
Hawa1
370
    -2
100
AcDbBlockReference
  2
_Oblique
 10
228.929443
 20
120.306585
 30
0.0
 41
2.0
 42
2.0
 43
2.0
 50
90.0
  0
INSERT
  5
324
330
22
100
AcDbEntity
  8
Hawa1
370
    -2
100
AcDbBlockReference
  2
_Oblique
 10
228.929443
 20
82.30658499999998
 30
0.0
 41
2.0
 42
2.0
 43
2.0
 50
270.0
  0
MTEXT
  5
325
330
22
100
AcDbEntity
  8
Hawa1
100
AcDbMText
 10
224.5284044089359
 20
101.306585
 30
0.0
 40
3.5
 41
0.0
 71
     5
 72
     1
  1
\A1;38 [1{\H0.711429x;\S1/2;}"]
  7
Beschlag
 11
0.0000000000000001
 21
1.0
 31
0.0
 73
     1
 44
1.0
1001
ACAD
1000
MTEXTBEGIN
1070
    73
1070
     1
1070
    44
1040
1.0
1070
    74
1070
     0
1000
MTEXTEND
  0
POINT
  5
326
330
22
100
AcDbEntity
  8
Defpoints
 62
     0
100
AcDbPoint
 10
205.278571
 20
120.306585
 30
0.0
  0
POINT
  5
327
330
22
100
AcDbEntity
  8
Defpoints
 62
     0
100
AcDbPoint
 10
205.278571
 20
82.306585
 30
0.0
  0
POINT
  5
328
330
22
100
AcDbEntity
  8
Defpoints
 62
     0
100
AcDbPoint
 10
228.929443
 20
82.30658499999998
 30
0.0
  0
ENDBLK
  5
48
330
22
100
AcDbEntity
  8
Hawa1
100
AcDbBlockEnd
  0
BLOCK
  5
49
330
24
100
AcDbEntity
  8
Hawa1
100
AcDbBlockBegin
  2
*D2
 70
     1
 10
0.0
 20
0.0
 30
0.0
  3
*D2
  1

  0
LINE
  5
41D
330
24
100
AcDbEntity
  8
Hawa1
370
    -2
100
AcDbLine
 10
30.131573
 20
106.306585
 30
0.0
 11
50.9063643304295
 21
106.306585
 31
0.0
  0
LINE
  5
41E
330
24
100
AcDbEntity
  8
Hawa1
370
    -2
100
AcDbLine
 10
30.131573
 20
96.306585
 30
0.0
 11
50.9063643304295
 21
96.30658499999999
 31
0.0
  0
LINE
  5
41F
330
24
100
AcDbEntity
  8
Hawa1
370
    -2
100
AcDbLine
 10
49.90636433042951
 20
107.306585
 30
0.0
 11
49.90636433042951
 21
96.30658499999999
 31
0.0
  0
LINE
  5
420
330
24
100
AcDbEntity
  8
Hawa1
370
    -2
100
AcDbLine
 10
49.90636433042951
 20
96.30658499999999
 30
0.0
 11
49.90636433042949
 21
43.44620829660327
 31
0.0
  0
INSERT
  5
421
330
24
100
AcDbEntity
  8
Hawa1
370
    -2
100
AcDbBlockReference
  2
_Oblique
 10
49.90636433042951
 20
106.306585
 30
0.0
 41
2.0
 42
2.0
 43
2.0
 50
90.0
  0
INSERT
  5
422
330
24
100
AcDbEntity
  8
Hawa1
370
    -2
100
AcDbBlockReference
  2
_Oblique
 10
49.90636433042951
 20
96.30658499999999
 30
0.0
 41
2.0
 42
2.0
 43
2.0
 50
270.0
  0
MTEXT
  5
423
330
24
100
AcDbEntity
  8
Hawa1
100
AcDbMText
 10
45.4611647304977
 20
50.79384299841092
 30
0.0
 40
3.5
 41
0.0
 71
     5
 72
     1
  1
\A1;10 [{\H0.711429x;\S13/32;}"]
  7
Beschlag
 11
0.0000000000000001
 21
1.0
 31
0.0
 73
     1
 44
1.0
1001
ACAD
1000
MTEXTBEGIN
1070
    73
1070
     1
1070
    44
1040
1.0
1070
    74
1070
     0
1000
MTEXTEND
  0
POINT
  5
424
330
24
100
AcDbEntity
  8
Defpoints
 62
     0
100
AcDbPoint
 10
28.131573
 20
106.306585
 30
0.0
  0
POINT
  5
425
330
24
100
AcDbEntity
  8
Defpoints
 62
     0
100
AcDbPoint
 10
28.131573
 20
96.306585
 30
0.0
  0
POINT
  5
426
330
24
100
AcDbEntity
  8
Defpoints
 62
     0
100
AcDbPoint
 10
49.90636433042951
 20
96.30658499999999
 30
0.0
  0
ENDBLK
  5
54
330
24
100
AcDbEntity
  8
Hawa1
100
AcDbBlockEnd
  0
BLOCK
  5
55
330
26
100
AcDbEntity
  8
Hawa1
100
AcDbBlockBegin
  2
*D3
 70
     1
 10
0.0
 20
0.0
 30
0.0
  3
*D3
  1

  0
LINE
  5
3E1
330
26
100
AcDbEntity
  8
Hawa1
370
    -2
100
AcDbLine
 10
30.131573
 20
96.306585
 30
0.0
 11
50.91527755542019
 21
96.30658499999999
 31
0.0
  0
LINE
  5
3E2
330
26
100
AcDbEntity
  8
Hawa1
370
    -2
100
AcDbLine
 10
30.131573
 20
106.306585
 30
0.0
 11
50.91527755542019
 21
106.306585
 31
0.0
  0
LINE
  5
3E3
330
26
100
AcDbEntity
  8
Hawa1
370
    -2
100
AcDbLine
 10
49.91527755542019
 20
106.306585
 30
0.0
 11
49.91527755542019
 21
95.30658499999999
 31
0.0
  0
LINE
  5
3E4
330
26
100
AcDbEntity
  8
Hawa1
370
    -2
100
AcDbLine
 10
49.91527755542019
 20
96.30658499999999
 30
0.0
 11
49.91527755542018
 21
59.0839894951859
 31
0.0
  0
INSERT
  5
3E5
330
26
100
AcDbEntity
  8
Hawa1
370
    -2
100
AcDbBlockReference
  2
_Oblique
 10
49.91527755542019
 20
106.306585
 30
0.0
 41
2.0
 42
2.0
 43
2.0
 50
90.0
  0
INSERT
  5
3E6
330
26
100
AcDbEntity
  8
Hawa1
370
    -2
100
AcDbBlockReference
  2
_Oblique
 10
49.91527755542019
 20
96.30658499999999
 30
0.0
 41
2.0
 42
2.0
 43
2.0
 50
270.0
  0
MTEXT
  5
3E7
330
26
100
AcDbEntity
  8
Hawa1
100
AcDbMText
 10
45.5123671415957
 20
65.92771221005631
 30
0.0
 40
3.5
 41
0.0
 71
     5
 72
     1
  1
\A1;(8 [{\H0.7x;\S5/16;}"]
  7
Beschlag
 11
0.0000000000000001
 21
1.0
 31
0.0
 73
     1
 44
1.0
1001
ACAD
1000
MTEXTBEGIN
1070
    73
1070
     1
1070
    44
1040
1.0
1070
    74
1070
     0
1000
MTEXTEND
  0
POINT
  5
3E8
330
26
100
AcDbEntity
  8
Defpoints
 62
     0
100
AcDbPoint
 10
28.131573
 20
96.306585
 30
0.0
  0
POINT
  5
3E9
330
26
100
AcDbEntity
  8
Defpoints
 62
     0
100
AcDbPoint
 10
28.131573
 20
106.306585
 30
0.0
  0
POINT
  5
3EA
330
26
100
AcDbEntity
  8
Defpoints
 62
     0
100
AcDbPoint
 10
49.91527755542019
 20
106.306585
 30
0.0
  0
ENDBLK
  5
62
330
26
100
AcDbEntity
  8
Hawa1
100
AcDbBlockEnd
  0
BLOCK
  5
63
330
28
100
AcDbEntity
  8
Hawa1
100
AcDbBlockBegin
  2
*D4
 70
     1
 10
0.0
 20
0.0
 30
0.0
  3
*D4
  1

  0
LINE
  5
3EB
330
28
100
AcDbEntity
  8
Hawa1
370
    -2
100
AcDbLine
 10
30.131573
 20
96.306585
 30
0.0
 11
50.91527755542021
 21
96.30658499999999
 31
0.0
  0
LINE
  5
3EC
330
28
100
AcDbEntity
  8
Hawa1
370
    -2
100
AcDbLine
 10
30.131573
 20
106.306585
 30
0.0
 11
50.91527755542021
 21
106.306585
 31
0.0
  0
LINE
  5
3ED
330
28
100
AcDbEntity
  8
Hawa1
370
    -2
100
AcDbLine
 10
49.9152775554202
 20
106.306585
 30
0.0
 11
49.9152775554202
 21
95.30658499999999
 31
0.0
  0
LINE
  5
3EE
330
28
100
AcDbEntity
  8
Hawa1
370
    -2
100
AcDbLine
 10
49.9152775554202
 20
96.30658499999999
 30
0.0
 11
49.91527755542019
 21
74.27186808321962
 31
0.0
  0
INSERT
  5
3EF
330
28
100
AcDbEntity
  8
Hawa1
370
    -2
100
AcDbBlockReference
  2
_Oblique
 10
49.9152775554202
 20
106.306585
 30
0.0
 41
2.0
 42
2.0
 43
2.0
 50
90.0
  0
INSERT
  5
3F0
330
28
100
AcDbEntity
  8
Hawa1
370
    -2
100
AcDbBlockReference
  2
_Oblique
 10
49.9152775554202
 20
96.30658499999999
 30
0.0
 41
2.0
 42
2.0
 43
2.0
 50
270.0
  0
MTEXT
  5
3F1
330
28
100
AcDbEntity
  8
Hawa1
100
AcDbMText
 10
45.53242171185493
 20
84.28922654160983
 30
0.0
 40
3.5
 41
0.0
 71
     5
 72
     1
  1
\A1;-12,7 [{\H0.7x;\S1/2;}"])
  7
Beschlag
 11
0.0000000000000001
 21
1.0
 31
0.0
 73
     1
 44
1.0
1001
ACAD
1000
MTEXTBEGIN
1070
    73
1070
     1
1070
    44
1040
1.0
1070
    74
1070
     0
1000
MTEXTEND
  0
POINT
  5
3F2
330
28
100
AcDbEntity
  8
Defpoints
 62
     0
100
AcDbPoint
 10
28.131573
 20
96.306585
 30
0.0
  0
POINT
  5
3F3
330
28
100
AcDbEntity
  8
Defpoints
 62
     0
100
AcDbPoint
 10
28.131573
 20
106.306585
 30
0.0
  0
POINT
  5
3F4
330
28
100
AcDbEntity
  8
Defpoints
 62
     0
100
AcDbPoint
 10
49.9152775554202
 20
106.306585
 30
0.0
  0
ENDBLK
  5
6F
330
28
100
AcDbEntity
  8
Hawa1
100
AcDbBlockEnd
  0
BLOCK
  5
70
330
2D
100
AcDbEntity
  8
0
100
AcDbBlockBegin
  2
BLOCK1
 70
     0
 10
0.0
 20
0.0
 30
0.0
  3
BLOCK1
  1

  0
LINE
  5
71
330
2D
100
AcDbEntity
  8
Hawa5
 62
     1
100
AcDbLine
 10
564.0
 20
161.689422
 30
0.0
 11
408.0
 21
161.689422
 31
0.0
  0
LINE
  5
72
330
2D
100
AcDbEntity
  8
Hawa5
 62
     1
 48
0.035355
100
AcDbLine
 10
565.0
 20
160.689422
 30
0.0
 11
564.0
 21
161.689422
 31
0.0
  0
LINE
  5
73
330
2D
100
AcDbEntity
  8
Hawa5
 62
     1
 48
0.2
100
AcDbLine
 10
565.0
 20
152.689422
 30
0.0
 11
565.0
 21
160.689422
 31
0.0
  0
LINE
  5
74
330
2D
100
AcDbEntity
  8
Hawa5
 62
     1
 48
0.035355
100
AcDbLine
 10
565.0
 20
152.689422
 30
0.0
 11
564.0
 21
151.689422
 31
0.0
  0
LINE
  5
75
330
2D
100
AcDbEntity
  8
Hawa5
 62
     1
100
AcDbLine
 10
564.0
 20
151.689422
 30
0.0
 11
408.0
 21
151.689422
 31
0.0
  0
LINE
  5
76
330
2D
100
AcDbEntity
  8
Hawa5
 62
     1
 48
0.2944739999999999
100
AcDbLine
 10
571.0
 20
125.910477
 30
0.0
 11
571.0
 21
137.689422
 31
0.0
  0
LINE
  5
77
330
2D
100
AcDbEntity
  8
Hawa5
 62
     1
 48
0.4
100
AcDbLine
 10
587.0
 20
137.689422
 30
0.0
 11
571.0
 21
137.689422
 31
0.0
  0
LINE
  5
78
330
2D
100
AcDbEntity
  8
Hawa5
 62
     1
100
AcDbLine
 10
587.0
 20
137.689422
 30
0.0
 11
587.0
 21
175.689422
 31
0.0
  0
LINE
  5
79
330
2D
100
AcDbEntity
  8
Hawa5
 62
     1
 48
0.4
100
AcDbLine
 10
571.0
 20
175.689422
 30
0.0
 11
587.0
 21
175.689422
 31
0.0
  0
LINE
  5
7A
330
2D
100
AcDbEntity
  8
Hawa5
 62
     1
 48
0.2944739999999999
100
AcDbLine
 10
571.0
 20
175.689422
 30
0.0
 11
571.0
 21
187.468368
 31
0.0
  0
LINE
  5
7B
330
2D
100
AcDbEntity
  8
Hawa6
 62
     3
 48
0.005004
100
AcDbLine
 10
571.0
 20
137.889602
 30
0.0
 11
571.0
 21
137.689422
 31
0.0
  0
LINE
  5
7C
330
2D
100
AcDbEntity
  8
Hawa5
 62
     1
 48
0.089538
100
AcDbLine
 10
571.0
 20
144.271136
 30
0.0
 11
571.0
 21
140.689602
 31
0.0
  0
LINE
  5
7D
330
2D
100
AcDbEntity
  8
Hawa5
 62
     1
 48
0.075253
100
AcDbLine
 10
571.0
 20
149.689602
 30
0.0
 11
571.0
 21
146.679463
 31
0.0
  0
LINE
  5
7E
330
2D
100
AcDbEntity
  8
Hawa5
 62
     1
 48
0.25
100
AcDbLine
 10
571.0
 20
161.689602
 30
0.0
 11
571.0
 21
151.689602
 31
0.0
  0
LINE
  5
7F
330
2D
100
AcDbEntity
  8
Hawa5
 62
     1
 48
0.075253
100
AcDbLine
 10
571.0
 20
166.699741
 30
0.0
 11
571.0
 21
163.689602
 31
0.0
  0
LINE
  5
80
330
2D
100
AcDbEntity
  8
Hawa5
 62
     1
 48
0.089538
100
AcDbLine
 10
571.0
 20
172.689602
 30
0.0
 11
571.0
 21
169.108068
 31
0.0
  0
LINE
  5
81
330
2D
100
AcDbEntity
  8
Hawa6
 62
     3
 48
0.004996
100
AcDbLine
 10
571.0
 20
175.689422
 30
0.0
 11
571.0
 21
175.489602
 31
0.0
  0
LINE
  5
82
330
2D
100
AcDbEntity
  8
Hawa6
 62
     3
 48
0.3925
100
AcDbLine
 10
586.5
 20
172.389422
 30
0.0
 11
586.5
 21
156.689422
 31
0.0
  0
LINE
  5
83
330
2D
100
AcDbEntity
  8
Hawa6
 62
     3
 48
0.3925
100
AcDbLine
 10
586.5
 20
156.689422
 30
0.0
 11
586.5
 21
140.989422
 31
0.0
  0
ARC
  5
84
330
2D
100
AcDbEntity
  8
Hawa6
 62
     3
100
AcDbCircle
 10
586.7999999999998
 20
140.989422
 30
0.0
 40
0.3
100
AcDbArc
 50
180.0
 51
270.0
  0
LINE
  5
85
330
2D
100
AcDbEntity
  8
Hawa6
 62
     3
 48
0.005
100
AcDbLine
 10
586.7999999999998
 20
140.689422
 30
0.0
 11
587.0
 21
140.689422
 31
0.0
  0
LINE
  5
86
330
2D
100
AcDbEntity
  8
Hawa6
 62
     3
 48
0.07
100
AcDbLine
 10
587.0
 20
140.689422
 30
0.0
 11
587.0
 21
137.889422
 31
0.0
  0
LINE
  5
87
330
2D
100
AcDbEntity
  8
Hawa6
 62
     3
 48
0.475
100
AcDbLine
 10
587.0
 20
137.889422
 30
0.0
 11
568.0
 21
137.889422
 31
0.0
  0
ARC
  5
88
330
2D
100
AcDbEntity
  8
Hawa6
 62
     3
100
AcDbCircle
 10
568.0
 20
139.889422
 30
0.0
 40
2.0
100
AcDbArc
 50
170.666838
 51
270.0
  0
LINE
  5
89
330
2D
100
AcDbEntity
  8
Hawa6
 62
     3
 48
0.106888
100
AcDbLine
 10
566.026476
 20
140.213772
 30
0.0
 11
566.719857
 21
144.432685
 31
0.0
  0
ARC
  5
8A
330
2D
100
AcDbEntity
  8
Hawa6
 62
     3
100
AcDbCircle
 10
568.2
 20
144.189422
 30
0.0
 40
1.5
100
AcDbArc
 50
90.0
 51
170.666838
  0
LINE
  5
8B
330
2D
100
AcDbEntity
  8
Hawa6
 62
     3
 48
0.125
100
AcDbLine
 10
568.2
 20
145.689422
 30
0.0
 11
568.2
 21
140.689422
 31
0.0
  0
LINE
  5
8C
330
2D
100
AcDbEntity
  8
Hawa6
 62
     3
 48
0.08
100
AcDbLine
 10
568.2
 20
140.689422
 30
0.0
 11
571.3999999999998
 21
140.689422
 31
0.0
  0
LINE
  5
8D
330
2D
100
AcDbEntity
  8
Hawa6
 62
     3
 48
0.2
100
AcDbLine
 10
571.3999999999998
 20
140.689422
 30
0.0
 11
571.3999999999998
 21
148.689422
 31
0.0
  0
ARC
  5
8E
330
2D
100
AcDbEntity
  8
Hawa6
 62
     3
100
AcDbCircle
 10
572.4
 20
148.689422
 30
0.0
 40
1.0
100
AcDbArc
 50
90.0
 51
180.0
  0
LINE
  5
8F
330
2D
100
AcDbEntity
  8
Hawa6
 62
     3
 48
0.05
100
AcDbLine
 10
572.4
 20
149.689422
 30
0.0
 11
574.3999999999998
 21
149.689422
 31
0.0
  0
LINE
  5
90
330
2D
100
AcDbEntity
  8
Hawa6
 62
     3
 48
0.1625
100
AcDbLine
 10
574.3999999999998
 20
149.689422
 30
0.0
 11
574.3999999999998
 21
143.189422
 31
0.0
  0
ARC
  5
91
330
2D
100
AcDbEntity
  8
Hawa6
 62
     3
100
AcDbCircle
 10
576.9
 20
143.189422
 30
0.0
 40
2.5
100
AcDbArc
 50
180.0
 51
270.0
  0
LINE
  5
92
330
2D
100
AcDbEntity
  8
Hawa6
 62
     3
 48
0.04375
100
AcDbLine
 10
576.9
 20
140.689422
 30
0.0
 11
578.65
 21
140.689422
 31
0.0
  0
LINE
  5
93
330
2D
100
AcDbEntity
  8
Hawa6
 62
     3
 48
0.010607
100
AcDbLine
 10
578.65
 20
140.689422
 30
0.0
 11
578.95
 21
140.989422
 31
0.0
  0
LINE
  5
94
330
2D
100
AcDbEntity
  8
Hawa6
 62
     3
 48
0.010607
100
AcDbLine
 10
579.25
 20
140.689422
 30
0.0
 11
578.95
 21
140.989422
 31
0.0
  0
LINE
  5
95
330
2D
100
AcDbEntity
  8
Hawa6
 62
     3
 48
0.04375
100
AcDbLine
 10
579.25
 20
140.689422
 30
0.0
 11
581.0
 21
140.689422
 31
0.0
  0
ARC
  5
96
330
2D
100
AcDbEntity
  8
Hawa6
 62
     3
100
AcDbCircle
 10
581.0
 20
143.189422
 30
0.0
 40
2.5
100
AcDbArc
 50
270.0
 51
360.0
  0
LINE
  5
97
330
2D
100
AcDbEntity
  8
Hawa6
 62
     3
 48
0.33
100
AcDbLine
 10
583.4999999999999
 20
143.189422
 30
0.0
 11
583.4999999999999
 21
156.389422
 31
0.0
  0
LINE
  5
98
330
2D
100
AcDbEntity
  8
Hawa6
 62
     3
 48
0.010607
100
AcDbLine
 10
583.4999999999999
 20
156.389422
 30
0.0
 11
583.8
 21
156.689422
 31
0.0
  0
LINE
  5
99
330
2D
100
AcDbEntity
  8
Hawa6
 62
     3
 48
0.010607
100
AcDbLine
 10
583.4999999999999
 20
156.989422
 30
0.0
 11
583.8
 21
156.689422
 31
0.0
  0
LINE
  5
9A
330
2D
100
AcDbEntity
  8
Hawa6
 62
     3
 48
0.33
100
AcDbLine
 10
583.4999999999999
 20
156.989422
 30
0.0
 11
583.4999999999999
 21
170.189422
 31
0.0
  0
ARC
  5
9B
330
2D
100
AcDbEntity
  8
Hawa6
 62
     3
100
AcDbCircle
 10
581.0
 20
170.189422
 30
0.0
 40
2.5
100
AcDbArc
 50
0.0
 51
90.0
  0
LINE
  5
9C
330
2D
100
AcDbEntity
  8
Hawa6
 62
     3
 48
0.1025
100
AcDbLine
 10
576.9
 20
172.689422
 30
0.0
 11
581.0
 21
172.689422
 31
0.0
  0
ARC
  5
9D
330
2D
100
AcDbEntity
  8
Hawa6
 62
     3
100
AcDbCircle
 10
576.9
 20
170.189422
 30
0.0
 40
2.5
100
AcDbArc
 50
90.0
 51
180.0
  0
LINE
  5
9E
330
2D
100
AcDbEntity
  8
Hawa6
 62
     3
 48
0.1625
100
AcDbLine
 10
574.3999999999998
 20
170.189422
 30
0.0
 11
574.3999999999998
 21
163.689422
 31
0.0
  0
LINE
  5
9F
330
2D
100
AcDbEntity
  8
Hawa6
 62
     3
 48
0.05
100
AcDbLine
 10
572.4
 20
163.689422
 30
0.0
 11
574.3999999999998
 21
163.689422
 31
0.0
  0
ARC
  5
A0
330
2D
100
AcDbEntity
  8
Hawa6
 62
     3
100
AcDbCircle
 10
572.4
 20
164.689422
 30
0.0
 40
1.0
100
AcDbArc
 50
180.0
 51
270.0
  0
LINE
  5
A1
330
2D
100
AcDbEntity
  8
Hawa6
 62
     3
 48
0.2
100
AcDbLine
 10
571.3999999999998
 20
164.689422
 30
0.0
 11
571.3999999999998
 21
172.689422
 31
0.0
  0
LINE
  5
A2
330
2D
100
AcDbEntity
  8
Hawa6
 62
     3
 48
0.08
100
AcDbLine
 10
568.2
 20
172.689422
 30
0.0
 11
571.3999999999998
 21
172.689422
 31
0.0
  0
LINE
  5
A3
330
2D
100
AcDbEntity
  8
Hawa6
 62
     3
 48
0.125
100
AcDbLine
 10
568.2
 20
172.689422
 30
0.0
 11
568.2
 21
167.689422
 31
0.0
  0
ARC
  5
A4
330
2D
100
AcDbEntity
  8
Hawa6
 62
     3
100
AcDbCircle
 10
568.2
 20
169.189422
 30
0.0
 40
1.5
100
AcDbArc
 50
189.333162
 51
270.0
  0
LINE
  5
A5
330
2D
100
AcDbEntity
  8
Hawa6
 62
     3
 48
0.106888
100
AcDbLine
 10
566.026476
 20
173.165072
 30
0.0
 11
566.719857
 21
168.94616
 31
0.0
  0
ARC
  5
A6
330
2D
100
AcDbEntity
  8
Hawa6
 62
     3
100
AcDbCircle
 10
568.0
 20
173.489422
 30
0.0
 40
2.0
100
AcDbArc
 50
90.0
 51
189.333162
  0
LINE
  5
A7
330
2D
100
AcDbEntity
  8
Hawa6
 62
     3
 48
0.475
100
AcDbLine
 10
587.0
 20
175.489422
 30
0.0
 11
568.0
 21
175.489422
 31
0.0
  0
LINE
  5
A8
330
2D
100
AcDbEntity
  8
Hawa6
 62
     3
 48
0.07
100
AcDbLine
 10
587.0
 20
175.489422
 30
0.0
 11
587.0
 21
172.689422
 31
0.0
  0
LINE
  5
A9
330
2D
100
AcDbEntity
  8
Hawa6
 62
     3
 48
0.005
100
AcDbLine
 10
586.7999999999998
 20
172.689422
 30
0.0
 11
587.0
 21
172.689422
 31
0.0
  0
ARC
  5
AA
330
2D
100
AcDbEntity
  8
Hawa6
 62
     3
100
AcDbCircle
 10
586.7999999999998
 20
172.389422
 30
0.0
 40
0.3
100
AcDbArc
 50
90.0
 51
180.0
  0
LINE
  5
AB
330
2D
100
AcDbEntity
  8
Hawa6
 62
     3
 48
0.270096
100
AcDbLine
 10
579.3999999999998
 20
151.287499
 30
0.0
 11
579.3999999999998
 21
162.091346
 31
0.0
  0
ARC
  5
AC
330
2D
100
AcDbEntity
  8
Hawa6
 62
     3
100
AcDbCircle
 10
578.3999999999998
 20
151.287499
 30
0.0
 40
1.0
100
AcDbArc
 50
300.0
 51
360.0
  0
LINE
  5
AD
330
2D
100
AcDbEntity
  8
Hawa6
 62
     3
 48
0.108253
100
AcDbLine
 10
578.8999999999998
 20
150.421473
 30
0.0
 11
575.15
 21
148.25641
 31
0.0
  0
ARC
  5
AE
330
2D
100
AcDbEntity
  8
Hawa6
 62
     3
100
AcDbCircle
 10
574.8999999999998
 20
148.689422
 30
0.0
 40
0.5
100
AcDbArc
 50
180.0
 51
300.0
  0
LINE
  5
AF
330
2D
100
AcDbEntity
  8
Hawa6
 62
     3
 48
0.025
100
AcDbLine
 10
574.3999999999998
 20
148.689422
 30
0.0
 11
574.3999999999998
 21
149.689422
 31
0.0
  0
LINE
  5
B0
330
2D
100
AcDbEntity
  8
Hawa6
 62
     3
 48
0.088604
100
AcDbLine
 10
574.3999999999998
 20
149.689422
 30
0.0
 11
570.8558519999997
 21
149.689422
 31
0.0
  0
ARC
  5
B1
330
2D
100
AcDbEntity
  8
Hawa6
 62
     3
100
AcDbCircle
 10
570.8558519999997
 20
148.689422
 30
0.0
 40
1.0
100
AcDbArc
 50
90.0
 51
195.89581
  0
ARC
  5
B2
330
2D
100
AcDbEntity
  8
Hawa6
 62
     3
100
AcDbCircle
 10
562.2
 20
146.224422
 30
0.0
 40
8.0
100
AcDbArc
 50
3.332194999999998
 51
15.89581
  0
LINE
  5
B3
330
2D
100
AcDbEntity
  8
Hawa6
 62
     3
 48
0.017838
100
AcDbLine
 10
570.1864749999998
 20
146.689422
 30
0.0
 11
570.8999999999998
 21
146.689422
 31
0.0
  0
ARC
  5
B4
330
2D
100
AcDbEntity
  8
Hawa6
 62
     3
100
AcDbCircle
 10
570.8999999999998
 20
146.189422
 30
0.0
 40
0.5
100
AcDbArc
 50
0.0
 51
90.0
  0
LINE
  5
B5
330
2D
100
AcDbEntity
  8
Hawa6
 62
     3
 48
0.033935
100
AcDbLine
 10
571.3999999999998
 20
146.189422
 30
0.0
 11
571.3999999999998
 21
144.832005
 31
0.0
  0
ARC
  5
B6
330
2D
100
AcDbEntity
  8
Hawa6
 62
     3
100
AcDbCircle
 10
568.2
 20
146.689422
 30
0.0
 40
3.7
100
AcDbArc
 50
278.989299
 51
329.867278
  0
ARC
  5
B7
330
2D
100
AcDbEntity
  8
Hawa6
 62
     3
100
AcDbCircle
 10
568.7
 20
143.528726
 30
0.0
 40
0.5
100
AcDbArc
 50
180.0
 51
278.989299
  0
LINE
  5
B8
330
2D
100
AcDbEntity
  8
Hawa6
 62
     3
 48
0.079017
100
AcDbLine
 10
568.2
 20
143.528726
 30
0.0
 11
568.2
 21
146.689422
 31
0.0
  0
ARC
  5
B9
330
2D
100
AcDbEntity
  8
Hawa6
 62
     3
100
AcDbCircle
 10
562.2
 20
146.224422
 30
0.0
 40
6.017991999999998
100
AcDbArc
 50
4.431564999999999
 51
23.932809
  0
ARC
  5
BA
330
2D
100
AcDbEntity
  8
Hawa6
 62
     3
100
AcDbCircle
 10
585.779154
 20
156.689422
 30
0.0
 40
19.779154
100
AcDbArc
 50
156.067191
 51
203.932809
  0
ARC
  5
BB
330
2D
100
AcDbEntity
  8
Hawa6
 62
     3
100
AcDbCircle
 10
562.2
 20
167.154422
 30
0.0
 40
6.017991999999998
100
AcDbArc
 50
336.0671910000001
 51
355.568435
  0
LINE
  5
BC
330
2D
100
AcDbEntity
  8
Hawa6
 62
     3
 48
0.079017
100
AcDbLine
 10
568.2
 20
166.689422
 30
0.0
 11
568.2
 21
169.850119
 31
0.0
  0
ARC
  5
BD
330
2D
100
AcDbEntity
  8
Hawa6
 62
     3
100
AcDbCircle
 10
568.7
 20
169.850119
 30
0.0
 40
0.5
100
AcDbArc
 50
81.01070099999999
 51
180.0
  0
ARC
  5
BE
330
2D
100
AcDbEntity
  8
Hawa6
 62
     3
100
AcDbCircle
 10
568.2
 20
166.689422
 30
0.0
 40
3.7
100
AcDbArc
 50
30.132722
 51
81.01070099999999
  0
LINE
  5
BF
330
2D
100
AcDbEntity
  8
Hawa6
 62
     3
 48
0.033935
100
AcDbLine
 10
571.3999999999998
 20
168.54684
 30
0.0
 11
571.3999999999998
 21
167.189422
 31
0.0
  0
ARC
  5
C0
330
2D
100
AcDbEntity
  8
Hawa6
 62
     3
100
AcDbCircle
 10
570.8999999999998
 20
167.189422
 30
0.0
 40
0.5
100
AcDbArc
 50
270.0
 51
360.0
  0
LINE
  5
C1
330
2D
100
AcDbEntity
  8
Hawa6
 62
     3
 48
0.017838
100
AcDbLine
 10
570.1864749999998
 20
166.689422
 30
0.0
 11
570.8999999999998
 21
166.689422
 31
0.0
  0
ARC
  5
C2
330
2D
100
AcDbEntity
  8
Hawa6
 62
     3
100
AcDbCircle
 10
562.2
 20
167.154422
 30
0.0
 40
8.0
100
AcDbArc
 50
344.10419
 51
356.667805
  0
ARC
  5
C3
330
2D
100
AcDbEntity
  8
Hawa6
 62
     3
100
AcDbCircle
 10
570.8558519999997
 20
164.689422
 30
0.0
 40
1.0
100
AcDbArc
 50
164.10419
 51
270.0
  0
LINE
  5
C4
330
2D
100
AcDbEntity
  8
Hawa6
 62
     3
 48
0.088604
100
AcDbLine
 10
574.3999999999998
 20
163.689422
 30
0.0
 11
570.8558519999997
 21
163.689422
 31
0.0
  0
LINE
  5
C5
330
2D
100
AcDbEntity
  8
Hawa6
 62
     3
 48
0.025
100
AcDbLine
 10
574.3999999999998
 20
163.689422
 30
0.0
 11
574.3999999999998
 21
164.689422
 31
0.0
  0
ARC
  5
C6
330
2D
100
AcDbEntity
  8
Hawa6
 62
     3
100
AcDbCircle
 10
574.8999999999998
 20
164.689422
 30
0.0
 40
0.5
100
AcDbArc
 50
60.0
 51
180.0
  0
LINE
  5
C7
330
2D
100
AcDbEntity
  8
Hawa6
 62
     3
 48
0.108253
100
AcDbLine
 10
578.8999999999998
 20
162.957372
 30
0.0
 11
575.15
 21
165.122435
 31
0.0
  0
ARC
  5
C8
330
2D
100
AcDbEntity
  8
Hawa6
 62
     3
100
AcDbCircle
 10
578.3999999999998
 20
162.091346
 30
0.0
 40
1.0
100
AcDbArc
 50
0.0
 51
60.0
  0
ARC
  5
C9
330
2D
100
AcDbEntity
  8
Hawa6
 62
     3
100
AcDbCircle
 10
577.4
 20
160.689422
 30
0.0
 40
1.0
100
AcDbArc
 50
360.0
 51
450.0
  0
LINE
  5
CA
330
2D
100
AcDbEntity
  8
Hawa6
 62
     3
 48
0.185
100
AcDbLine
 10
577.4
 20
161.689422
 30
0.0
 11
570.0
 21
161.689422
 31
0.0
  0
ARC
  5
CB
330
2D
100
AcDbEntity
  8
Hawa6
 62
     3
100
AcDbCircle
 10
570.0
 20
160.689422
 30
0.0
 40
1.0
100
AcDbArc
 50
90.0
 51
180.0
  0
LINE
  5
CC
330
2D
100
AcDbEntity
  8
Hawa6
 62
     3
 48
0.2
100
AcDbLine
 10
569.0
 20
152.689422
 30
0.0
 11
569.0
 21
160.689422
 31
0.0
  0
ARC
  5
CD
330
2D
100
AcDbEntity
  8
Hawa6
 62
     3
100
AcDbCircle
 10
570.0
 20
152.689422
 30
0.0
 40
1.0
100
AcDbArc
 50
180.0
 51
270.0
  0
LINE
  5
CE
330
2D
100
AcDbEntity
  8
Hawa6
 62
     3
 48
0.185
100
AcDbLine
 10
570.0
 20
151.689422
 30
0.0
 11
577.4
 21
151.689422
 31
0.0
  0
ARC
  5
CF
330
2D
100
AcDbEntity
  8
Hawa6
 62
     3
100
AcDbCircle
 10
577.4
 20
152.689422
 30
0.0
 40
1.0
100
AcDbArc
 50
270.0
 51
360.0
  0
LINE
  5
D0
330
2D
100
AcDbEntity
  8
Hawa6
 62
     3
 48
0.2
100
AcDbLine
 10
578.3999999999998
 20
160.689422
 30
0.0
 11
578.3999999999998
 21
152.689422
 31
0.0
  0
ENDBLK
  5
D1
330
2D
100
AcDbEntity
  8
0
100
AcDbBlockEnd
  0
BLOCK
  5
187
330
186
100
AcDbEntity
  8
0
100
AcDbBlockBegin
  2
_Oblique
 70
     0
 10
0.0
 20
0.0
 30
0.0
  3
_Oblique
  1

  0
LINE
  5
188
330
186
100
AcDbEntity
  8
0
 62
     0
370
    -2
100
AcDbLine
 10
-0.5
 20
-0.5
 30
0.0
 11
0.5
 21
0.5
 31
0.0
  0
ENDBLK
  5
189
330
186
100
AcDbEntity
  8
0
100
AcDbBlockEnd
  0
ENDSEC
  0
SECTION
  2
ENTITIES
  0
DIMENSION
  5
21
330
A
100
AcDbEntity
  8
Hawa1
 62
     0
100
AcDbDimension
  2
*D0
 10
205.2779209795201
 20
62.7869675583085
 30
0.0
 11
194.7780323609809
 21
67.2316675660874
 31
0.0
 70
    32
 71
     5
 42
21.00007325029671
 52
89.999523
  3
HAWA-Strich
100
AcDbAlignedDimension
 13
184.278571
 23
84.50658500000001
 33
0.0
 14
205.278571
 24
82.306585
 34
0.0
 50
359.998092
100
AcDbRotatedDimension
  0
DIMENSION
  5
23
330
A
100
AcDbEntity
  8
Hawa1
 62
     0
100
AcDbDimension
  2
*D1
 10
228.929443
 20
82.30658499999998
 30
0.0
 11
224.5284044089359
 21
101.306585
 31
0.0
 70
    33
 71
     5
 42
38.00000000000002
 52
89.999523
  3
HAWA-Strich
100
AcDbAlignedDimension
 13
205.278571
 23
120.306585
 33
0.0
 14
205.278571
 24
82.306585
 34
0.0
  0
DIMENSION
  5
25
330
A
100
AcDbEntity
  8
Hawa1
 62
     0
100
AcDbDimension
  2
*D2
 10
49.90636433042951
 20
96.30658499999999
 30
0.0
 11
49.90636433042948
 21
50.79384299841092
 31
0.0
 70
   161
  1
<>
 71
     5
 42
10.00000000000001
 52
89.999523
  3
HAWA-Strich
100
AcDbAlignedDimension
 13
28.131573
 23
106.306585
 33
0.0
 14
28.131573
 24
96.306585
 34
0.0
  0
DIMENSION
  5
27
330
A
100
AcDbEntity
  8
Hawa1
 62
     0
100
AcDbDimension
  2
*D3
 10
49.91527755542019
 20
106.306585
 30
0.0
 11
49.91527755542017
 21
65.92771221005631
 31
0.0
 70
   161
  1
(8 [{\H0.7x;\S5/16;}"]
 71
     5
 42
10.00000000000001
 52
89.999523
  3
HAWA-Strich
100
AcDbAlignedDimension
 13
28.131573
 23
96.306585
 33
0.0
 14
28.131573
 24
106.306585
 34
0.0
  0
DIMENSION
  5
29
330
A
100
AcDbEntity
  8
Hawa1
 62
     0
100
AcDbDimension
  2
*D4
 10
49.9152775554202
 20
106.306585
 30
0.0
 11
49.91527755542019
 21
84.28922654160983
 31
0.0
 70
   161
  1
-12,7 [{\H0.7x;\S1/2;}"])
 71
     5
 42
10.00000000000001
 52
89.999523
  3
HAWA-Strich
100
AcDbAlignedDimension
 13
28.131573
 23
96.306585
 33
0.0
 14
28.131573
 24
106.306585
 34
0.0
  0
LINE
  5
2A
330
A
100
AcDbEntity
  8
Hawa5
  6
DASHDOT
 62
     1
100
AcDbLine
 10
26.278571
 20
101.306585
 30
0.0
 11
209.196418
 21
101.306585
 31
0.0
  0
LINE
  5
2B
330
A
100
AcDbEntity
  8
Hawa5
  6
PHANTOM
 62
     1
100
AcDbLine
 10
26.278571
 20
116.30129
 30
0.0
 11
26.278571
 21
86.50923699999998
 31
0.0
  0
LINE
  5
F8
330
A
100
AcDbEntity
  8
Hawa5
 62
     1
100
AcDbLine
 10
182.278571
 20
106.306584
 30
0.0
 11
26.278571
 21
106.306584
 31
0.0
  0
LINE
  5
F9
330
A
100
AcDbEntity
  8
Hawa5
 62
     1
 48
0.035355
100
AcDbLine
 10
183.278571
 20
105.306584
 30
0.0
 11
182.278571
 21
106.306584
 31
0.0
  0
LINE
  5
FA
330
A
100
AcDbEntity
  8
Hawa5
 62
     1
 48
0.2
100
AcDbLine
 10
183.278571
 20
97.30658400000002
 30
0.0
 11
183.278571
 21
105.306584
 31
0.0
  0
LINE
  5
FB
330
A
100
AcDbEntity
  8
Hawa5
 62
     1
 48
0.035355
100
AcDbLine
 10
183.278571
 20
97.30658400000002
 30
0.0
 11
182.278571
 21
96.30658400000001
 31
0.0
  0
LINE
  5
FC
330
A
100
AcDbEntity
  8
Hawa5
 62
     1
100
AcDbLine
 10
182.278571
 20
96.30658400000001
 30
0.0
 11
26.278571
 21
96.30658400000001
 31
0.0
  0
LINE
  5
FD
330
A
100
AcDbEntity
  8
Hawa5
 62
     1
 48
0.2944739999999999
100
AcDbLine
 10
189.278571
 20
70.52763900000002
 30
0.0
 11
189.278571
 21
82.30658400000001
 31
0.0
  0
LINE
  5
FE
330
A
100
AcDbEntity
  8
Hawa5
 62
     1
 48
0.4
100
AcDbLine
 10
205.278571
 20
82.30658400000001
 30
0.0
 11
189.278571
 21
82.30658400000001
 31
0.0
  0
LINE
  5
FF
330
A
100
AcDbEntity
  8
Hawa5
 62
     1
100
AcDbLine
 10
205.278571
 20
82.30658400000001
 30
0.0
 11
205.278571
 21
120.306584
 31
0.0
  0
LINE
  5
100
330
A
100
AcDbEntity
  8
Hawa5
 62
     1
 48
0.4
100
AcDbLine
 10
189.278571
 20
120.306584
 30
0.0
 11
205.278571
 21
120.306584
 31
0.0
  0
LINE
  5
101
330
A
100
AcDbEntity
  8
Hawa5
 62
     1
 48
0.2944739999999999
100
AcDbLine
 10
189.278571
 20
120.306584
 30
0.0
 11
189.278571
 21
132.08553
 31
0.0
  0
LINE
  5
102
330
A
100
AcDbEntity
  8
Hawa6
 62
     3
 48
0.005004
100
AcDbLine
 10
189.278571
 20
82.50676400000001
 30
0.0
 11
189.278571
 21
82.30658400000001
 31
0.0
  0
LINE
  5
103
330
A
100
AcDbEntity
  8
Hawa5
 62
     1
 48
0.089538
100
AcDbLine
 10
189.278571
 20
88.88829800000001
 30
0.0
 11
189.278571
 21
85.30676400000002
 31
0.0
  0
LINE
  5
104
330
A
100
AcDbEntity
  8
Hawa5
 62
     1
 48
0.075253
100
AcDbLine
 10
189.278571
 20
94.30676400000001
 30
0.0
 11
189.278571
 21
91.296625
 31
0.0
  0
LINE
  5
105
330
A
100
AcDbEntity
  8
Hawa5
 62
     1
 48
0.25
100
AcDbLine
 10
189.278571
 20
106.306764
 30
0.0
 11
189.278571
 21
96.30676400000002
 31
0.0
  0
LINE
  5
106
330
A
100
AcDbEntity
  8
Hawa5
 62
     1
 48
0.075253
100
AcDbLine
 10
189.278571
 20
111.316903
 30
0.0
 11
189.278571
 21
108.306764
 31
0.0
  0
LINE
  5
107
330
A
100
AcDbEntity
  8
Hawa5
 62
     1
 48
0.089538
100
AcDbLine
 10
189.278571
 20
117.306764
 30
0.0
 11
189.278571
 21
113.72523
 31
0.0
  0
LINE
  5
108
330
A
100
AcDbEntity
  8
Hawa6
 62
     3
 48
0.004996
100
AcDbLine
 10
189.278571
 20
120.306584
 30
0.0
 11
189.278571
 21
120.1067639999999
 31
0.0
  0
LINE
  5
109
330
A
100
AcDbEntity
  8
Hawa6
 62
     3
 48
0.3925
100
AcDbLine
 10
204.778571
 20
117.006584
 30
0.0
 11
204.778571
 21
101.306584
 31
0.0
  0
LINE
  5
10A
330
A
100
AcDbEntity
  8
Hawa6
 62
     3
 48
0.3925
100
AcDbLine
 10
204.778571
 20
101.306584
 30
0.0
 11
204.778571
 21
85.60658399999999
 31
0.0
  0
ARC
  5
10B
330
A
100
AcDbEntity
  8
Hawa6
 62
     3
100
AcDbCircle
 10
205.078571
 20
85.60658399999999
 30
0.0
 40
0.3
100
AcDbArc
 50
180.0
 51
270.0
  0
LINE
  5
10C
330
A
100
AcDbEntity
  8
Hawa6
 62
     3
 48
0.005
100
AcDbLine
 10
205.078571
 20
85.30658400000001
 30
0.0
 11
205.278571
 21
85.30658400000001
 31
0.0
  0
LINE
  5
10D
330
A
100
AcDbEntity
  8
Hawa6
 62
     3
 48
0.07
100
AcDbLine
 10
205.278571
 20
85.30658400000001
 30
0.0
 11
205.278571
 21
82.506584
 31
0.0
  0
LINE
  5
10E
330
A
100
AcDbEntity
  8
Hawa6
 62
     3
 48
0.475
100
AcDbLine
 10
205.278571
 20
82.506584
 30
0.0
 11
186.278571
 21
82.506584
 31
0.0
  0
ARC
  5
10F
330
A
100
AcDbEntity
  8
Hawa6
 62
     3
100
AcDbCircle
 10
186.278571
 20
84.506584
 30
0.0
 40
2.0
100
AcDbArc
 50
170.6668380000003
 51
270.0
  0
LINE
  5
110
330
A
100
AcDbEntity
  8
Hawa6
 62
     3
 48
0.106888
100
AcDbLine
 10
184.305047
 20
84.83093400000001
 30
0.0
 11
184.998428
 21
89.04984699999998
 31
0.0
  0
ARC
  5
111
330
A
100
AcDbEntity
  8
Hawa6
 62
     3
100
AcDbCircle
 10
186.4785709999999
 20
88.80658400000001
 30
0.0
 40
1.5
100
AcDbArc
 50
90.0
 51
170.6668380000001
  0
LINE
  5
112
330
A
100
AcDbEntity
  8
Hawa6
 62
     3
 48
0.125
100
AcDbLine
 10
186.4785709999999
 20
90.306584
 30
0.0
 11
186.4785709999999
 21
85.30658400000001
 31
0.0
  0
LINE
  5
113
330
A
100
AcDbEntity
  8
Hawa6
 62
     3
 48
0.08
100
AcDbLine
 10
186.4785709999999
 20
85.30658400000001
 30
0.0
 11
189.678571
 21
85.30658400000001
 31
0.0
  0
LINE
  5
114
330
A
100
AcDbEntity
  8
Hawa6
 62
     3
 48
0.2
100
AcDbLine
 10
189.678571
 20
85.30658400000001
 30
0.0
 11
189.678571
 21
93.30658400000002
 31
0.0
  0
ARC
  5
115
330
A
100
AcDbEntity
  8
Hawa6
 62
     3
100
AcDbCircle
 10
190.678571
 20
93.30658400000002
 30
0.0
 40
1.0
100
AcDbArc
 50
90.0
 51
180.0
  0
LINE
  5
116
330
A
100
AcDbEntity
  8
Hawa6
 62
     3
 48
0.05
100
AcDbLine
 10
190.678571
 20
94.30658400000002
 30
0.0
 11
192.678571
 21
94.30658400000002
 31
0.0
  0
LINE
  5
117
330
A
100
AcDbEntity
  8
Hawa6
 62
     3
 48
0.1625
100
AcDbLine
 10
192.678571
 20
94.30658400000002
 30
0.0
 11
192.678571
 21
87.80658400000001
 31
0.0
  0
ARC
  5
118
330
A
100
AcDbEntity
  8
Hawa6
 62
     3
100
AcDbCircle
 10
195.178571
 20
87.80658400000001
 30
0.0
 40
2.5
100
AcDbArc
 50
180.0
 51
270.0
  0
LINE
  5
119
330
A
100
AcDbEntity
  8
Hawa6
 62
     3
 48
0.04375
100
AcDbLine
 10
195.178571
 20
85.30658400000001
 30
0.0
 11
196.928571
 21
85.30658400000001
 31
0.0
  0
LINE
  5
11A
330
A
100
AcDbEntity
  8
Hawa6
 62
     3
 48
0.010607
100
AcDbLine
 10
196.928571
 20
85.30658400000001
 30
0.0
 11
197.228571
 21
85.60658399999999
 31
0.0
  0
LINE
  5
11B
330
A
100
AcDbEntity
  8
Hawa6
 62
     3
 48
0.010607
100
AcDbLine
 10
197.528571
 20
85.30658400000001
 30
0.0
 11
197.228571
 21
85.60658399999999
 31
0.0
  0
LINE
  5
11C
330
A
100
AcDbEntity
  8
Hawa6
 62
     3
 48
0.04375
100
AcDbLine
 10
197.528571
 20
85.30658400000001
 30
0.0
 11
199.278571
 21
85.30658400000001
 31
0.0
  0
ARC
  5
11D
330
A
100
AcDbEntity
  8
Hawa6
 62
     3
100
AcDbCircle
 10
199.278571
 20
87.80658400000001
 30
0.0
 40
2.5
100
AcDbArc
 50
270.0
 51
0.0
  0
LINE
  5
11E
330
A
100
AcDbEntity
  8
Hawa6
 62
     3
 48
0.33
100
AcDbLine
 10
201.778571
 20
87.80658400000001
 30
0.0
 11
201.778571
 21
101.006584
 31
0.0
  0
LINE
  5
11F
330
A
100
AcDbEntity
  8
Hawa6
 62
     3
 48
0.010607
100
AcDbLine
 10
201.778571
 20
101.006584
 30
0.0
 11
202.078571
 21
101.306584
 31
0.0
  0
LINE
  5
120
330
A
100
AcDbEntity
  8
Hawa6
 62
     3
 48
0.010607
100
AcDbLine
 10
201.778571
 20
101.606584
 30
0.0
 11
202.078571
 21
101.306584
 31
0.0
  0
LINE
  5
121
330
A
100
AcDbEntity
  8
Hawa6
 62
     3
 48
0.33
100
AcDbLine
 10
201.778571
 20
101.606584
 30
0.0
 11
201.778571
 21
114.806584
 31
0.0
  0
ARC
  5
122
330
A
100
AcDbEntity
  8
Hawa6
 62
     3
100
AcDbCircle
 10
199.278571
 20
114.806584
 30
0.0
 40
2.5
100
AcDbArc
 50
0.0
 51
90.0
  0
LINE
  5
123
330
A
100
AcDbEntity
  8
Hawa6
 62
     3
 48
0.1025
100
AcDbLine
 10
195.178571
 20
117.306584
 30
0.0
 11
199.278571
 21
117.306584
 31
0.0
  0
ARC
  5
124
330
A
100
AcDbEntity
  8
Hawa6
 62
     3
100
AcDbCircle
 10
195.178571
 20
114.806584
 30
0.0
 40
2.5
100
AcDbArc
 50
90.0
 51
180.0
  0
LINE
  5
125
330
A
100
AcDbEntity
  8
Hawa6
 62
     3
 48
0.1625
100
AcDbLine
 10
192.678571
 20
114.806584
 30
0.0
 11
192.678571
 21
108.306584
 31
0.0
  0
LINE
  5
126
330
A
100
AcDbEntity
  8
Hawa6
 62
     3
 48
0.05
100
AcDbLine
 10
190.678571
 20
108.306584
 30
0.0
 11
192.678571
 21
108.306584
 31
0.0
  0
ARC
  5
127
330
A
100
AcDbEntity
  8
Hawa6
 62
     3
100
AcDbCircle
 10
190.678571
 20
109.306584
 30
0.0
 40
1.0
100
AcDbArc
 50
180.0
 51
270.0
  0
LINE
  5
128
330
A
100
AcDbEntity
  8
Hawa6
 62
     3
 48
0.2
100
AcDbLine
 10
189.678571
 20
109.306584
 30
0.0
 11
189.678571
 21
117.306584
 31
0.0
  0
LINE
  5
129
330
A
100
AcDbEntity
  8
Hawa6
 62
     3
 48
0.08
100
AcDbLine
 10
186.4785709999999
 20
117.306584
 30
0.0
 11
189.678571
 21
117.306584
 31
0.0
  0
LINE
  5
12A
330
A
100
AcDbEntity
  8
Hawa6
 62
     3
 48
0.125
100
AcDbLine
 10
186.4785709999999
 20
117.306584
 30
0.0
 11
186.4785709999999
 21
112.306584
 31
0.0
  0
ARC
  5
12B
330
A
100
AcDbEntity
  8
Hawa6
 62
     3
100
AcDbCircle
 10
186.4785709999999
 20
113.806584
 30
0.0
 40
1.5
100
AcDbArc
 50
189.3331619999999
 51
270.0
  0
LINE
  5
12C
330
A
100
AcDbEntity
  8
Hawa6
 62
     3
 48
0.106888
100
AcDbLine
 10
184.305047
 20
117.782234
 30
0.0
 11
184.998428
 21
113.563322
 31
0.0
  0
ARC
  5
12D
330
A
100
AcDbEntity
  8
Hawa6
 62
     3
100
AcDbCircle
 10
186.278571
 20
118.106584
 30
0.0
 40
2.0
100
AcDbArc
 50
90.0
 51
189.3331619999997
  0
LINE
  5
12E
330
A
100
AcDbEntity
  8
Hawa6
 62
     3
 48
0.475
100
AcDbLine
 10
205.278571
 20
120.106584
 30
0.0
 11
186.278571
 21
120.106584
 31
0.0
  0
LINE
  5
12F
330
A
100
AcDbEntity
  8
Hawa6
 62
     3
 48
0.07
100
AcDbLine
 10
205.278571
 20
120.106584
 30
0.0
 11
205.278571
 21
117.306584
 31
0.0
  0
LINE
  5
130
330
A
100
AcDbEntity
  8
Hawa6
 62
     3
 48
0.005
100
AcDbLine
 10
205.078571
 20
117.306584
 30
0.0
 11
205.278571
 21
117.306584
 31
0.0
  0
ARC
  5
131
330
A
100
AcDbEntity
  8
Hawa6
 62
     3
100
AcDbCircle
 10
205.078571
 20
117.006584
 30
0.0
 40
0.3
100
AcDbArc
 50
90.0
 51
180.0
  0
LINE
  5
132
330
A
100
AcDbEntity
  8
Hawa6
 62
     3
 48
0.270096
100
AcDbLine
 10
197.678571
 20
95.904661
 30
0.0
 11
197.678571
 21
106.708508
 31
0.0
  0
ARC
  5
133
330
A
100
AcDbEntity
  8
Hawa6
 62
     3
100
AcDbCircle
 10
196.678571
 20
95.904661
 30
0.0
 40
1.0
100
AcDbArc
 50
299.9999999999997
 51
0.0
  0
LINE
  5
134
330
A
100
AcDbEntity
  8
Hawa6
 62
     3
 48
0.108253
100
AcDbLine
 10
197.178571
 20
95.03863499999999
 30
0.0
 11
193.428571
 21
92.873572
 31
0.0
  0
ARC
  5
135
330
A
100
AcDbEntity
  8
Hawa6
 62
     3
100
AcDbCircle
 10
193.178571
 20
93.30658400000002
 30
0.0
 40
0.5
100
AcDbArc
 50
180.0
 51
300.0000000000005
  0
LINE
  5
136
330
A
100
AcDbEntity
  8
Hawa6
 62
     3
 48
0.025
100
AcDbLine
 10
192.678571
 20
93.30658400000002
 30
0.0
 11
192.678571
 21
94.30658400000002
 31
0.0
  0
LINE
  5
137
330
A
100
AcDbEntity
  8
Hawa6
 62
     3
 48
0.088604
100
AcDbLine
 10
192.678571
 20
94.30658400000002
 30
0.0
 11
189.134423
 21
94.30658400000002
 31
0.0
  0
ARC
  5
138
330
A
100
AcDbEntity
  8
Hawa6
 62
     3
100
AcDbCircle
 10
189.134423
 20
93.30658400000002
 30
0.0
 40
1.0
100
AcDbArc
 50
90.0
 51
195.8958099999994
  0
ARC
  5
139
330
A
100
AcDbEntity
  8
Hawa6
 62
     3
100
AcDbCircle
 10
180.478571
 20
90.84158399999999
 30
0.0
 40
8.0
100
AcDbArc
 50
3.332195000000149
 51
15.89581000000013
  0
LINE
  5
13A
330
A
100
AcDbEntity
  8
Hawa6
 62
     3
 48
0.017838
100
AcDbLine
 10
188.465046
 20
91.30658399999999
 30
0.0
 11
189.178571
 21
91.30658399999999
 31
0.0
  0
ARC
  5
13B
330
A
100
AcDbEntity
  8
Hawa6
 62
     3
100
AcDbCircle
 10
189.178571
 20
90.80658400000002
 30
0.0
 40
0.5
100
AcDbArc
 50
0.0
 51
90.0
  0
LINE
  5
13C
330
A
100
AcDbEntity
  8
Hawa6
 62
     3
 48
0.033935
100
AcDbLine
 10
189.678571
 20
90.80658400000002
 30
0.0
 11
189.678571
 21
89.44916700000002
 31
0.0
  0
ARC
  5
13D
330
A
100
AcDbEntity
  8
Hawa6
 62
     3
100
AcDbCircle
 10
186.4785709999999
 20
91.30658399999999
 30
0.0
 40
3.7
100
AcDbArc
 50
278.9892989999994
 51
329.8672780000003
  0
ARC
  5
13E
330
A
100
AcDbEntity
  8
Hawa6
 62
     3
100
AcDbCircle
 10
186.978571
 20
88.14588800000001
 30
0.0
 40
0.5
100
AcDbArc
 50
180.0
 51
278.9892990000055
  0
LINE
  5
13F
330
A
100
AcDbEntity
  8
Hawa6
 62
     3
 48
0.079017
100
AcDbLine
 10
186.4785709999999
 20
88.14588800000001
 30
0.0
 11
186.4785709999999
 21
91.30658399999999
 31
0.0
  0
ARC
  5
140
330
A
100
AcDbEntity
  8
Hawa6
 62
     3
100
AcDbCircle
 10
180.478571
 20
90.84158399999999
 30
0.0
 40
6.017991999999998
100
AcDbArc
 50
4.431564999999861
 51
23.9328090000001
  0
ARC
  5
141
330
A
100
AcDbEntity
  8
Hawa6
 62
     3
100
AcDbCircle
 10
204.0577249999999
 20
101.306584
 30
0.0
 40
19.779154
100
AcDbArc
 50
156.067191
 51
203.932809
  0
ARC
  5
142
330
A
100
AcDbEntity
  8
Hawa6
 62
     3
100
AcDbCircle
 10
180.478571
 20
111.771584
 30
0.0
 40
6.017991999999998
100
AcDbArc
 50
336.0671909999999
 51
355.5684350000001
  0
LINE
  5
143
330
A
100
AcDbEntity
  8
Hawa6
 62
     3
 48
0.079017
100
AcDbLine
 10
186.4785709999999
 20
111.306584
 30
0.0
 11
186.4785709999999
 21
114.467281
 31
0.0
  0
ARC
  5
144
330
A
100
AcDbEntity
  8
Hawa6
 62
     3
100
AcDbCircle
 10
186.978571
 20
114.467281
 30
0.0
 40
0.5
100
AcDbArc
 50
81.0107009999945
 51
180.0
  0
ARC
  5
145
330
A
100
AcDbEntity
  8
Hawa6
 62
     3
100
AcDbCircle
 10
186.4785709999999
 20
111.306584
 30
0.0
 40
3.7
100
AcDbArc
 50
30.13272199999972
 51
81.01070100000065
  0
LINE
  5
146
330
A
100
AcDbEntity
  8
Hawa6
 62
     3
 48
0.033935
100
AcDbLine
 10
189.678571
 20
113.164002
 30
0.0
 11
189.678571
 21
111.806584
 31
0.0
  0
ARC
  5
147
330
A
100
AcDbEntity
  8
Hawa6
 62
     3
100
AcDbCircle
 10
189.178571
 20
111.806584
 30
0.0
 40
0.5
100
AcDbArc
 50
270.0
 51
0.0
  0
LINE
  5
148
330
A
100
AcDbEntity
  8
Hawa6
 62
     3
 48
0.017838
100
AcDbLine
 10
188.465046
 20
111.306584
 30
0.0
 11
189.178571
 21
111.306584
 31
0.0
  0
ARC
  5
149
330
A
100
AcDbEntity
  8
Hawa6
 62
     3
100
AcDbCircle
 10
180.478571
 20
111.771584
 30
0.0
 40
8.0
100
AcDbArc
 50
344.1041899999998
 51
356.6678049999999
  0
ARC
  5
14A
330
A
100
AcDbEntity
  8
Hawa6
 62
     3
100
AcDbCircle
 10
189.134423
 20
109.306584
 30
0.0
 40
1.0
100
AcDbArc
 50
164.1041900000006
 51
270.0
  0
LINE
  5
14B
330
A
100
AcDbEntity
  8
Hawa6
 62
     3
 48
0.088604
100
AcDbLine
 10
192.678571
 20
108.306584
 30
0.0
 11
189.134423
 21
108.306584
 31
0.0
  0
LINE
  5
14C
330
A
100
AcDbEntity
  8
Hawa6
 62
     3
 48
0.025
100
AcDbLine
 10
192.678571
 20
108.306584
 30
0.0
 11
192.678571
 21
109.306584
 31
0.0
  0
ARC
  5
14D
330
A
100
AcDbEntity
  8
Hawa6
 62
     3
100
AcDbCircle
 10
193.178571
 20
109.306584
 30
0.0
 40
0.5
100
AcDbArc
 50
59.99999999999944
 51
180.0
  0
LINE
  5
14E
330
A
100
AcDbEntity
  8
Hawa6
 62
     3
 48
0.108253
100
AcDbLine
 10
197.178571
 20
107.574534
 30
0.0
 11
193.428571
 21
109.739597
 31
0.0
  0
ARC
  5
14F
330
A
100
AcDbEntity
  8
Hawa6
 62
     3
100
AcDbCircle
 10
196.678571
 20
106.708508
 30
0.0
 40
1.0
100
AcDbArc
 50
0.0
 51
60.00000000000028
  0
ARC
  5
150
330
A
100
AcDbEntity
  8
Hawa6
 62
     3
100
AcDbCircle
 10
195.678571
 20
105.306584
 30
0.0
 40
1.0
100
AcDbArc
 50
0.0
 51
90.0
  0
LINE
  5
151
330
A
100
AcDbEntity
  8
Hawa6
 62
     3
 48
0.185
100
AcDbLine
 10
195.678571
 20
106.306584
 30
0.0
 11
188.278571
 21
106.306584
 31
0.0
  0
ARC
  5
152
330
A
100
AcDbEntity
  8
Hawa6
 62
     3
100
AcDbCircle
 10
188.278571
 20
105.306584
 30
0.0
 40
1.0
100
AcDbArc
 50
90.0
 51
180.0
  0
LINE
  5
153
330
A
100
AcDbEntity
  8
Hawa6
 62
     3
 48
0.2
100
AcDbLine
 10
187.278571
 20
97.30658400000002
 30
0.0
 11
187.278571
 21
105.306584
 31
0.0
  0
ARC
  5
154
330
A
100
AcDbEntity
  8
Hawa6
 62
     3
100
AcDbCircle
 10
188.278571
 20
97.30658400000002
 30
0.0
 40
1.0
100
AcDbArc
 50
180.0
 51
270.0
  0
LINE
  5
155
330
A
100
AcDbEntity
  8
Hawa6
 62
     3
 48
0.185
100
AcDbLine
 10
188.278571
 20
96.30658400000001
 30
0.0
 11
195.678571
 21
96.30658400000001
 31
0.0
  0
ARC
  5
156
330
A
100
AcDbEntity
  8
Hawa6
 62
     3
100
AcDbCircle
 10
195.678571
 20
97.30658400000002
 30
0.0
 40
1.0
100
AcDbArc
 50
270.0
 51
0.0
  0
LINE
  5
157
330
A
100
AcDbEntity
  8
Hawa6
 62
     3
 48
0.2
100
AcDbLine
 10
196.678571
 20
105.306584
 30
0.0
 11
196.678571
 21
97.30658400000002
 31
0.0
  0
VIEWPORT
  5
2C
102
{ACAD_XDICTIONARY
360
431
102
}
330
B
100
AcDbEntity
 67
     1
  8
0
 62
     0
100
AcDbViewport
 10
0.0
 20
0.0
 30
0.0
 40
1000.0
 41
1000.0
 68
     1
 69
     1
 12
0.0
 22
0.0
 13
0.0
 23
0.0
 14
1.0
 24
1.0
 15
1.0
 25
1.0
 16
0.0
 26
0.0
 36
1.0
 17
0.0
 27
0.0
 37
0.0
 42
50.0
 43
0.0
 44
0.0
 45
1000.0
 50
0.0
 51
0.0
 72
   100
 90
   557216
  1

281
     0
 71
     1
 74
     0
110
0.0
120
0.0
130
0.0
111
1.0
121
0.0
131
0.0
112
0.0
122
1.0
132
0.0
 79
     0
146
0.0
  0
ENDSEC
  0
SECTION
  2
OBJECTS
  0
DICTIONARY
  5
19
330
0
100
AcDbDictionary
281
     1
  3
ACAD_COLOR
350
17D
  3
ACAD_GROUP
350
1A
  3
ACAD_LAYOUT
350
D3
  3
ACAD_MATERIAL
350
168
  3
ACAD_MLEADERSTYLE
350
15F
  3
ACAD_MLINESTYLE
350
1B
  3
ACAD_PLOTSETTINGS
350
180
  3
ACAD_PLOTSTYLENAME
350
166
  3
ACAD_SCALELIST
350
D6
  3
ACAD_TABLESTYLE
350
17E
  3
ACAD_VISUALSTYLE
350
16C
  3
AcDbVariableDictionary
350
15D
  3
DWGPROPS
350
430
  0
DICTIONARY
  5
431
330
2C
100
AcDbDictionary
280
     1
281
     1
  3
ACAD_XREC_ROUNDTRIP
360
432
  0
DICTIONARY
  5
17D
102
{ACAD_REACTORS
330
19
102
}
330
19
100
AcDbDictionary
281
     1
  0
DICTIONARY
  5
1A
102
{ACAD_REACTORS
330
19
102
}
330
19
100
AcDbDictionary
281
     1
  0
DICTIONARY
  5
D3
102
{ACAD_REACTORS
330
19
102
}
330
19
100
AcDbDictionary
281
     1
  3
Layout1
350
D5
  3
Model
350
D4
  0
DICTIONARY
  5
168
102
{ACAD_REACTORS
330
19
102
}
330
19
100
AcDbDictionary
281
     1
  3
ByBlock
350
16A
  3
ByLayer
350
169
  3
Global
350
16B
  0
DICTIONARY
  5
15F
102
{ACAD_REACTORS
330
19
102
}
330
19
100
AcDbDictionary
281
     1
  0
DICTIONARY
  5
1B
102
{ACAD_REACTORS
330
19
102
}
330
19
100
AcDbDictionary
281
     1
  3
STANDARD
350
1C
  0
DICTIONARY
  5
180
102
{ACAD_REACTORS
330
19
102
}
330
19
100
AcDbDictionary
281
     1
  0
ACDBDICTIONARYWDFLT
  5
166
102
{ACAD_REACTORS
330
19
102
}
330
19
100
AcDbDictionary
281
     1
  3
Normal
350
167
100
AcDbDictionaryWithDefault
340
167
  0
DICTIONARY
  5
D6
102
{ACAD_REACTORS
330
19
102
}
330
19
100
AcDbDictionary
281
     1
  3
A0
350
D7
  3
A1
350
D8
  3
A2
350
D9
  3
A3
350
DA
  3
A4
350
DB
  3
A5
350
DC
  3
A6
350
DD
  3
A7
350
DE
  3
A8
350
DF
  3
A9
350
E0
  3
B0
350
E1
  3
B1
350
E2
  3
B2
350
E3
  3
B3
350
E4
  3
B4
350
E5
  3
B5
350
E6
  3
B6
350
E7
  3
B7
350
E8
  3
B8
350
E9
  3
B9
350
EA
  3
C0
350
EB
  3
C1
350
EC
  3
C2
350
ED
  3
C3
350
EE
  3
C4
350
EF
  3
C5
350
F0
  3
C6
350
F1
  3
C7
350
F2
  3
C8
350
F3
  3
C9
350
F4
  3
D0
350
F5
  3
D1
350
F6
  3
D2
350
F7
  0
DICTIONARY
  5
17E
102
{ACAD_REACTORS
330
19
102
}
330
19
100
AcDbDictionary
281
     1
  3
Standard
350
17F
  0
DICTIONARY
  5
16C
102
{ACAD_REACTORS
330
19
102
}
330
19
100
AcDbDictionary
281
     1
  3
2dWireframe
350
172
  3
3D Hidden
350
174
  3
3dWireframe
350
173
  3
Basic
350
171
  3
Brighten
350
178
  3
ColorChange
350
17C
  3
Conceptual
350
175
  3
Dim
350
177
  3
Facepattern
350
17B
  3
Flat
350
16D
  3
FlatWithEdges
350
16E
  3
Gouraud
350
16F
  3
GouraudWithEdges
350
170
  3
Linepattern
350
17A
  3
Realistic
350
176
  3
Thicken
350
179
  0
DICTIONARY
  5
15D
102
{ACAD_REACTORS
330
19
102
}
330
19
100
AcDbDictionary
281
     1
  3
CANNOSCALE
350
160
  3
CTABLESTYLE
350
261
  3
DIMASSOC
350
364
  3
INDEXCTL
350
363
  3
SORTENTS
350
362
  0
XRECORD
  5
430
102
{ACAD_REACTORS
330
19
102
}
330
19
100
AcDbXrecord
280
     1
  1
DWGPROPS COOKIE
  2

  3

  4

  6

  7

  8
buet
  9

300
=
301
=
302
=
303
=
304
=
305
=
306
=
307
=
308
=
309
=
 40
0.0159487384259259
 41
2447893.0
 42
2456596.419459699
  1

 90
        0
  0
XRECORD
  5
432
102
{ACAD_REACTORS
330
431
102
}
330
431
100
AcDbXrecord
280
     1
102
SHADEPLOT
 70
     0
  0
LAYOUT
  5
D5
102
{ACAD_XDICTIONARY
360
435
102
}
102
{ACAD_REACTORS
330
D3
102
}
330
D3
100
AcDbPlotSettings
  1

  2
none_device
  4

  6

 40
0.0
 41
0.0
 42
0.0
 43
0.0
 44
0.0
 45
0.0
 46
0.0
 47
0.0
 48
0.0
 49
0.0
140
0.0
141
0.0
142
1.0
143
1.0
 70
   688
 72
     0
 73
     0
 74
     5
  7

 75
    16
147
1.0
148
0.0
149
0.0
100
AcDbLayout
  1
Layout1
 70
     1
 71
     1
 10
0.0
 20
0.0
 11
420.0
 21
297.0
 12
0.0
 22
0.0
 32
0.0
 14
0.0
 24
0.0
 34
0.0
 15
611.7115479999998
 25
176.750076
 35
2.0
146
0.0
 13
0.0
 23
0.0
 33
0.0
 16
1.0
 26
0.0
 36
0.0
 17
0.0
 27
1.0
 37
0.0
 76
     0
330
B
331
2C
  0
LAYOUT
  5
D4
102
{ACAD_XDICTIONARY
360
433
102
}
102
{ACAD_REACTORS
330
D3
102
}
330
D3
100
AcDbPlotSettings
  1

  2
none_device
  4

  6

 40
0.0
 41
0.0
 42
0.0
 43
0.0
 44
0.0
 45
0.0
 46
0.0
 47
0.0
 48
0.0
 49
0.0
140
0.0
141
0.0
142
1.0
143
1.0
 70
   688
 72
     0
 73
     0
 74
     5
  7

 75
    16
147
1.0
148
0.0
149
0.0
100
AcDbLayout
  1
Model
 70
     1
 71
     0
 10
0.0
 20
0.0
 11
0.0
 21
0.0
 12
0.0
 22
0.0
 32
0.0
 14
0.0
 24
0.0
 34
0.0
 15
0.0
 25
0.0
 35
0.0
146
0.0
 13
0.0
 23
0.0
 33
0.0
 16
1.0
 26
0.0
 36
0.0
 17
0.0
 27
1.0
 37
0.0
 76
     0
330
A
331
15
  0
MATERIAL
  5
16A
102
{ACAD_XDICTIONARY
360
36E
102
}
102
{ACAD_REACTORS
330
168
102
}
330
168
100
AcDbMaterial
  1
ByBlock
  0
MATERIAL
  5
169
102
{ACAD_XDICTIONARY
360
36C
102
}
102
{ACAD_REACTORS
330
168
102
}
330
168
100
AcDbMaterial
  1
ByLayer
  0
MATERIAL
  5
16B
102
{ACAD_XDICTIONARY
360
370
102
}
102
{ACAD_REACTORS
330
168
102
}
330
168
100
AcDbMaterial
  1
Global
  0
MLINESTYLE
  5
1C
102
{ACAD_REACTORS
330
1B
102
}
330
1B
100
AcDbMlineStyle
  2
STANDARD
 70
     0
  3

 62
     0
 51
90.0
 52
90.0
 71
     2
 49
0.5
 62
   256
  6
BYLAYER
 49
-0.5
 62
   256
  6
BYLAYER
  0
ACDBPLACEHOLDER
  5
167
102
{ACAD_REACTORS
330
166
102
}
330
166
  0
SCALE
  5
D7
102
{ACAD_REACTORS
330
D6
102
}
330
D6
100
AcDbScale
 70
     0
300
1:1
140
1.0
141
1.0
290
     1
1001
ACAD
1001
ACAD
1000
AcRTDxfName
1000
SCALE
  0
SCALE
  5
D8
102
{ACAD_REACTORS
330
D6
102
}
330
D6
100
AcDbScale
 70
     0
300
1:2
140
1.0
141
2.0
290
     0
1001
ACAD
1001
ACAD
1000
AcRTDxfName
1000
SCALE
  0
SCALE
  5
D9
102
{ACAD_REACTORS
330
D6
102
}
330
D6
100
AcDbScale
 70
     0
300
1:4
140
1.0
141
4.0
290
     0
1001
ACAD
1001
ACAD
1000
AcRTDxfName
1000
SCALE
  0
SCALE
  5
DA
102
{ACAD_REACTORS
330
D6
102
}
330
D6
100
AcDbScale
 70
     0
300
1:5
140
1.0
141
5.0
290
     0
1001
ACAD
1001
ACAD
1000
AcRTDxfName
1000
SCALE
  0
SCALE
  5
DB
102
{ACAD_REACTORS
330
D6
102
}
330
D6
100
AcDbScale
 70
     0
300
1:8
140
1.0
141
8.0
290
     0
1001
ACAD
1001
ACAD
1000
AcRTDxfName
1000
SCALE
  0
SCALE
  5
DC
102
{ACAD_REACTORS
330
D6
102
}
330
D6
100
AcDbScale
 70
     0
300
1:10
140
1.0
141
10.0
290
     0
1001
ACAD
1001
ACAD
1000
AcRTDxfName
1000
SCALE
  0
SCALE
  5
DD
102
{ACAD_REACTORS
330
D6
102
}
330
D6
100
AcDbScale
 70
     0
300
1:16
140
1.0
141
16.0
290
     0
1001
ACAD
1001
ACAD
1000
AcRTDxfName
1000
SCALE
  0
SCALE
  5
DE
102
{ACAD_REACTORS
330
D6
102
}
330
D6
100
AcDbScale
 70
     0
300
1:20
140
1.0
141
20.0
290
     0
1001
ACAD
1001
ACAD
1000
AcRTDxfName
1000
SCALE
  0
SCALE
  5
DF
102
{ACAD_REACTORS
330
D6
102
}
330
D6
100
AcDbScale
 70
     0
300
1:30
140
1.0
141
30.0
290
     0
1001
ACAD
1001
ACAD
1000
AcRTDxfName
1000
SCALE
  0
SCALE
  5
E0
102
{ACAD_REACTORS
330
D6
102
}
330
D6
100
AcDbScale
 70
     0
300
1:40
140
1.0
141
40.0
290
     0
1001
ACAD
1001
ACAD
1000
AcRTDxfName
1000
SCALE
  0
SCALE
  5
E1
102
{ACAD_REACTORS
330
D6
102
}
330
D6
100
AcDbScale
 70
     0
300
1:50
140
1.0
141
50.0
290
     0
1001
ACAD
1001
ACAD
1000
AcRTDxfName
1000
SCALE
  0
SCALE
  5
E2
102
{ACAD_REACTORS
330
D6
102
}
330
D6
100
AcDbScale
 70
     0
300
1:100
140
1.0
141
100.0
290
     0
1001
ACAD
1001
ACAD
1000
AcRTDxfName
1000
SCALE
  0
SCALE
  5
E3
102
{ACAD_REACTORS
330
D6
102
}
330
D6
100
AcDbScale
 70
     0
300
2:1
140
2.0
141
1.0
290
     0
1001
ACAD
1001
ACAD
1000
AcRTDxfName
1000
SCALE
  0
SCALE
  5
E4
102
{ACAD_REACTORS
330
D6
102
}
330
D6
100
AcDbScale
 70
     0
300
4:1
140
4.0
141
1.0
290
     0
1001
ACAD
1001
ACAD
1000
AcRTDxfName
1000
SCALE
  0
SCALE
  5
E5
102
{ACAD_REACTORS
330
D6
102
}
330
D6
100
AcDbScale
 70
     0
300
8:1
140
8.0
141
1.0
290
     0
1001
ACAD
1001
ACAD
1000
AcRTDxfName
1000
SCALE
  0
SCALE
  5
E6
102
{ACAD_REACTORS
330
D6
102
}
330
D6
100
AcDbScale
 70
     0
300
10:1
140
10.0
141
1.0
290
     0
1001
ACAD
1001
ACAD
1000
AcRTDxfName
1000
SCALE
  0
SCALE
  5
E7
102
{ACAD_REACTORS
330
D6
102
}
330
D6
100
AcDbScale
 70
     0
300
100:1
140
100.0
141
1.0
290
     0
1001
ACAD
1001
ACAD
1000
AcRTDxfName
1000
SCALE
  0
SCALE
  5
E8
102
{ACAD_REACTORS
330
D6
102
}
330
D6
100
AcDbScale
 70
     0
300
1/128" = 1'-0"
140
0.0078125
141
12.0
290
     0
1001
ACAD
1001
ACAD
1000
AcRTDxfName
1000
SCALE
  0
SCALE
  5
E9
102
{ACAD_REACTORS
330
D6
102
}
330
D6
100
AcDbScale
 70
     0
300
1/64" = 1'-0"
140
0.015625
141
12.0
290
     0
1001
ACAD
1001
ACAD
1000
AcRTDxfName
1000
SCALE
  0
SCALE
  5
EA
102
{ACAD_REACTORS
330
D6
102
}
330
D6
100
AcDbScale
 70
     0
300
1/32" = 1'-0"
140
0.03125
141
12.0
290
     0
1001
ACAD
1001
ACAD
1000
AcRTDxfName
1000
SCALE
  0
SCALE
  5
EB
102
{ACAD_REACTORS
330
D6
102
}
330
D6
100
AcDbScale
 70
     0
300
1/16" = 1'-0"
140
0.0625
141
12.0
290
     0
1001
ACAD
1001
ACAD
1000
AcRTDxfName
1000
SCALE
  0
SCALE
  5
EC
102
{ACAD_REACTORS
330
D6
102
}
330
D6
100
AcDbScale
 70
     0
300
3/32" = 1'-0"
140
0.09375
141
12.0
290
     0
1001
ACAD
1001
ACAD
1000
AcRTDxfName
1000
SCALE
  0
SCALE
  5
ED
102
{ACAD_REACTORS
330
D6
102
}
330
D6
100
AcDbScale
 70
     0
300
1/8" = 1'-0"
140
0.125
141
12.0
290
     0
1001
ACAD
1001
ACAD
1000
AcRTDxfName
1000
SCALE
  0
SCALE
  5
EE
102
{ACAD_REACTORS
330
D6
102
}
330
D6
100
AcDbScale
 70
     0
300
3/16" = 1'-0"
140
0.1875
141
12.0
290
     0
1001
ACAD
1001
ACAD
1000
AcRTDxfName
1000
SCALE
  0
SCALE
  5
EF
102
{ACAD_REACTORS
330
D6
102
}
330
D6
100
AcDbScale
 70
     0
300
1/4" = 1'-0"
140
0.25
141
12.0
290
     0
1001
ACAD
1001
ACAD
1000
AcRTDxfName
1000
SCALE
  0
SCALE
  5
F0
102
{ACAD_REACTORS
330
D6
102
}
330
D6
100
AcDbScale
 70
     0
300
3/8" = 1'-0"
140
0.375
141
12.0
290
     0
1001
ACAD
1001
ACAD
1000
AcRTDxfName
1000
SCALE
  0
SCALE
  5
F1
102
{ACAD_REACTORS
330
D6
102
}
330
D6
100
AcDbScale
 70
     0
300
1/2" = 1'-0"
140
0.5
141
12.0
290
     0
1001
ACAD
1001
ACAD
1000
AcRTDxfName
1000
SCALE
  0
SCALE
  5
F2
102
{ACAD_REACTORS
330
D6
102
}
330
D6
100
AcDbScale
 70
     0
300
3/4" = 1'-0"
140
0.75
141
12.0
290
     0
1001
ACAD
1001
ACAD
1000
AcRTDxfName
1000
SCALE
  0
SCALE
  5
F3
102
{ACAD_REACTORS
330
D6
102
}
330
D6
100
AcDbScale
 70
     0
300
1" = 1'-0"
140
1.0
141
12.0
290
     0
1001
ACAD
1001
ACAD
1000
AcRTDxfName
1000
SCALE
  0
SCALE
  5
F4
102
{ACAD_REACTORS
330
D6
102
}
330
D6
100
AcDbScale
 70
     0
300
1-1/2" = 1'-0"
140
1.5
141
12.0
290
     0
1001
ACAD
1001
ACAD
1000
AcRTDxfName
1000
SCALE
  0
SCALE
  5
F5
102
{ACAD_REACTORS
330
D6
102
}
330
D6
100
AcDbScale
 70
     0
300
3" = 1'-0"
140
3.0
141
12.0
290
     0
1001
ACAD
1001
ACAD
1000
AcRTDxfName
1000
SCALE
  0
SCALE
  5
F6
102
{ACAD_REACTORS
330
D6
102
}
330
D6
100
AcDbScale
 70
     0
300
6" = 1'-0"
140
6.0
141
12.0
290
     0
1001
ACAD
1001
ACAD
1000
AcRTDxfName
1000
SCALE
  0
SCALE
  5
F7
102
{ACAD_REACTORS
330
D6
102
}
330
D6
100
AcDbScale
 70
     0
300
1'-0" = 1'-0"
140
12.0
141
12.0
290
     0
1001
ACAD
1001
ACAD
1000
AcRTDxfName
1000
SCALE
  0
TABLESTYLE
  5
17F
102
{ACAD_XDICTIONARY
360
437
102
}
102
{ACAD_REACTORS
330
17E
102
}
330
17E
100
AcDbTableStyle
  3
Standard
 70
     0
 71
     0
 40
1.5
 41
1.5
280
     0
281
     0
  7
STANDARD
140
4.5
170
     2
 62
     0
 63
     7
283
     0
274
    -2
284
     1
 64
     0
275
    -2
285
     1
 65
     0
276
    -2
286
     1
 66
     0
277
    -2
287
     1
 67
     0
278
    -2
288
     1
 68
     0
279
    -2
289
     1
 69
     0
  7
STANDARD
140
6.0
170
     5
 62
     0
 63
     7
283
     0
274
    -2
284
     1
 64
     0
275
    -2
285
     1
 65
     0
276
    -2
286
     1
 66
     0
277
    -2
287
     1
 67
     0
278
    -2
288
     1
 68
     0
279
    -2
289
     1
 69
     0
  7
STANDARD
140
4.5
170
     5
 62
     0
 63
     7
283
     0
274
    -2
284
     1
 64
     0
275
    -2
285
     1
 65
     0
276
    -2
286
     1
 66
     0
277
    -2
287
     1
 67
     0
278
    -2
288
     1
 68
     0
279
    -2
289
     1
 69
     0
  0
VISUALSTYLE
  5
172
102
{ACAD_REACTORS
330
16C
102
}
330
16C
100
AcDbVisualStyle
  2
2dWireframe
 70
     4
 71
     0
 72
     2
 73
     0
 90
        0
 40
-0.6
 41
-30.0
 62
     5
 63
     7
 74
     1
 91
        4
 64
     7
 65
   257
 75
     1
175
     1
 42
1.0
 92
        0
 66
   257
 43
1.0
 76
     1
 77
     6
 78
     2
 67
     7
 79
     5
170
     0
171
     0
290
     0
174
     0
 93
        1
 44
0.0
173
     0
291
     0
 45
0.0
1001
ACAD
1000
AcDbSavedByObjectVersion
1070
     0
1000
AcDbSavedByObjectVersion
1070
     0
  0
VISUALSTYLE
  5
174
102
{ACAD_REACTORS
330
16C
102
}
330
16C
100
AcDbVisualStyle
  2
3D Hidden
 70
     6
 71
     1
 72
     2
 73
     2
 90
        0
 40
-0.6
 41
-30.0
 62
     5
 63
     7
 74
     2
 91
        2
 64
     7
 65
   257
 75
     2
175
     1
 42
40.0
 92
        0
 66
   257
 43
1.0
 76
     1
 77
     6
 78
     2
 67
     7
 79
     3
170
     0
171
     0
290
     0
174
     0
 93
        1
 44
0.0
173
     0
291
     0
 45
0.0
1001
ACAD
1000
AcDbSavedByObjectVersion
1070
     0
1000
AcDbSavedByObjectVersion
1070
     0
  0
VISUALSTYLE
  5
173
102
{ACAD_REACTORS
330
16C
102
}
330
16C
100
AcDbVisualStyle
  2
3dWireframe
 70
     5
 71
     0
 72
     2
 73
     0
 90
        0
 40
-0.6
 41
-30.0
 62
     5
 63
     7
 74
     1
 91
        4
 64
     7
 65
   257
 75
     1
175
     1
 42
1.0
 92
        0
 66
   257
 43
1.0
 76
     1
 77
     6
 78
     2
 67
     7
 79
     5
170
     0
171
     0
290
     0
174
     0
 93
        1
 44
0.0
173
     0
291
     0
 45
0.0
1001
ACAD
1000
AcDbSavedByObjectVersion
1070
     0
1000
AcDbSavedByObjectVersion
1070
     0
  0
VISUALSTYLE
  5
171
102
{ACAD_REACTORS
330
16C
102
}
330
16C
100
AcDbVisualStyle
  2
Basic
 70
     7
 71
     1
 72
     0
 73
     1
 90
        0
 40
-0.6
 41
-30.0
 62
     5
 63
     7
 74
     0
 91
        4
 64
     7
 65
   257
 75
     1
175
     1
 42
1.0
 92
        8
 66
     7
 43
1.0
 76
     1
 77
     6
 78
     2
 67
     7
 79
     5
170
     0
171
     0
290
     0
174
     0
 93
        1
 44
0.0
173
     0
291
     1
 45
0.0
1001
ACAD
1000
AcDbSavedByObjectVersion
1070
     0
1000
AcDbSavedByObjectVersion
1070
     0
  0
VISUALSTYLE
  5
178
102
{ACAD_REACTORS
330
16C
102
}
330
16C
100
AcDbVisualStyle
  2
Brighten
 70
    12
 71
     2
 72
     2
 73
     0
 90
        0
 40
-0.6
 41
-30.0
 62
     5
 63
     7
 74
     1
 91
        4
 64
     7
 65
   257
 75
     1
175
     1
 42
1.0
 92
        8
 66
     7
 43
1.0
 76
     1
 77
     6
 78
     2
 67
     7
 79
     5
170
     0
171
     0
290
     0
174
     0
 93
        1
 44
50.0
173
     0
291
     1
 45
0.0
1001
ACAD
1000
AcDbSavedByObjectVersion
1070
     0
1000
AcDbSavedByObjectVersion
1070
     0
  0
VISUALSTYLE
  5
17C
102
{ACAD_REACTORS
330
16C
102
}
330
16C
100
AcDbVisualStyle
  2
ColorChange
 70
    16
 71
     2
 72
     2
 73
     3
 90
        0
 40
-0.6
 41
-30.0
 62
     5
 63
     8
 74
     1
 91
        4
 64
     7
 65
   257
 75
     1
175
     1
 42
1.0
 92
        8
 66
     8
 43
1.0
 76
     1
 77
     6
 78
     2
 67
     7
 79
     5
170
     0
171
     0
290
     0
174
     0
 93
        1
 44
0.0
173
     0
291
     1
 45
0.0
1001
ACAD
1000
AcDbSavedByObjectVersion
1070
     0
1000
AcDbSavedByObjectVersion
1070
     0
  0
VISUALSTYLE
  5
175
102
{ACAD_REACTORS
330
16C
102
}
330
16C
100
AcDbVisualStyle
  2
Conceptual
 70
     9
 71
     3
 72
     2
 73
     0
 90
        0
 40
-0.6
 41
-30.0
 62
     5
 63
     7
 74
     2
 91
        2
 64
     7
 65
   257
 75
     1
175
     1
 42
40.0
 92
        8
 66
     7
 43
1.0
 76
     1
 77
     6
 78
     2
 67
     7
 79
     3
170
     0
171
     0
290
     0
174
     0
 93
        1
 44
0.0
173
     0
291
     0
 45
0.0
1001
ACAD
1000
AcDbSavedByObjectVersion
1070
     0
1000
AcDbSavedByObjectVersion
1070
     0
  0
VISUALSTYLE
  5
177
102
{ACAD_REACTORS
330
16C
102
}
330
16C
100
AcDbVisualStyle
  2
Dim
 70
    11
 71
     2
 72
     2
 73
     0
 90
        0
 40
-0.6
 41
-30.0
 62
     5
 63
     7
 74
     1
 91
        4
 64
     7
 65
   257
 75
     1
175
     1
 42
1.0
 92
        8
 66
     7
 43
1.0
 76
     1
 77
     6
 78
     2
 67
     7
 79
     5
170
     0
171
     0
290
     0
174
     0
 93
        1
 44
-50.0
173
     0
291
     1
 45
0.0
1001
ACAD
1000
AcDbSavedByObjectVersion
1070
     0
1000
AcDbSavedByObjectVersion
1070
     0
  0
VISUALSTYLE
  5
17B
102
{ACAD_REACTORS
330
16C
102
}
330
16C
100
AcDbVisualStyle
  2
Facepattern
 70
    15
 71
     2
 72
     2
 73
     0
 90
        0
 40
-0.6
 41
-30.0
 62
     5
 63
     7
 74
     1
 91
        4
 64
     7
 65
   257
 75
     1
175
     1
 42
1.0
 92
        8
 66
     7
 43
1.0
 76
     1
 77
     6
 78
     2
 67
     7
 79
     5
170
     0
171
     0
290
     0
174
     0
 93
        1
 44
0.0
173
     0
291
     1
 45
0.0
1001
ACAD
1000
AcDbSavedByObjectVersion
1070
     0
1000
AcDbSavedByObjectVersion
1070
     0
  0
VISUALSTYLE
  5
16D
102
{ACAD_REACTORS
330
16C
102
}
330
16C
100
AcDbVisualStyle
  2
Flat
 70
     0
 71
     2
 72
     1
 73
     1
 90
        2
 40
-0.6
 41
30.0
 62
     5
 63
     7
 74
     0
 91
        4
 64
     7
 65
   257
 75
     1
175
     1
 42
1.0
 92
        8
 66
     7
 43
1.0
 76
     1
 77
     6
 78
     2
 67
     7
 79
     5
170
     0
171
     0
290
     0
174
     0
 93
       13
 44
0.0
173
     0
291
     1
 45
0.0
1001
ACAD
1000
AcDbSavedByObjectVersion
1070
     0
1000
AcDbSavedByObjectVersion
1070
     0
  0
VISUALSTYLE
  5
16E
102
{ACAD_REACTORS
330
16C
102
}
330
16C
100
AcDbVisualStyle
  2
FlatWithEdges
 70
     1
 71
     2
 72
     1
 73
     1
 90
        2
 40
-0.6
 41
30.0
 62
     5
 63
     7
 74
     1
 91
        4
 64
     7
 65
   257
 75
     1
175
     1
 42
1.0
 92
        0
 66
   257
 43
1.0
 76
     1
 77
     6
 78
     2
 67
     7
 79
     5
170
     0
171
     0
290
     0
174
     0
 93
       13
 44
0.0
173
     0
291
     1
 45
0.0
1001
ACAD
1000
AcDbSavedByObjectVersion
1070
     0
1000
AcDbSavedByObjectVersion
1070
     0
  0
VISUALSTYLE
  5
16F
102
{ACAD_REACTORS
330
16C
102
}
330
16C
100
AcDbVisualStyle
  2
Gouraud
 70
     2
 71
     2
 72
     2
 73
     1
 90
        2
 40
-0.6
 41
30.0
 62
     5
 63
     7
 74
     0
 91
        4
 64
     7
 65
   257
 75
     1
175
     1
 42
1.0
 92
        0
 66
     7
 43
1.0
 76
     1
 77
     6
 78
     2
 67
     7
 79
     5
170
     0
171
     0
290
     0
174
     0
 93
       13
 44
0.0
173
     0
291
     1
 45
0.0
1001
ACAD
1000
AcDbSavedByObjectVersion
1070
     0
1000
AcDbSavedByObjectVersion
1070
     0
  0
VISUALSTYLE
  5
170
102
{ACAD_REACTORS
330
16C
102
}
330
16C
100
AcDbVisualStyle
  2
GouraudWithEdges
 70
     3
 71
     2
 72
     2
 73
     1
 90
        2
 40
-0.6
 41
30.0
 62
     5
 63
     7
 74
     1
 91
        4
 64
     7
 65
   257
 75
     1
175
     1
 42
1.0
 92
        0
 66
   257
 43
1.0
 76
     1
 77
     6
 78
     2
 67
     7
 79
     5
170
     0
171
     0
290
     0
174
     0
 93
       13
 44
0.0
173
     0
291
     1
 45
0.0
1001
ACAD
1000
AcDbSavedByObjectVersion
1070
     0
1000
AcDbSavedByObjectVersion
1070
     0
  0
VISUALSTYLE
  5
17A
102
{ACAD_REACTORS
330
16C
102
}
330
16C
100
AcDbVisualStyle
  2
Linepattern
 70
    14
 71
     2
 72
     2
 73
     0
 90
        0
 40
-0.6
 41
-30.0
 62
     5
 63
     7
 74
     1
 91
        4
 64
     7
 65
   257
 75
     7
175
     7
 42
1.0
 92
        8
 66
     7
 43
1.0
 76
     1
 77
     6
 78
     2
 67
     7
 79
     5
170
     0
171
     0
290
     0
174
     0
 93
        1
 44
0.0
173
     0
291
     1
 45
0.0
1001
ACAD
1000
AcDbSavedByObjectVersion
1070
     0
1000
AcDbSavedByObjectVersion
1070
     0
  0
VISUALSTYLE
  5
176
102
{ACAD_REACTORS
330
16C
102
}
330
16C
100
AcDbVisualStyle
  2
Realistic
 70
     8
 71
     2
 72
     2
 73
     0
 90
        0
 40
-0.6
 41
-30.0
 62
     5
 63
     7
 74
     1
 91
        0
 64
     7
 65
   257
 75
     1
175
     1
 42
1.0
 92
        8
 66
     8
 43
1.0
 76
     1
 77
     6
 78
     2
 67
     7
 79
     5
170
     0
171
     0
290
     0
174
     0
 93
       13
 44
0.0
173
     0
291
     0
 45
0.0
1001
ACAD
1000
AcDbSavedByObjectVersion
1070
     0
1000
AcDbSavedByObjectVersion
1070
     0
  0
VISUALSTYLE
  5
179
102
{ACAD_REACTORS
330
16C
102
}
330
16C
100
AcDbVisualStyle
  2
Thicken
 70
    13
 71
     2
 72
     2
 73
     0
 90
        0
 40
-0.6
 41
-30.0
 62
     5
 63
     7
 74
     1
 91
        4
 64
     7
 65
   257
 75
     1
175
     1
 42
1.0
 92
       12
 66
     7
 43
1.0
 76
     1
 77
     6
 78
     2
 67
     7
 79
     5
170
     0
171
     0
290
     0
174
     0
 93
        1
 44
0.0
173
     0
291
     1
 45
0.0
1001
ACAD
1000
AcDbSavedByObjectVersion
1070
     0
1000
AcDbSavedByObjectVersion
1070
     0
  0
DICTIONARYVAR
  5
160
102
{ACAD_REACTORS
330
15D
102
}
330
15D
100
DictionaryVariables
280
     0
  1
1:1
  0
DICTIONARYVAR
  5
261
102
{ACAD_REACTORS
330
15D
102
}
330
15D
100
DictionaryVariables
280
     0
  1
STANDARD
  0
DICTIONARYVAR
  5
364
102
{ACAD_REACTORS
330
15D
102
}
330
15D
100
DictionaryVariables
280
     0
  1
1
  0
DICTIONARYVAR
  5
363
102
{ACAD_REACTORS
330
15D
102
}
330
15D
100
DictionaryVariables
280
     0
  1
0
  0
DICTIONARYVAR
  5
362
102
{ACAD_REACTORS
330
15D
102
}
330
15D
100
DictionaryVariables
280
     0
  1
127
  0
DICTIONARY
  5
435
330
D5
100
AcDbDictionary
280
     1
281
     1
  3
ACAD_XREC_ROUNDTRIP
360
436
  0
DICTIONARY
  5
433
330
D4
100
AcDbDictionary
280
     1
281
     1
  3
ACAD_XREC_ROUNDTRIP
360
434
  0
DICTIONARY
  5
36E
330
16A
100
AcDbDictionary
280
     1
281
     1
  3
ACAD_XREC_ROUNDTRIP
360
36F
  0
DICTIONARY
  5
36C
330
169
100
AcDbDictionary
280
     1
281
     1
  3
ACAD_XREC_ROUNDTRIP
360
36D
  0
DICTIONARY
  5
370
330
16B
100
AcDbDictionary
280
     1
281
     1
  3
ACAD_XREC_ROUNDTRIP
360
371
  0
DICTIONARY
  5
437
330
17F
100
AcDbDictionary
280
     1
281
     1
  3
ACAD_XREC_ROUNDTRIP
360
438
  0
XRECORD
  5
436
102
{ACAD_REACTORS
330
435
102
}
330
435
100
AcDbXrecord
280
     1
102
SHADEPLOT
 70
     0
102
SHADEPLOTRESLEVEL
 70
     2
102
SHADEPLOTCUSTOMDPI
 70
   300
  0
XRECORD
  5
434
102
{ACAD_REACTORS
330
433
102
}
330
433
100
AcDbXrecord
280
     1
102
SHADEPLOT
 70
     0
102
SHADEPLOTRESLEVEL
 70
     2
102
SHADEPLOTCUSTOMDPI
 70
   300
  0
XRECORD
  5
36F
102
{ACAD_REACTORS
330
36E
102
}
330
36E
100
AcDbXrecord
280
     1
102
MATERIAL
148
0.0
149
0.0
149
0.0
 93
        0
 94
       63
282
     0
 72
     1
 77
     1
171
     1
175
     1
179
     1
273
     0
  0
XRECORD
  5
36D
102
{ACAD_REACTORS
330
36C
102
}
330
36C
100
AcDbXrecord
280
     1
102
MATERIAL
148
0.0
149
0.0
149
0.0
 93
        0
 94
       63
282
     0
 72
     1
 77
     1
171
     1
175
     1
179
     1
273
     0
  0
XRECORD
  5
371
102
{ACAD_REACTORS
330
370
102
}
330
370
100
AcDbXrecord
280
     1
102
MATERIAL
148
0.0
149
0.0
149
0.0
 93
        0
 94
       63
282
     0
 72
     1
 77
     1
171
     1
175
     1
179
     1
273
     0
  0
XRECORD
  5
438
102
{ACAD_REACTORS
330
437
102
}
330
437
100
AcDbXrecord
280
     1
102
ACAD_ROUNDTRIP_PRE2007_TABLESTYLE
 90
      512
 91
        0
  1

 92
      512
 93
        0
  2

 94
      512
 95
        0
  3

  0
ENDSEC
  0
EOF
