  0
SECTION
  2
HEADER
  9
$ACADVER
  1
AC1015
  9
$ACADMAINTVER
 70
    20
  9
$DWGCODEPAGE
  3
ANSI_1252
  9
$INSBASE
 10
0.0
 20
0.0
 30
0.0
  9
$EXTMIN
 10
3.287659673122334
 20
32.46171642753961
 30
-0.0000610304997082
  9
$EXTMAX
 10
275.7531746380883
 20
151.7402806737696
 30
0.000091555062788
  9
$LIMMIN
 10
0.0
 20
0.0
  9
$LIMMAX
 10
420.0
 20
297.0
  9
$ORTHOMODE
 70
     0
  9
$REGENMODE
 70
     1
  9
$FILLMODE
 70
     1
  9
$QTEXTMODE
 70
     0
  9
$MIRRTEXT
 70
     1
  9
$LTSCALE
 40
1.0
  9
$ATTMODE
 70
     1
  9
$TEXTSIZE
 40
2.5
  9
$TRACEWID
 40
1.0
  9
$TEXTSTYLE
  7
STANDARD
  9
$CLAYER
  8
0
  9
$CELTYPE
  6
BYLAYER
  9
$CECOLOR
 62
   256
  9
$CELTSCALE
 40
1.0
  9
$DISPSILH
 70
     0
  9
$DIMSCALE
 40
1.0
  9
$DIMASZ
 40
2.0
  9
$DIMEXO
 40
2.0
  9
$DIMDLI
 40
0.0
  9
$DIMRND
 40
0.0
  9
$DIMDLE
 40
1.0
  9
$DIMEXE
 40
1.0
  9
$DIMTP
 40
0.0
  9
$DIMTM
 40
0.0
  9
$DIMTXT
 40
3.5
  9
$DIMCEN
 40
0.0
  9
$DIMTSZ
 40
0.0
  9
$DIMTOL
 70
     0
  9
$DIMLIM
 70
     0
  9
$DIMTIH
 70
     0
  9
$DIMTOH
 70
     0
  9
$DIMSE1
 70
     0
  9
$DIMSE2
 70
     0
  9
$DIMTAD
 70
     1
  9
$DIMZIN
 70
     8
  9
$DIMBLK
  1

  9
$DIMASO
 70
     1
  9
$DIMSHO
 70
     1
  9
$DIMPOST
  1

  9
$DIMAPOST
  1

  9
$DIMALT
 70
     1
  9
$DIMALTD
 70
     5
  9
$DIMALTF
 40
0.039370078740157
  9
$DIMLFAC
 40
1.0
  9
$DIMTOFL
 70
     1
  9
$DIMTVP
 40
0.0
  9
$DIMTIX
 70
     0
  9
$DIMSOXD
 70
     0
  9
$DIMSAH
 70
     1
  9
$DIMBLK1
  1
Oblique
  9
$DIMBLK2
  1
Oblique
  9
$DIMSTYLE
  2
HAWA-Strich
  9
$DIMCLRD
 70
   256
  9
$DIMCLRE
 70
   256
  9
$DIMCLRT
 70
   256
  9
$DIMTFAC
 40
0.7114285714285719
  9
$DIMGAP
 40
1.0
  9
$DIMJUST
 70
     0
  9
$DIMSD1
 70
     0
  9
$DIMSD2
 70
     0
  9
$DIMTOLJ
 70
     1
  9
$DIMTZIN
 70
     8
  9
$DIMALTZ
 70
     8
  9
$DIMALTTZ
 70
     8
  9
$DIMUPT
 70
     0
  9
$DIMDEC
 70
     1
  9
$DIMTDEC
 70
     1
  9
$DIMALTU
 70
     4
  9
$DIMALTTD
 70
     5
  9
$DIMTXSTY
  7
Beschlag
  9
$DIMAUNIT
 70
     0
  9
$DIMADEC
 70
     1
  9
$DIMALTRND
 40
0.0
  9
$DIMAZIN
 70
     2
  9
$DIMDSEP
 70
    46
  9
$DIMATFIT
 70
     3
  9
$DIMFRAC
 70
     0
  9
$DIMLDRBLK
  1
Oblique
  9
$DIMLUNIT
 70
     2
  9
$DIMLWD
 70
    -2
  9
$DIMLWE
 70
    -2
  9
$DIMTMOVE
 70
     0
  9
$LUNITS
 70
     2
  9
$LUPREC
 70
     4
  9
$SKETCHINC
 40
1.0
  9
$FILLETRAD
 40
2.5
  9
$AUNITS
 70
     0
  9
$AUPREC
 70
     0
  9
$MENU
  1
.
  9
$ELEVATION
 40
0.0
  9
$PELEVATION
 40
0.0
  9
$THICKNESS
 40
0.0
  9
$LIMCHECK
 70
     0
  9
$CHAMFERA
 40
2.5
  9
$CHAMFERB
 40
2.5
  9
$CHAMFERC
 40
0.0
  9
$CHAMFERD
 40
0.0
  9
$SKPOLY
 70
     0
  9
$TDCREATE
 40
2447893.000000000
  9
$TDUCREATE
 40
2447892.916666666
  9
$TDUPDATE
 40
2455790.548865521
  9
$TDUUPDATE
 40
2455790.465532187
  9
$TDINDWG
 40
0.0616198843
  9
$TDUSRTIMER
 40
0.0616193056
  9
$USRTIMER
 70
     1
  9
$ANGBASE
 50
0.0
  9
$ANGDIR
 70
     0
  9
$PDMODE
 70
     0
  9
$PDSIZE
 40
0.0
  9
$PLINEWID
 40
0.0
  9
$SPLFRAME
 70
     0
  9
$SPLINETYPE
 70
     6
  9
$SPLINESEGS
 70
     8
  9
$HANDSEED
  5
7CC
  9
$SURFTAB1
 70
     6
  9
$SURFTAB2
 70
     6
  9
$SURFTYPE
 70
     6
  9
$SURFU
 70
     6
  9
$SURFV
 70
     6
  9
$UCSBASE
  2

  9
$UCSNAME
  2

  9
$UCSORG
 10
0.0
 20
0.0
 30
0.0
  9
$UCSXDIR
 10
1.0
 20
0.0
 30
0.0
  9
$UCSYDIR
 10
0.0
 20
1.0
 30
0.0
  9
$UCSORTHOREF
  2

  9
$UCSORTHOVIEW
 70
     0
  9
$UCSORGTOP
 10
0.0
 20
0.0
 30
0.0
  9
$UCSORGBOTTOM
 10
0.0
 20
0.0
 30
0.0
  9
$UCSORGLEFT
 10
0.0
 20
0.0
 30
0.0
  9
$UCSORGRIGHT
 10
0.0
 20
0.0
 30
0.0
  9
$UCSORGFRONT
 10
0.0
 20
0.0
 30
0.0
  9
$UCSORGBACK
 10
0.0
 20
0.0
 30
0.0
  9
$PUCSBASE
  2

  9
$PUCSNAME
  2

  9
$PUCSORG
 10
0.0
 20
0.0
 30
0.0
  9
$PUCSXDIR
 10
1.0
 20
0.0
 30
0.0
  9
$PUCSYDIR
 10
0.0
 20
1.0
 30
0.0
  9
$PUCSORTHOREF
  2

  9
$PUCSORTHOVIEW
 70
     0
  9
$PUCSORGTOP
 10
0.0
 20
0.0
 30
0.0
  9
$PUCSORGBOTTOM
 10
0.0
 20
0.0
 30
0.0
  9
$PUCSORGLEFT
 10
0.0
 20
0.0
 30
0.0
  9
$PUCSORGRIGHT
 10
0.0
 20
0.0
 30
0.0
  9
$PUCSORGFRONT
 10
0.0
 20
0.0
 30
0.0
  9
$PUCSORGBACK
 10
0.0
 20
0.0
 30
0.0
  9
$USERI1
 70
     0
  9
$USERI2
 70
     0
  9
$USERI3
 70
     0
  9
$USERI4
 70
     0
  9
$USERI5
 70
     0
  9
$USERR1
 40
0.0
  9
$USERR2
 40
0.0
  9
$USERR3
 40
0.0
  9
$USERR4
 40
0.0
  9
$USERR5
 40
0.0
  9
$WORLDVIEW
 70
     1
  9
$SHADEDGE
 70
     3
  9
$SHADEDIF
 70
    70
  9
$TILEMODE
 70
     1
  9
$MAXACTVP
 70
    48
  9
$PINSBASE
 10
0.0
 20
0.0
 30
0.0
  9
$PLIMCHECK
 70
     0
  9
$PEXTMIN
 10
0.0
 20
0.0
 30
0.0
  9
$PEXTMAX
 10
168.075607
 20
203.970047
 30
2.0
  9
$PLIMMIN
 10
0.0
 20
0.0
  9
$PLIMMAX
 10
420.0
 20
297.0
  9
$UNITMODE
 70
     0
  9
$VISRETAIN
 70
     0
  9
$PLINEGEN
 70
     0
  9
$PSLTSCALE
 70
     1
  9
$TREEDEPTH
 70
  3020
  9
$CMLSTYLE
  2
STANDARD
  9
$CMLJUST
 70
     0
  9
$CMLSCALE
 40
20.0
  9
$PROXYGRAPHICS
 70
     1
  9
$MEASUREMENT
 70
     1
  9
$CELWEIGHT
370
    -1
  9
$ENDCAPS
280
     0
  9
$JOINSTYLE
280
     0
  9
$LWDISPLAY
290
     0
  9
$INSUNITS
 70
     0
  9
$HYPERLINKBASE
  1

  9
$STYLESHEET
  1

  9
$XEDIT
290
     1
  9
$CEPSNTYPE
380
     0
  9
$PSTYLEMODE
290
     1
  9
$FINGERPRINTGUID
  2
{ABBE8790-BA12-4F32-903C-D30B1F7A4185}
  9
$VERSIONGUID
  2
{7E116D75-9D3A-47D2-B2A5-48E5EE18302F}
  9
$EXTNAMES
290
     1
  9
$PSVPSCALE
 40
0.0
  9
$OLESTARTUP
290
     0
  0
ENDSEC
  0
SECTION
  2
CLASSES
  0
CLASS
  1
LWPOLYLINE
  2
AcDbPolyline
  3
ObjectDBX Classes
 90
        0
280
     0
281
     1
  0
CLASS
  1
IMAGE
  2
AcDbRasterImage
  3
ISM
 90
    34943
280
     0
281
     1
  0
CLASS
  1
OLE2FRAME
  2
AcDbOle2Frame
  3
ObjectDBX Classes
 90
    32768
280
     0
281
     1
  0
CLASS
  1
HATCH
  2
AcDbHatch
  3
ObjectDBX Classes
 90
    32768
280
     0
281
     1
  0
CLASS
  1
DICTIONARYVAR
  2
AcDbDictionaryVar
  3
ObjectDBX Classes
 90
        0
280
     0
281
     0
  0
CLASS
  1
RASTERVARIABLES
  2
AcDbRasterVariables
  3
ISM
 90
    32768
280
     0
281
     0
  0
CLASS
  1
IMAGEDEF
  2
AcDbRasterImageDef
  3
ISM
 90
    32768
280
     0
281
     0
  0
CLASS
  1
IMAGEDEF_REACTOR
  2
AcDbRasterImageDefReactor
  3
ISM
 90
    32769
280
     0
281
     0
  0
CLASS
  1
IDBUFFER
  2
AcDbIdBuffer
  3
ObjectDBX Classes
 90
    32768
280
     0
281
     0
  0
CLASS
  1
SPATIAL_FILTER
  2
AcDbSpatialFilter
  3
ObjectDBX Classes
 90
    32768
280
     0
281
     0
  0
CLASS
  1
XRECORD
  2
AcDbXrecord
  3
ObjectDBX Classes
 90
        0
280
     0
281
     0
  0
CLASS
  1
SORTENTSTABLE
  2
AcDbSortentsTable
  3
ObjectDBX Classes
 90
    32768
280
     0
281
     0
  0
CLASS
  1
LAYER_INDEX
  2
AcDbLayerIndex
  3
ObjectDBX Classes
 90
    32768
280
     0
281
     0
  0
CLASS
  1
SPATIAL_INDEX
  2
AcDbSpatialIndex
  3
ObjectDBX Classes
 90
    32768
280
     0
281
     0
  0
CLASS
  1
OBJECT_PTR
  2
CAseDLPNTableRecord
  3
ASE-LPNTableRecord
 90
    32769
280
     0
281
     0
  0
CLASS
  1
LAYOUT
  2
AcDbLayout
  3
ObjectDBX Classes
 90
        0
280
     0
281
     0
  0
CLASS
  1
PLOTSETTINGS
  2
AcDbPlotSettings
  3
ObjectDBX Classes
 90
    32768
280
     0
281
     0
  0
CLASS
  1
ACDBDICTIONARYWDFLT
  2
AcDbDictionaryWithDefault
  3
ObjectDBX Classes
 90
        0
280
     0
281
     0
  0
CLASS
  1
ACDBPLACEHOLDER
  2
AcDbPlaceHolder
  3
ObjectDBX Classes
 90
        0
280
     0
281
     0
  0
CLASS
  1
VBA_PROJECT
  2
AcDbVbaProject
  3
acad
 90
    32768
280
     0
281
     0
  0
CLASS
  1
WIPEOUT
  2
AcDbWipeout
  3
"WipeOut|Product Desc: Object Enabler for WipeOut entity                        |Company: Autodesk, Inc.                        |WEB Address: www.autodesk.com"
 90
    34943
280
     0
281
     1
  0
CLASS
  1
WIPEOUTVARIABLES
  2
AcDbWipeoutVariables
  3
"WipeOut|Product Desc:     WipeOut Dbx Application|Company:          Autodesk, Inc.|WEB Address:      www.autodesk.com"
 90
    32768
280
     0
281
     0
  0
CLASS
  1
RTEXT
  2
RText
  3
RText|AutoCAD Express Tool|expresstools@autodesk.com
 90
    32768
280
     0
281
     1
  0
CLASS
  1
ARCALIGNEDTEXT
  2
AcDbArcAlignedText
  3
ATEXT|AutoCAD Express Tool|expresstools@autodesk.com
 90
    32768
280
     0
281
     1
  0
CLASS
  1
SCALE
  2
AcDbScale
  3
ObjectDBX Classes
 90
     1153
280
     0
281
     0
  0
CLASS
  1
MATERIAL
  2
AcDbMaterial
  3
ObjectDBX Classes
 90
     1024
280
     0
281
     0
  0
CLASS
  1
VISUALSTYLE
  2
AcDbVisualStyle
  3
ObjectDBX Classes
 90
     4095
280
     0
281
     0
  0
CLASS
  1
TABLESTYLE
  2
AcDbTableStyle
  3
ObjectDBX Classes
 90
     4095
280
     0
281
     0
  0
ENDSEC
  0
SECTION
  2
TABLES
  0
TABLE
  2
VPORT
  5
7
330
0
100
AcDbSymbolTable
 70
     1
  0
VPORT
  5
15
330
7
100
AcDbSymbolTableRecord
100
AcDbViewportTableRecord
  2
*ACTIVE
 70
     0
 10
0.0
 20
0.0
 11
1.0
 21
1.0
 12
139.5204171556052
 22
92.10099855065461
 13
0.0
 23
0.0
 14
1.0
 24
1.0
 15
0.0
 25
0.0
 16
0.0
 26
0.0
 36
1.0
 17
0.0
 27
0.0
 37
0.0
 40
139.4618599262112
 41
1.960129310344827
 42
50.0
 43
0.0
 44
0.0
 50
0.0
 51
0.0
 71
     0
 72
   100
 73
     1
 74
     1
 75
     0
 76
     0
 77
     0
 78
     0
281
     0
 65
     1
110
0.0
120
0.0
130
0.0
111
1.0
121
0.0
131
0.0
112
0.0
122
1.0
132
0.0
 79
     0
146
0.0
  0
ENDTAB
  0
TABLE
  2
LTYPE
  5
4
330
0
100
AcDbSymbolTable
 70
     3
  0
LTYPE
  5
11
330
4
100
AcDbSymbolTableRecord
100
AcDbLinetypeTableRecord
  2
BYBLOCK
 70
     0
  3

 72
    65
 73
     0
 40
0.0
  0
LTYPE
  5
12
330
4
100
AcDbSymbolTableRecord
100
AcDbLinetypeTableRecord
  2
BYLAYER
 70
     0
  3

 72
    65
 73
     0
 40
0.0
  0
LTYPE
  5
13
330
4
100
AcDbSymbolTableRecord
100
AcDbLinetypeTableRecord
  2
CONTINUOUS
 70
     0
  3
Solid line
 72
    65
 73
     0
 40
0.0
  0
LTYPE
  5
1D
330
4
100
AcDbSymbolTableRecord
100
AcDbLinetypeTableRecord
  2
DASHDOT
 70
     0
  3
 __ . __ . __ . __ . __ . __ . __ . 
 72
    65
 73
     4
 40
18.5
 49
12.0
 74
     0
 49
-3.0
 74
     0
 49
0.5
 74
     0
 49
-3.0
 74
     0
  0
LTYPE
  5
1E
330
4
100
AcDbSymbolTableRecord
100
AcDbLinetypeTableRecord
  2
PHANTOM
 70
     0
  3
____________    ____    ____   _
 72
    65
 73
     6
 40
20.0
 49
10.0
 74
     0
 49
-2.0
 74
     0
 49
2.0
 74
     0
 49
-2.0
 74
     0
 49
2.0
 74
     0
 49
-2.0
 74
     0
  0
ENDTAB
  0
TABLE
  2
LAYER
  5
2
330
0
100
AcDbSymbolTable
 70
     7
  0
LAYER
  5
14
330
2
100
AcDbSymbolTableRecord
100
AcDbLayerTableRecord
  2
0
 70
     0
 62
     7
  6
CONTINUOUS
370
    -3
390
4DA
  0
LAYER
  5
4CB
330
2
100
AcDbSymbolTableRecord
100
AcDbLayerTableRecord
  2
Hawa1
 70
     0
 62
     2
  6
CONTINUOUS
370
     0
390
4DA
  0
LAYER
  5
4CC
330
2
100
AcDbSymbolTableRecord
100
AcDbLayerTableRecord
  2
Hawa2
 70
     0
 62
     9
  6
CONTINUOUS
370
     0
390
4DA
  0
LAYER
  5
4CD
330
2
100
AcDbSymbolTableRecord
100
AcDbLayerTableRecord
  2
Hawa4
 70
     0
 62
     4
  6
CONTINUOUS
370
     0
390
4DA
  0
LAYER
  5
4CE
330
2
100
AcDbSymbolTableRecord
100
AcDbLayerTableRecord
  2
Hawa5
 70
     0
 62
     1
  6
CONTINUOUS
370
    -3
390
4DA
  0
LAYER
  5
4CF
330
2
100
AcDbSymbolTableRecord
100
AcDbLayerTableRecord
  2
Hawa6
 70
     0
 62
     3
  6
CONTINUOUS
370
    -3
390
4DA
  0
LAYER
  5
4F6
330
2
100
AcDbSymbolTableRecord
100
AcDbLayerTableRecord
  2
Defpoints
 70
     0
 62
     7
  6
CONTINUOUS
290
     0
370
    -3
390
4DA
  0
ENDTAB
  0
TABLE
  2
STYLE
  5
3
330
0
100
AcDbSymbolTable
 70
     3
  0
STYLE
  5
17
330
3
100
AcDbSymbolTableRecord
100
AcDbTextStyleTableRecord
  2
STANDARD
 70
     0
 40
0.0
 41
1.0
 50
0.0
 71
     0
 42
2.5
  3
isocp.shx
  4

  0
STYLE
  5
1F
330
3
100
AcDbSymbolTableRecord
100
AcDbTextStyleTableRecord
  2
GDT
 70
     0
 40
0.0
 41
1.0
 50
0.0
 71
     0
 42
2.5
  3
gdt.shx
  4

  0
STYLE
  5
4F8
330
3
100
AcDbSymbolTableRecord
100
AcDbTextStyleTableRecord
  2
Beschlag
 70
     0
 40
0.0
 41
0.9
 50
0.0
 71
     0
 42
3.5
  3
arial.ttf
  4

1001
ACAD
1000
Arial
1071
       34
  0
ENDTAB
  0
TABLE
  2
VIEW
  5
5
330
0
100
AcDbSymbolTable
 70
     0
  0
ENDTAB
  0
TABLE
  2
UCS
  5
6
330
0
100
AcDbSymbolTable
 70
     0
  0
ENDTAB
  0
TABLE
  2
APPID
  5
8
330
0
100
AcDbSymbolTable
 70
     1
  0
APPID
  5
16
330
8
100
AcDbSymbolTableRecord
100
AcDbRegAppTableRecord
  2
ACAD
 70
     0
  0
ENDTAB
  0
TABLE
  2
DIMSTYLE
  5
9
330
0
100
AcDbSymbolTable
 70
     2
100
AcDbDimStyleTable
 71
     2
340
4F7
340
18
  0
DIMSTYLE
105
18
330
9
100
AcDbSymbolTableRecord
100
AcDbDimStyleTableRecord
  2
STANDARD
 70
     0
 41
2.5
 42
0.625
 43
3.75
 44
1.25
 73
     0
 74
     0
 77
     1
 78
     8
140
2.5
141
2.5
143
0.03937
147
0.625
171
     3
172
     1
271
     2
272
     2
274
     3
283
     0
284
     8
289
     0
340
17
  0
DIMSTYLE
105
4F7
102
{ACAD_REACTORS
330
41
330
3F
330
3D
330
3B
330
39
330
37
330
35
330
33
330
31
330
2F
330
2D
330
2B
330
29
330
27
330
25
330
23
330
21
102
}
330
9
100
AcDbSymbolTableRecord
100
AcDbDimStyleTableRecord
  2
HAWA-Strich
 70
     0
 41
2.0
 42
2.0
 43
0.0
 44
1.0
 46
1.0
 73
     0
 74
     0
 77
     1
 78
     8
 79
     2
140
3.5
141
0.0
143
0.039370078740157
146
0.7114285714285719
147
1.0
170
     1
171
     5
172
     1
173
     1
176
   256
177
   256
178
   256
179
     1
271
     1
272
     1
273
     4
274
     5
284
     8
285
     8
286
     8
340
4F8
341
4F9
343
4F9
344
4F9
  0
ENDTAB
  0
TABLE
  2
BLOCK_RECORD
  5
1
330
0
100
AcDbSymbolTable
 70
    29
  0
BLOCK_RECORD
  5
A
330
1
100
AcDbSymbolTableRecord
100
AcDbBlockTableRecord
  2
*MODEL_SPACE
340
41A
  0
BLOCK_RECORD
  5
B
330
1
100
AcDbSymbolTableRecord
100
AcDbBlockTableRecord
  2
*PAPER_SPACE
340
41B
  0
BLOCK_RECORD
  5
20
330
1
100
AcDbSymbolTableRecord
100
AcDbBlockTableRecord
  2
*D0
340
0
  0
BLOCK_RECORD
  5
22
330
1
100
AcDbSymbolTableRecord
100
AcDbBlockTableRecord
  2
*D1
340
0
  0
BLOCK_RECORD
  5
24
330
1
100
AcDbSymbolTableRecord
100
AcDbBlockTableRecord
  2
*D2
340
0
  0
BLOCK_RECORD
  5
26
330
1
100
AcDbSymbolTableRecord
100
AcDbBlockTableRecord
  2
*D3
340
0
  0
BLOCK_RECORD
  5
28
330
1
100
AcDbSymbolTableRecord
100
AcDbBlockTableRecord
  2
*D4
340
0
  0
BLOCK_RECORD
  5
2A
330
1
100
AcDbSymbolTableRecord
100
AcDbBlockTableRecord
  2
*D5
340
0
  0
BLOCK_RECORD
  5
2C
330
1
100
AcDbSymbolTableRecord
100
AcDbBlockTableRecord
  2
*D6
340
0
  0
BLOCK_RECORD
  5
2E
330
1
100
AcDbSymbolTableRecord
100
AcDbBlockTableRecord
  2
*D7
340
0
  0
BLOCK_RECORD
  5
30
330
1
100
AcDbSymbolTableRecord
100
AcDbBlockTableRecord
  2
*D8
340
0
  0
BLOCK_RECORD
  5
32
330
1
100
AcDbSymbolTableRecord
100
AcDbBlockTableRecord
  2
*D9
340
0
  0
BLOCK_RECORD
  5
34
330
1
100
AcDbSymbolTableRecord
100
AcDbBlockTableRecord
  2
*D10
340
0
  0
BLOCK_RECORD
  5
36
330
1
100
AcDbSymbolTableRecord
100
AcDbBlockTableRecord
  2
*D11
340
0
  0
BLOCK_RECORD
  5
38
330
1
100
AcDbSymbolTableRecord
100
AcDbBlockTableRecord
  2
*D12
340
0
  0
BLOCK_RECORD
  5
3A
330
1
100
AcDbSymbolTableRecord
100
AcDbBlockTableRecord
  2
*D13
340
0
  0
BLOCK_RECORD
  5
3C
330
1
100
AcDbSymbolTableRecord
100
AcDbBlockTableRecord
  2
*D14
340
0
  0
BLOCK_RECORD
  5
3E
330
1
100
AcDbSymbolTableRecord
100
AcDbBlockTableRecord
  2
*D15
340
0
  0
BLOCK_RECORD
  5
40
330
1
100
AcDbSymbolTableRecord
100
AcDbBlockTableRecord
  2
*D16
340
0
  0
BLOCK_RECORD
  5
280
330
1
100
AcDbSymbolTableRecord
100
AcDbBlockTableRecord
  2
BLOCK1
340
0
  0
BLOCK_RECORD
  5
281
330
1
100
AcDbSymbolTableRecord
100
AcDbBlockTableRecord
  2
BLOCK2
340
0
  0
BLOCK_RECORD
  5
282
330
1
100
AcDbSymbolTableRecord
100
AcDbBlockTableRecord
  2
BLOCK3
340
0
  0
BLOCK_RECORD
  5
283
330
1
100
AcDbSymbolTableRecord
100
AcDbBlockTableRecord
  2
BLOCK4
340
0
  0
BLOCK_RECORD
  5
284
330
1
100
AcDbSymbolTableRecord
100
AcDbBlockTableRecord
  2
BLOCK5
340
0
  0
BLOCK_RECORD
  5
285
330
1
100
AcDbSymbolTableRecord
100
AcDbBlockTableRecord
  2
BLOCK6
340
0
  0
BLOCK_RECORD
  5
286
330
1
100
AcDbSymbolTableRecord
100
AcDbBlockTableRecord
  2
BLOCK7
340
0
  0
BLOCK_RECORD
  5
287
330
1
100
AcDbSymbolTableRecord
100
AcDbBlockTableRecord
  2
BLOCK8
340
0
  0
BLOCK_RECORD
  5
288
330
1
100
AcDbSymbolTableRecord
100
AcDbBlockTableRecord
  2
BLOCK9
340
0
  0
BLOCK_RECORD
  5
289
330
1
100
AcDbSymbolTableRecord
100
AcDbBlockTableRecord
  2
BLOCK10
340
0
  0
BLOCK_RECORD
  5
28A
330
1
100
AcDbSymbolTableRecord
100
AcDbBlockTableRecord
  2
BLOCK11
340
0
  0
BLOCK_RECORD
  5
4F9
330
1
100
AcDbSymbolTableRecord
100
AcDbBlockTableRecord
  2
_Oblique
340
0
310
2800000020000000200000000100080000000000000400000000000000000000000000000000000000000000000080000080000000808000800000008000800080800000C0C0C000C0DCC000F0CAA6000020400000206000002080000020A0000020C0000020E00000400000004020000040400000406000004080000040A0
310
000040C0000040E00000600000006020000060400000606000006080000060A0000060C0000060E00000800000008020000080400000806000008080000080A0000080C0000080E00000A0000000A0200000A0400000A0600000A0800000A0A00000A0C00000A0E00000C0000000C0200000C0400000C0600000C0800000C0
310
A00000C0C00000C0E00000E0000000E0200000E0400000E0600000E0800000E0A00000E0C00000E0E00040000000400020004000400040006000400080004000A0004000C0004000E00040200000402020004020400040206000402080004020A0004020C0004020E000404000004040200040404000404060004040800040
310
40A0004040C0004040E00040600000406020004060400040606000406080004060A0004060C0004060E00040800000408020004080400040806000408080004080A0004080C0004080E00040A0000040A0200040A0400040A0600040A0800040A0A00040A0C00040A0E00040C0000040C0200040C0400040C0600040C08000
310
40C0A00040C0C00040C0E00040E0000040E0200040E0400040E0600040E0800040E0A00040E0C00040E0E00080000000800020008000400080006000800080008000A0008000C0008000E00080200000802020008020400080206000802080008020A0008020C0008020E00080400000804020008040400080406000804080
310
008040A0008040C0008040E00080600000806020008060400080606000806080008060A0008060C0008060E00080800000808020008080400080806000808080008080A0008080C0008080E00080A0000080A0200080A0400080A0600080A0800080A0A00080A0C00080A0E00080C0000080C0200080C0400080C0600080C0
310
800080C0A00080C0C00080C0E00080E0000080E0200080E0400080E0600080E0800080E0A00080E0C00080E0E000C0000000C0002000C0004000C0006000C0008000C000A000C000C000C000E000C0200000C0202000C0204000C0206000C0208000C020A000C020C000C020E000C0400000C0402000C0404000C0406000C0
310
408000C040A000C040C000C040E000C0600000C0602000C0604000C0606000C0608000C060A000C060C000C060E000C0800000C0802000C0804000C0806000C0808000C080A000C080C000C080E000C0A00000C0A02000C0A04000C0A06000C0A08000C0A0A000C0A0C000C0A0E000C0C00000C0C02000C0C04000C0C06000
310
C0C08000C0C0A000F0FBFF00A4A0A000808080000000FF0000FF000000FFFF00FF000000FF00FF00FFFF0000FFFFFF00000000000000000000000000000000000000000000000000000000000000000000FF0000000000000000000000000000000000000000000000000000000000000000FF000000000000000000000000
310
0000000000000000000000000000000000000000FF0000000000000000000000000000000000000000000000000000000000000000FF0000000000000000000000000000000000000000000000000000000000000000FF0000000000000000000000000000000000000000000000000000000000000000FF00000000000000
310
00000000000000000000000000000000000000000000000000FF0000000000000000000000000000000000000000000000000000000000000000FF0000000000000000000000000000000000000000000000000000000000000000FF0000000000000000000000000000000000000000000000000000000000000000FF0000
310
000000000000000000000000000000000000000000000000000000000000FF0000000000000000000000000000000000000000000000000000000000000000FF0000000000000000000000000000000000000000000000000000000000000000FF000000000000000000000000000000000000000000000000000000000000
310
0000FF0000000000000000000000000000000000000000000000000000000000000000FF0000000000000000000000000000000000000000000000000000000000000000FF0000000000000000000000000000000000000000000000000000000000000000FF00000000000000000000000000000000000000000000000000
310
00000000000000FF0000000000000000000000000000000000000000000000000000000000000000FF0000000000000000000000000000000000000000000000000000000000000000FF0000000000000000000000000000000000000000000000000000000000000000FF0000000000000000000000000000000000000000
310
000000000000000000000000FF0000000000000000000000000000000000000000000000000000000000000000FF0000000000000000000000000000000000000000000000000000000000000000FF0000000000000000000000000000000000000000000000000000000000000000FF000000000000000000000000000000
310
0000000000000000000000000000000000FF0000000000000000000000000000000000000000000000000000000000000000FF0000000000000000000000000000000000000000000000000000000000000000FF0000000000000000000000000000000000000000000000000000000000000000FF00000000000000000000
310
00000000000000000000000000000000000000000000FF000000000000000000000000000000000000000000000000000000000000000000
102
{BLKREFS
331
5A7
331
5A8
331
5C3
331
5C4
331
5FD
331
5FE
331
621
331
622
331
62A
331
62B
331
634
331
635
331
63E
331
63F
331
6AA
331
6AB
331
6B4
331
6B5
331
6BE
331
6BF
331
6F9
331
6FA
331
75D
331
75E
331
771
331
772
331
78A
331
78B
331
794
331
795
331
79E
331
79F
331
7A8
331
7A9
102
}
  0
ENDTAB
  0
ENDSEC
  0
SECTION
  2
BLOCKS
  0
BLOCK
  5
D
330
A
100
AcDbEntity
  8
0
100
AcDbBlockBegin
  2
*MODEL_SPACE
 70
     0
 10
0.0
 20
0.0
 30
0.0
  3
*MODEL_SPACE
  1

  0
ENDBLK
  5
E
330
A
100
AcDbEntity
  8
0
100
AcDbBlockEnd
  0
BLOCK
  5
F
330
B
100
AcDbEntity
 67
     1
  8
0
100
AcDbBlockBegin
  2
*PAPER_SPACE
 70
     0
 10
0.0
 20
0.0
 30
0.0
  3
*PAPER_SPACE
  1

  0
ENDBLK
  5
10
330
B
100
AcDbEntity
 67
     1
  8
0
100
AcDbBlockEnd
  0
BLOCK
  5
28B
330
20
100
AcDbEntity
  8
Hawa1
100
AcDbBlockBegin
  2
*D0
 70
     1
 10
0.0
 20
0.0
 30
0.0
  3
*D0
  1

  0
LINE
  5
63A
330
20
100
AcDbEntity
  8
Hawa1
370
    -2
100
AcDbLine
 10
259.2386466991178
 20
109.3712410002772
 30
0.0
 11
259.2383802888663
 21
93.37104914494961
 31
0.0
  0
LINE
  5
63B
330
20
100
AcDbEntity
  8
Hawa1
370
    -2
100
AcDbLine
 10
256.7387133008821
 20
88.07540399972277
 30
0.0
 11
256.7388347772846
 21
95.37109076376207
 31
0.0
  0
LINE
  5
63C
330
20
100
AcDbEntity
  8
Hawa1
370
    -2
100
AcDbLine
 10
260.2383969391688
 20
94.37103249436992
 30
0.0
 11
256.7388181268436
 21
94.3710907639007
 31
0.0
  0
LINE
  5
63D
330
20
100
AcDbEntity
  8
Hawa1
370
    -2
100
AcDbLine
 10
256.7388181268436
 20
94.3710907639007
 30
0.0
 11
238.470697429717
 21
94.37139493616774
 31
0.0
  0
INSERT
  5
63E
330
20
100
AcDbEntity
  8
Hawa1
370
    -2
100
AcDbBlockReference
  2
_Oblique
 10
259.2383969393074
 20
94.371049144811
 30
0.0
 41
2.0
 42
2.0
 43
2.0
 50
359.999046
  0
INSERT
  5
63F
330
20
100
AcDbEntity
  8
Hawa1
370
    -2
100
AcDbBlockReference
  2
_Oblique
 10
256.7388181268436
 20
94.3710907639007
 30
0.0
 41
2.0
 42
2.0
 43
2.0
 50
179.999046
  0
MTEXT
  5
640
330
20
100
AcDbEntity
  8
Hawa1
100
AcDbMText
 10
246.6048317929528
 20
98.81645909979088
 30
0.0
 40
3.5
 41
0.0
 71
     5
 72
     1
  1
\A1;2.5 [{\H0.711429x;\S3/32;}"]
  7
Beschlag
 11
0.9999999998613814
 21
-0.0000166504410634
 31
0.0
 73
     1
 44
1.0
1001
ACAD
1000
MTEXTBEGIN
1070
    73
1070
     1
1070
    44
1040
1.0
1070
    74
1070
     0
1000
MTEXTEND
  0
POINT
  5
641
330
20
100
AcDbEntity
  8
Defpoints
 62
     0
100
AcDbPoint
 10
259.23868
 20
111.371241
 30
0.0
  0
POINT
  5
642
330
20
100
AcDbEntity
  8
Defpoints
 62
     0
100
AcDbPoint
 10
256.73868
 20
86.07540400000001
 30
0.0
  0
POINT
  5
643
330
20
100
AcDbEntity
  8
Defpoints
 62
     0
100
AcDbPoint
 10
256.7388181268436
 20
94.3710907639007
 30
0.0
  0
ENDBLK
  5
296
330
20
100
AcDbEntity
  8
Hawa1
100
AcDbBlockEnd
  0
BLOCK
  5
297
330
22
100
AcDbEntity
  8
Hawa1
100
AcDbBlockBegin
  2
*D1
 70
     1
 10
0.0
 20
0.0
 30
0.0
  3
*D1
  1

  0
LINE
  5
630
330
22
100
AcDbEntity
  8
Hawa1
370
    -2
100
AcDbLine
 10
245.2386133982357
 20
66.32540400110895
 30
0.0
 11
245.2380843783197
 21
50.43934086926029
 31
0.0
  0
LINE
  5
631
330
22
100
AcDbEntity
  8
Hawa1
370
    -2
100
AcDbLine
 10
259.2387466017643
 20
50.43963099889105
 30
0.0
 11
259.2388131783409
 21
52.43887463374959
 31
0.0
  0
LINE
  5
632
330
22
100
AcDbEntity
  8
Hawa1
370
    -2
100
AcDbLine
 10
244.2381176797563
 20
51.43937416958793
 30
0.0
 11
259.2387798774588
 21
51.43887463430406
 31
0.0
  0
LINE
  5
633
330
22
100
AcDbEntity
  8
Hawa1
370
    -2
100
AcDbLine
 10
259.2387798774588
 20
51.43887463430406
 30
0.0
 11
275.7460252841654
 21
51.43832492847031
 31
0.0
  0
INSERT
  5
634
330
22
100
AcDbEntity
  8
Hawa1
370
    -2
100
AcDbBlockReference
  2
_Oblique
 10
245.2381176792019
 20
51.43934086870581
 30
0.0
 41
2.0
 42
2.0
 43
2.0
 50
179.998092
  0
INSERT
  5
635
330
22
100
AcDbEntity
  8
Hawa1
370
    -2
100
AcDbBlockReference
  2
_Oblique
 10
259.2387798774588
 20
51.43887463430406
 30
0.0
 41
2.0
 42
2.0
 43
2.0
 50
359.998092
  0
MTEXT
  5
636
330
22
100
AcDbEntity
  8
Hawa1
100
AcDbMText
 10
268.492550552764
 20
55.88206757763197
 30
0.0
 40
3.5
 41
0.0
 71
     5
 72
     1
  1
\A1;14 [{\H0.711429x;\S9/16;}"]
  7
Beschlag
 11
0.9999999994455256
 21
-0.0000333008821221
 31
0.0
 73
     1
 44
1.0
1001
ACAD
1000
MTEXTBEGIN
1070
    73
1070
     1
1070
    44
1040
1.0
1070
    74
1070
     0
1000
MTEXTEND
  0
POINT
  5
637
330
22
100
AcDbEntity
  8
Defpoints
 62
     0
100
AcDbPoint
 10
245.23868
 20
68.325404
 30
0.0
  0
POINT
  5
638
330
22
100
AcDbEntity
  8
Defpoints
 62
     0
100
AcDbPoint
 10
259.23868
 20
48.439631
 30
0.0
  0
POINT
  5
639
330
22
100
AcDbEntity
  8
Defpoints
 62
     0
100
AcDbPoint
 10
259.2387798774588
 20
51.43887463430406
 30
0.0
  0
ENDBLK
  5
2A2
330
22
100
AcDbEntity
  8
Hawa1
100
AcDbBlockEnd
  0
BLOCK
  5
2A3
330
24
100
AcDbEntity
  8
Hawa1
100
AcDbBlockBegin
  2
*D2
 70
     1
 10
0.0
 20
0.0
 30
0.0
  3
*D2
  1

  0
LINE
  5
627
330
24
100
AcDbEntity
  8
Hawa1
370
    -2
100
AcDbLine
 10
32.71383800000001
 20
83.325404
 30
0.0
 11
10.74880400000001
 21
83.32540400000002
 31
0.0
  0
LINE
  5
628
330
24
100
AcDbEntity
  8
Hawa1
370
    -2
100
AcDbLine
 10
32.71383800000001
 20
121.325404
 30
0.0
 11
10.74880400000002
 21
121.325404
 31
0.0
  0
LINE
  5
629
330
24
100
AcDbEntity
  8
Hawa1
370
    -2
100
AcDbLine
 10
11.74880400000001
 20
82.32540400000003
 30
0.0
 11
11.74880400000002
 21
122.325404
 31
0.0
  0
INSERT
  5
62A
330
24
100
AcDbEntity
  8
Hawa1
370
    -2
100
AcDbBlockReference
  2
_Oblique
 10
11.74880400000001
 20
83.32540400000002
 30
0.0
 41
2.0
 42
2.0
 43
2.0
 50
270.0
  0
INSERT
  5
62B
330
24
100
AcDbEntity
  8
Hawa1
370
    -2
100
AcDbBlockReference
  2
_Oblique
 10
11.74880400000002
 20
121.325404
 30
0.0
 41
2.0
 42
2.0
 43
2.0
 50
90.0
  0
MTEXT
  5
62C
330
24
100
AcDbEntity
  8
Hawa1
100
AcDbMText
 10
7.347765408935878
 20
102.325404
 30
0.0
 40
3.5
 41
0.0
 71
     5
 72
     1
  1
\A1;38 [1{\H0.711429x;\S1/2;}"]
  7
Beschlag
 11
0.0000000000000001
 21
1.0
 31
0.0
 73
     1
 44
1.0
1001
ACAD
1000
MTEXTBEGIN
1070
    73
1070
     1
1070
    44
1040
1.0
1070
    74
1070
     0
1000
MTEXTEND
  0
POINT
  5
62D
330
24
100
AcDbEntity
  8
Defpoints
 62
     0
100
AcDbPoint
 10
34.713838
 20
83.325404
 30
0.0
  0
POINT
  5
62E
330
24
100
AcDbEntity
  8
Defpoints
 62
     0
100
AcDbPoint
 10
34.713838
 20
121.325404
 30
0.0
  0
POINT
  5
62F
330
24
100
AcDbEntity
  8
Defpoints
 62
     0
100
AcDbPoint
 10
11.74880400000002
 20
121.325404
 30
0.0
  0
ENDBLK
  5
2B0
330
24
100
AcDbEntity
  8
Hawa1
100
AcDbBlockEnd
  0
BLOCK
  5
2B1
330
26
100
AcDbEntity
  8
Hawa1
100
AcDbBlockBegin
  2
*D3
 70
     1
 10
0.0
 20
0.0
 30
0.0
  3
*D3
  1

  0
LINE
  5
61E
330
26
100
AcDbEntity
  8
Hawa1
370
    -2
100
AcDbLine
 10
55.68739530088213
 20
120.8010539997227
 30
0.0
 11
55.68778555220418
 21
144.2389509606418
 31
0.0
  0
LINE
  5
61F
330
26
100
AcDbEntity
  8
Hawa1
370
    -2
100
AcDbLine
 10
34.71387130088213
 20
123.3254039997228
 30
0.0
 11
34.71421952647793
 21
144.2393001797669
 31
0.0
  0
LINE
  5
620
330
26
100
AcDbEntity
  8
Hawa1
370
    -2
100
AcDbLine
 10
56.68776890162451
 20
143.2389343103394
 30
0.0
 11
33.71420287617549
 21
143.2393168303466
 31
0.0
  0
INSERT
  5
621
330
26
100
AcDbEntity
  8
Hawa1
370
    -2
100
AcDbBlockReference
  2
_Oblique
 10
55.68776890176312
 20
143.2389509607804
 30
0.0
 41
2.0
 42
2.0
 43
2.0
 50
359.999046
  0
INSERT
  5
622
330
26
100
AcDbEntity
  8
Hawa1
370
    -2
100
AcDbBlockReference
  2
_Oblique
 10
34.71420287603687
 20
143.2393001799055
 30
0.0
 41
2.0
 42
2.0
 43
2.0
 50
179.999046
  0
MTEXT
  5
623
330
26
100
AcDbEntity
  8
Hawa1
100
AcDbMText
 10
45.20105988929355
 20
147.6834759194882
 30
0.0
 40
3.5
 41
0.0
 71
     5
 72
     1
  1
\A1;21 [{\H0.711429x;\S13/16;}"]
  7
Beschlag
 11
0.9999999998613814
 21
-0.0000166504410634
 31
0.0
 73
     1
 44
1.0
1001
ACAD
1000
MTEXTBEGIN
1070
    73
1070
     1
1070
    44
1040
1.0
1070
    74
1070
     0
1000
MTEXTEND
  0
POINT
  5
624
330
26
100
AcDbEntity
  8
Defpoints
 62
     0
100
AcDbPoint
 10
55.687362
 20
118.801054
 30
0.0
  0
POINT
  5
625
330
26
100
AcDbEntity
  8
Defpoints
 62
     0
100
AcDbPoint
 10
34.71383800000001
 20
121.325404
 30
0.0
  0
POINT
  5
626
330
26
100
AcDbEntity
  8
Defpoints
 62
     0
100
AcDbPoint
 10
34.71420287603687
 20
143.2393001799055
 30
0.0
  0
ENDBLK
  5
2BD
330
26
100
AcDbEntity
  8
Hawa1
100
AcDbBlockEnd
  0
BLOCK
  5
2BE
330
28
100
AcDbEntity
  8
Hawa1
100
AcDbBlockBegin
  2
*D4
 70
     1
 10
0.0
 20
0.0
 30
0.0
  3
*D4
  1

  0
LINE
  5
6F6
330
28
100
AcDbEntity
  8
Hawa1
370
    -2
100
AcDbLine
 10
184.2682179993761
 20
102.3253540486768
 30
0.0
 11
213.5338728365398
 21
102.324623119585
 31
0.0
  0
LINE
  5
6F7
330
28
100
AcDbEntity
  8
Hawa1
370
    -2
100
AcDbLine
 10
206.4076949993761
 20
71.3253540486768
 30
0.0
 11
213.5330986048408
 21
71.32517608700758
 31
0.0
  0
LINE
  5
6F8
330
28
100
AcDbEntity
  8
Hawa1
370
    -2
100
AcDbLine
 10
212.5338978125133
 20
103.3246480949347
 30
0.0
 11
212.5330736294912
 21
70.32520106298105
 31
0.0
  0
INSERT
  5
6F9
330
28
100
AcDbEntity
  8
Hawa1
370
    -2
100
AcDbBlockReference
  2
_Oblique
 10
212.5338728368517
 20
102.3246480952466
 30
0.0
 41
2.0
 42
2.0
 43
2.0
 50
89.99856899999997
  0
INSERT
  5
6FA
330
28
100
AcDbEntity
  8
Hawa1
370
    -2
100
AcDbBlockReference
  2
_Oblique
 10
212.5330986051527
 20
71.32520106266916
 30
0.0
 41
2.0
 42
2.0
 43
2.0
 50
269.998569
  0
MTEXT
  5
6FB
330
28
100
AcDbEntity
  8
Hawa1
100
AcDbMText
 10
208.1315978900381
 20
86.82539077157276
 30
0.0
 40
3.5
 41
0.0
 71
     5
 72
     1
  1
\A1;31 [1{\H0.711429x;\S7/32;}"]
  7
Beschlag
 11
0.0000249756615941
 21
0.9999999996881081
 31
0.0
 73
     1
 44
1.0
1001
ACAD
1000
MTEXTBEGIN
1070
    73
1070
     1
1070
    44
1040
1.0
1070
    74
1070
     0
1000
MTEXTEND
  0
POINT
  5
6FC
330
28
100
AcDbEntity
  8
Defpoints
 62
     0
100
AcDbPoint
 10
182.2682179999999
 20
102.325404
 30
0.0
  0
POINT
  5
6FD
330
28
100
AcDbEntity
  8
Defpoints
 62
     0
100
AcDbPoint
 10
204.407695
 20
71.32540399999999
 30
0.0
  0
POINT
  5
6FE
330
28
100
AcDbEntity
  8
Defpoints
 62
     0
100
AcDbPoint
 10
212.5330986051527
 20
71.32520106266916
 30
0.0
  0
ENDBLK
  5
2CB
330
28
100
AcDbEntity
  8
Hawa1
100
AcDbBlockEnd
  0
BLOCK
  5
2CC
330
2A
100
AcDbEntity
  8
Hawa1
100
AcDbBlockBegin
  2
*D5
 70
     1
 10
0.0
 20
0.0
 30
0.0
  3
*D5
  1

  0
LINE
  5
759
330
2A
100
AcDbEntity
  8
Hawa1
370
    -2
100
AcDbLine
 10
180.4036579993762
 20
97.32535404867681
 30
0.0
 11
192.5145350813749
 21
97.3250515715091
 31
0.0
  0
LINE
  5
75A
330
2A
100
AcDbEntity
  8
Hawa1
370
    -2
100
AcDbLine
 10
202.3708820006237
 20
76.32545395132317
 30
0.0
 11
190.5140106093033
 21
76.3257500845307
 31
0.0
  0
LINE
  5
75B
330
2A
100
AcDbEntity
  8
Hawa1
370
    -2
100
AcDbLine
 10
191.5140106089914
 20
76.32572510886909
 30
0.0
 11
191.5145600573484
 21
98.3250765468588
 31
0.0
  0
LINE
  5
75C
330
2A
100
AcDbEntity
  8
Hawa1
370
    -2
100
AcDbLine
 10
191.5145350816868
 20
97.32507654717068
 30
0.0
 11
191.515456356849
 21
134.2119937764673
 31
0.0
  0
INSERT
  5
75D
330
2A
100
AcDbEntity
  8
Hawa1
370
    -2
100
AcDbBlockReference
  2
_Oblique
 10
191.5140106089914
 20
76.32572510886909
 30
0.0
 41
2.0
 42
2.0
 43
2.0
 50
269.998569
  0
INSERT
  5
75E
330
2A
100
AcDbEntity
  8
Hawa1
370
    -2
100
AcDbBlockReference
  2
_Oblique
 10
191.5145350816868
 20
97.32507654717068
 30
0.0
 41
2.0
 42
2.0
 43
2.0
 50
89.99856899999997
  0
MTEXT
  5
75F
330
2A
100
AcDbEntity
  8
Hawa1
100
AcDbMText
 10
187.1184308481371
 20
126.0805551614473
 30
0.0
 40
3.5
 41
0.0
 71
     5
 72
     1
  1
\A1;-21 [{\H0.7x;\S13/16;}"]
  7
Beschlag
 11
0.0000249756615941
 21
0.9999999996881081
 31
0.0
 73
     1
 44
1.0
1001
ACAD
1000
MTEXTBEGIN
1070
    73
1070
     1
1070
    44
1040
1.0
1070
    74
1070
     0
1000
MTEXTEND
  0
POINT
  5
760
330
2A
100
AcDbEntity
  8
Defpoints
 62
     0
100
AcDbPoint
 10
178.4036579999999
 20
97.32540399999997
 30
0.0
  0
POINT
  5
761
330
2A
100
AcDbEntity
  8
Defpoints
 62
     0
100
AcDbPoint
 10
204.3708819999999
 20
76.32540399999998
 30
0.0
  0
POINT
  5
762
330
2A
100
AcDbEntity
  8
Defpoints
 62
     0
100
AcDbPoint
 10
191.5140106089914
 20
76.32572510886909
 30
0.0
  0
ENDBLK
  5
2D8
330
2A
100
AcDbEntity
  8
Hawa1
100
AcDbBlockEnd
  0
BLOCK
  5
2D9
330
2C
100
AcDbEntity
  8
Hawa1
100
AcDbBlockBegin
  2
*D6
 70
     1
 10
0.0
 20
0.0
 30
0.0
  3
*D6
  1

  0
LINE
  5
76D
330
2C
100
AcDbEntity
  8
Hawa1
370
    -2
100
AcDbLine
 10
180.4036579993762
 20
97.32535404867681
 30
0.0
 11
192.514950443409
 21
97.32505156113516
 31
0.0
  0
LINE
  5
76E
330
2C
100
AcDbEntity
  8
Hawa1
370
    -2
100
AcDbLine
 10
202.3708820006237
 20
76.32545395132317
 30
0.0
 11
190.5144259713374
 21
76.32575007415674
 31
0.0
  0
LINE
  5
76F
330
2C
100
AcDbEntity
  8
Hawa1
370
    -2
100
AcDbLine
 10
191.5144259710255
 20
76.32572509849516
 30
0.0
 11
191.5149754193825
 21
98.32507653648486
 31
0.0
  0
LINE
  5
770
330
2C
100
AcDbEntity
  8
Hawa1
370
    -2
100
AcDbLine
 10
191.5149504437209
 20
97.32507653679675
 30
0.0
 11
191.5154669637175
 21
118.0060100332477
 31
0.0
  0
INSERT
  5
771
330
2C
100
AcDbEntity
  8
Hawa1
370
    -2
100
AcDbBlockReference
  2
_Oblique
 10
191.5144259710255
 20
76.32572509849516
 30
0.0
 41
2.0
 42
2.0
 43
2.0
 50
269.998569
  0
INSERT
  5
772
330
2C
100
AcDbEntity
  8
Hawa1
370
    -2
100
AcDbBlockReference
  2
_Oblique
 10
191.5149504437209
 20
97.32507653679675
 30
0.0
 41
2.0
 42
2.0
 43
2.0
 50
89.99856899999997
  0
MTEXT
  5
773
330
2C
100
AcDbEntity
  8
Hawa1
100
AcDbMText
 10
187.1184563524936
 20
110.4710516363226
 30
0.0
 40
3.5
 41
0.0
 71
     5
 72
     1
  1
\A1;20 [{\H0.7x;\S25/32;}"]
  7
Beschlag
 11
0.0000249756615941
 21
0.9999999996881081
 31
0.0
 73
     1
 44
1.0
1001
ACAD
1000
MTEXTBEGIN
1070
    73
1070
     1
1070
    44
1040
1.0
1070
    74
1070
     0
1000
MTEXTEND
  0
POINT
  5
774
330
2C
100
AcDbEntity
  8
Defpoints
 62
     0
100
AcDbPoint
 10
178.4036579999999
 20
97.32540399999997
 30
0.0
  0
POINT
  5
775
330
2C
100
AcDbEntity
  8
Defpoints
 62
     0
100
AcDbPoint
 10
204.3708819999999
 20
76.32540399999998
 30
0.0
  0
POINT
  5
776
330
2C
100
AcDbEntity
  8
Defpoints
 62
     0
100
AcDbPoint
 10
191.5144259710255
 20
76.32572509849516
 30
0.0
  0
ENDBLK
  5
2E4
330
2C
100
AcDbEntity
  8
Hawa1
100
AcDbBlockEnd
  0
BLOCK
  5
2E5
330
2E
100
AcDbEntity
  8
Hawa1
100
AcDbBlockBegin
  2
*D7
 70
     1
 10
0.0
 20
0.0
 30
0.0
  3
*D7
  1

  0
LINE
  5
5FA
330
2E
100
AcDbEntity
  8
Hawa1
370
    -2
100
AcDbLine
 10
179.4036913008821
 20
108.3254039997228
 30
0.0
 11
179.4037937882887
 21
114.480640736851
 31
0.0
  0
LINE
  5
5FB
330
2E
100
AcDbEntity
  8
Hawa1
370
    -2
100
AcDbLine
 10
129.4036913008822
 20
80.47540399972277
 30
0.0
 11
129.4042575169341
 21
114.481473251183
 31
0.0
  0
LINE
  5
5FC
330
2E
100
AcDbEntity
  8
Hawa1
370
    -2
100
AcDbLine
 10
180.403777137709
 20
113.4806240865486
 30
0.0
 11
128.4042408666316
 21
113.4814899017627
 31
0.0
  0
INSERT
  5
5FD
330
2E
100
AcDbEntity
  8
Hawa1
370
    -2
100
AcDbBlockReference
  2
_Oblique
 10
179.4037771378476
 20
113.4806407369897
 30
0.0
 41
2.0
 42
2.0
 43
2.0
 50
359.999046
  0
INSERT
  5
5FE
330
2E
100
AcDbEntity
  8
Hawa1
370
    -2
100
AcDbBlockReference
  2
_Oblique
 10
129.404240866493
 20
113.4814732513217
 30
0.0
 41
2.0
 42
2.0
 43
2.0
 50
179.999046
  0
MTEXT
  5
5FF
330
2E
100
AcDbEntity
  8
Hawa1
100
AcDbMText
 10
154.4040830167043
 20
117.9262565934713
 30
0.0
 40
3.5
 41
0.0
 71
     5
 72
     1
  1
\A1;=>50 [1{\H0.711429x;\S31/32;}"]
  7
Beschlag
 11
0.9999999998613814
 21
-0.0000166504410634
 31
0.0
 73
     1
 44
1.0
1001
ACAD
1000
MTEXTBEGIN
1070
    73
1070
     1
1070
    44
1040
1.0
1070
    74
1070
     0
1000
MTEXTEND
  0
POINT
  5
600
330
2E
100
AcDbEntity
  8
Defpoints
 62
     0
100
AcDbPoint
 10
179.403658
 20
106.325404
 30
0.0
  0
POINT
  5
601
330
2E
100
AcDbEntity
  8
Defpoints
 62
     0
100
AcDbPoint
 10
129.403658
 20
78.47540399999999
 30
0.0
  0
POINT
  5
602
330
2E
100
AcDbEntity
  8
Defpoints
 62
     0
100
AcDbPoint
 10
129.404240866493
 20
113.4814732513217
 30
0.0
  0
ENDBLK
  5
2FB
330
2E
100
AcDbEntity
  8
Hawa1
100
AcDbBlockEnd
  0
BLOCK
  5
2FC
330
30
100
AcDbEntity
  8
Hawa1
100
AcDbBlockBegin
  2
*D8
 70
     1
 10
0.0
 20
0.0
 30
0.0
  3
*D8
  1

  0
LINE
  5
790
330
30
100
AcDbEntity
  8
Hawa1
370
    -2
100
AcDbLine
 10
92.50522
 20
107.325404
 30
0.0
 11
79.83913766979338
 21
107.325404
 31
0.0
  0
LINE
  5
791
330
30
100
AcDbEntity
  8
Hawa1
370
    -2
100
AcDbLine
 10
92.50522
 20
97.32540400000001
 30
0.0
 11
79.83913766979338
 21
97.32540400000001
 31
0.0
  0
LINE
  5
792
330
30
100
AcDbEntity
  8
Hawa1
370
    -2
100
AcDbLine
 10
80.83913766979339
 20
97.32540400000001
 30
0.0
 11
80.83913766979339
 21
108.325404
 31
0.0
  0
LINE
  5
793
330
30
100
AcDbEntity
  8
Hawa1
370
    -2
100
AcDbLine
 10
80.83913766979339
 20
107.325404
 30
0.0
 11
80.83913766979339
 21
140.5738324647334
 31
0.0
  0
INSERT
  5
794
330
30
100
AcDbEntity
  8
Hawa1
370
    -2
100
AcDbBlockReference
  2
_Oblique
 10
80.83913766979339
 20
97.32540400000001
 30
0.0
 41
2.0
 42
2.0
 43
2.0
 50
270.0
  0
INSERT
  5
795
330
30
100
AcDbEntity
  8
Hawa1
370
    -2
100
AcDbBlockReference
  2
_Oblique
 10
80.83913766979339
 20
107.325404
 30
0.0
 41
2.0
 42
2.0
 43
2.0
 50
90.0
  0
MTEXT
  5
796
330
30
100
AcDbEntity
  8
Hawa1
100
AcDbMText
 10
76.48478545856099
 20
131.3521939807635
 30
0.0
 40
3.5
 41
0.0
 71
     5
 72
     1
  1
\A1;-12,7 [{\H0.7x;\S1/2;\H1.429x;"]}
  7
Beschlag
 11
0.0000000000000001
 21
1.0
 31
0.0
 73
     1
 44
1.0
1001
ACAD
1000
MTEXTBEGIN
1070
    73
1070
     1
1070
    44
1040
1.0
1070
    74
1070
     0
1000
MTEXTEND
  0
POINT
  5
797
330
30
100
AcDbEntity
  8
Defpoints
 62
     0
100
AcDbPoint
 10
94.50521999999999
 20
107.325404
 30
0.0
  0
POINT
  5
798
330
30
100
AcDbEntity
  8
Defpoints
 62
     0
100
AcDbPoint
 10
94.50521999999999
 20
97.32540400000001
 30
0.0
  0
POINT
  5
799
330
30
100
AcDbEntity
  8
Defpoints
 62
     0
100
AcDbPoint
 10
80.83913766979339
 20
97.32540400000001
 30
0.0
  0
ENDBLK
  5
307
330
30
100
AcDbEntity
  8
Hawa1
100
AcDbBlockEnd
  0
BLOCK
  5
308
330
32
100
AcDbEntity
  8
Hawa1
100
AcDbBlockBegin
  2
*D9
 70
     1
 10
0.0
 20
0.0
 30
0.0
  3
*D9
  1

  0
LINE
  5
786
330
32
100
AcDbEntity
  8
Hawa1
370
    -2
100
AcDbLine
 10
92.50522
 20
107.325404
 30
0.0
 11
79.83913766979336
 21
107.325404
 31
0.0
  0
LINE
  5
787
330
32
100
AcDbEntity
  8
Hawa1
370
    -2
100
AcDbLine
 10
92.50522
 20
97.32540400000001
 30
0.0
 11
79.83913766979336
 21
97.32540400000001
 31
0.0
  0
LINE
  5
788
330
32
100
AcDbEntity
  8
Hawa1
370
    -2
100
AcDbLine
 10
80.83913766979335
 20
97.32540400000001
 30
0.0
 11
80.83913766979335
 21
108.325404
 31
0.0
  0
LINE
  5
789
330
32
100
AcDbEntity
  8
Hawa1
370
    -2
100
AcDbLine
 10
80.83913766979335
 20
107.325404
 30
0.0
 11
80.83913766979335
 21
121.6359987417421
 31
0.0
  0
INSERT
  5
78A
330
32
100
AcDbEntity
  8
Hawa1
370
    -2
100
AcDbBlockReference
  2
_Oblique
 10
80.83913766979335
 20
97.32540400000001
 30
0.0
 41
2.0
 42
2.0
 43
2.0
 50
270.0
  0
INSERT
  5
78B
330
32
100
AcDbEntity
  8
Hawa1
370
    -2
100
AcDbBlockReference
  2
_Oblique
 10
80.83913766979335
 20
107.325404
 30
0.0
 41
2.0
 42
2.0
 43
2.0
 50
90.0
  0
MTEXT
  5
78C
330
32
100
AcDbEntity
  8
Hawa1
100
AcDbMText
 10
76.46487664205345
 20
115.4807013708711
 30
0.0
 40
3.5
 41
0.0
 71
     5
 72
     1
  1
\A1;8 [{\H0.7x;\S5/16;\H1.429x;"\H0.9997x;]}
  7
Beschlag
 11
0.0000000000000001
 21
1.0
 31
0.0
 73
     1
 44
1.0
1001
ACAD
1000
MTEXTBEGIN
1070
    73
1070
     1
1070
    44
1040
1.0
1070
    74
1070
     0
1000
MTEXTEND
  0
POINT
  5
78D
330
32
100
AcDbEntity
  8
Defpoints
 62
     0
100
AcDbPoint
 10
94.50521999999999
 20
107.325404
 30
0.0
  0
POINT
  5
78E
330
32
100
AcDbEntity
  8
Defpoints
 62
     0
100
AcDbPoint
 10
94.50521999999999
 20
97.32540400000001
 30
0.0
  0
POINT
  5
78F
330
32
100
AcDbEntity
  8
Defpoints
 62
     0
100
AcDbPoint
 10
80.83913766979335
 20
97.32540400000001
 30
0.0
  0
ENDBLK
  5
312
330
32
100
AcDbEntity
  8
Hawa1
100
AcDbBlockEnd
  0
BLOCK
  5
313
330
34
100
AcDbEntity
  8
Hawa1
100
AcDbBlockBegin
  2
*D10
 70
     1
 10
0.0
 20
0.0
 30
0.0
  3
*D10
  1

  0
LINE
  5
6A6
330
34
100
AcDbEntity
  8
Hawa1
370
    -2
100
AcDbLine
 10
128.403658
 20
63.175404
 30
0.0
 11
105.100729
 21
63.17540400000001
 31
0.0
  0
LINE
  5
6A7
330
34
100
AcDbEntity
  8
Hawa1
370
    -2
100
AcDbLine
 10
128.403658
 20
79.475404
 30
0.0
 11
105.100729
 21
79.475404
 31
0.0
  0
LINE
  5
6A8
330
34
100
AcDbEntity
  8
Hawa1
370
    -2
100
AcDbLine
 10
106.100729
 20
79.475404
 30
0.0
 11
106.100729
 21
62.175404
 31
0.0
  0
LINE
  5
6A9
330
34
100
AcDbEntity
  8
Hawa1
370
    -2
100
AcDbLine
 10
106.100729
 20
63.17540400000001
 30
0.0
 11
106.100729
 21
40.753529438355
 31
0.0
  0
INSERT
  5
6AA
330
34
100
AcDbEntity
  8
Hawa1
370
    -2
100
AcDbBlockReference
  2
_Oblique
 10
106.100729
 20
79.475404
 30
0.0
 41
2.0
 42
2.0
 43
2.0
 50
90.0
  0
INSERT
  5
6AB
330
34
100
AcDbEntity
  8
Hawa1
370
    -2
100
AcDbBlockReference
  2
_Oblique
 10
106.100729
 20
63.17540400000001
 30
0.0
 41
2.0
 42
2.0
 43
2.0
 50
270.0
  0
MTEXT
  5
6AC
330
34
100
AcDbEntity
  8
Hawa1
100
AcDbMText
 10
101.677609904502
 20
49.93615731888024
 30
0.0
 40
3.5
 41
0.0
 71
     5
 72
     1
  1
\A1;16.3 [{\H0.711429x;\S21/32;}"]
  7
Beschlag
 11
0.0000000000000001
 21
1.0
 31
0.0
 73
     1
 44
1.0
1001
ACAD
1000
MTEXTBEGIN
1070
    73
1070
     1
1070
    44
1040
1.0
1070
    74
1070
     0
1000
MTEXTEND
  0
POINT
  5
6AD
330
34
100
AcDbEntity
  8
Defpoints
 62
     0
100
AcDbPoint
 10
130.403658
 20
63.175404
 30
0.0
  0
POINT
  5
6AE
330
34
100
AcDbEntity
  8
Defpoints
 62
     0
100
AcDbPoint
 10
130.403658
 20
79.475404
 30
0.0
  0
POINT
  5
6AF
330
34
100
AcDbEntity
  8
Defpoints
 62
     0
100
AcDbPoint
 10
106.100729
 20
79.475404
 30
0.0
  0
ENDBLK
  5
31F
330
34
100
AcDbEntity
  8
Hawa1
100
AcDbBlockEnd
  0
BLOCK
  5
320
330
36
100
AcDbEntity
  8
Hawa1
100
AcDbBlockBegin
  2
*D11
 70
     1
 10
0.0
 20
0.0
 30
0.0
  3
*D11
  1

  0
LINE
  5
6B0
330
36
100
AcDbEntity
  8
Hawa1
370
    -2
100
AcDbLine
 10
129.4035913982357
 20
62.17540400110896
 30
0.0
 11
129.4032132170587
 21
50.81891273888366
 31
0.0
  0
LINE
  5
6B1
330
36
100
AcDbEntity
  8
Hawa1
370
    -2
100
AcDbLine
 10
136.1035913982357
 20
65.22540400110895
 30
0.0
 11
136.1031116419383
 21
50.81868962635587
 31
0.0
  0
LINE
  5
6B2
330
36
100
AcDbEntity
  8
Hawa1
370
    -2
100
AcDbLine
 10
136.1031449428204
 20
51.81868962580139
 30
0.0
 11
128.4032465184953
 21
51.81894603921132
 31
0.0
  0
LINE
  5
6B3
330
36
100
AcDbEntity
  8
Hawa1
370
    -2
100
AcDbLine
 10
129.4032465179408
 20
51.8189127383292
 30
0.0
 11
112.8073096231865
 21
51.81946539766774
 31
0.0
  0
INSERT
  5
6B4
330
36
100
AcDbEntity
  8
Hawa1
370
    -2
100
AcDbBlockReference
  2
_Oblique
 10
136.1031449428204
 20
51.81868962580139
 30
0.0
 41
2.0
 42
2.0
 43
2.0
 50
359.998092
  0
INSERT
  5
6B5
330
36
100
AcDbEntity
  8
Hawa1
370
    -2
100
AcDbBlockReference
  2
_Oblique
 10
129.4032465179408
 20
51.8189127383292
 30
0.0
 41
2.0
 42
2.0
 43
2.0
 50
179.998092
  0
MTEXT
  5
6B6
330
36
100
AcDbEntity
  8
Hawa1
100
AcDbMText
 10
120.1054244599008
 20
56.21516545648408
 30
0.0
 40
3.5
 41
0.0
 71
     5
 72
     1
  1
\A1;6.7 [{\H0.711429x;\S1/4;}"]
  7
Beschlag
 11
0.9999999994455256
 21
-0.0000333008821221
 31
0.0
 73
     1
 44
1.0
1001
ACAD
1000
MTEXTBEGIN
1070
    73
1070
     1
1070
    44
1040
1.0
1070
    74
1070
     0
1000
MTEXTEND
  0
POINT
  5
6B7
330
36
100
AcDbEntity
  8
Defpoints
 62
     0
100
AcDbPoint
 10
129.403658
 20
64.17540400000001
 30
0.0
  0
POINT
  5
6B8
330
36
100
AcDbEntity
  8
Defpoints
 62
     0
100
AcDbPoint
 10
136.103658
 20
67.22540400000001
 30
0.0
  0
POINT
  5
6B9
330
36
100
AcDbEntity
  8
Defpoints
 62
     0
100
AcDbPoint
 10
136.1031449428204
 20
51.81868962580139
 30
0.0
  0
ENDBLK
  5
32C
330
36
100
AcDbEntity
  8
Hawa1
100
AcDbBlockEnd
  0
BLOCK
  5
32D
330
38
100
AcDbEntity
  8
Hawa1
100
AcDbBlockBegin
  2
*D12
 70
     1
 10
0.0
 20
0.0
 30
0.0
  3
*D12
  1

  0
LINE
  5
6BA
330
38
100
AcDbEntity
  8
Hawa1
370
    -2
100
AcDbLine
 10
129.4035913982357
 20
62.17540400110896
 30
0.0
 11
129.4028634385383
 21
40.31533151480234
 31
0.0
  0
LINE
  5
6BB
330
38
100
AcDbEntity
  8
Hawa1
370
    -2
100
AcDbLine
 10
136.8535913982357
 20
64.91474300110896
 30
0.0
 11
136.8527722078715
 21
40.31508342626845
 31
0.0
  0
LINE
  5
6BC
330
38
100
AcDbEntity
  8
Hawa1
370
    -2
100
AcDbLine
 10
136.8528055087536
 20
41.31508342571398
 30
0.0
 11
128.4028967399749
 21
41.31536481512998
 31
0.0
  0
LINE
  5
6BD
330
38
100
AcDbEntity
  8
Hawa1
370
    -2
100
AcDbLine
 10
129.4028967394204
 20
41.31533151424785
 30
0.0
 11
111.2142780962313
 21
41.3159372112936
 31
0.0
  0
INSERT
  5
6BE
330
38
100
AcDbEntity
  8
Hawa1
370
    -2
100
AcDbBlockReference
  2
_Oblique
 10
136.8528055087536
 20
41.31508342571398
 30
0.0
 41
2.0
 42
2.0
 43
2.0
 50
359.998092
  0
INSERT
  5
6BF
330
38
100
AcDbEntity
  8
Hawa1
370
    -2
100
AcDbBlockReference
  2
_Oblique
 10
129.4028967394204
 20
41.31533151424785
 30
0.0
 41
2.0
 42
2.0
 43
2.0
 50
179.998092
  0
MTEXT
  5
6C0
330
38
100
AcDbEntity
  8
Hawa1
100
AcDbMText
 10
119.3087354191675
 20
45.76001801094983
 30
0.0
 40
3.5
 41
0.0
 71
     5
 72
     1
  1
\A1;7.4 [{\H0.711429x;\S9/32;}"]
  7
Beschlag
 11
0.9999999994455256
 21
-0.0000333008821221
 31
0.0
 73
     1
 44
1.0
1001
ACAD
1000
MTEXTBEGIN
1070
    73
1070
     1
1070
    44
1040
1.0
1070
    74
1070
     0
1000
MTEXTEND
  0
POINT
  5
6C1
330
38
100
AcDbEntity
  8
Defpoints
 62
     0
100
AcDbPoint
 10
129.403658
 20
64.17540400000001
 30
0.0
  0
POINT
  5
6C2
330
38
100
AcDbEntity
  8
Defpoints
 62
     0
100
AcDbPoint
 10
136.853658
 20
66.914743
 30
0.0
  0
POINT
  5
6C3
330
38
100
AcDbEntity
  8
Defpoints
 62
     0
100
AcDbPoint
 10
136.8528055087536
 20
41.31508342571398
 30
0.0
  0
ENDBLK
  5
339
330
38
100
AcDbEntity
  8
Hawa1
100
AcDbBlockEnd
  0
BLOCK
  5
33A
330
3A
100
AcDbEntity
  8
Hawa1
100
AcDbBlockBegin
  2
*D13
 70
     1
 10
0.0
 20
0.0
 30
0.0
  3
*D13
  1

  0
LINE
  5
5BF
330
3A
100
AcDbEntity
  8
Hawa1
370
    -2
100
AcDbLine
 10
129.4035913982357
 20
62.17540400110896
 30
0.0
 11
129.4026019884161
 21
32.46418447729431
 31
0.0
  0
LINE
  5
5C0
330
3A
100
AcDbEntity
  8
Hawa1
370
    -2
100
AcDbLine
 10
143.4035913982357
 20
61.67540400110895
 30
0.0
 11
143.4026186233319
 21
32.46371826439038
 31
0.0
  0
LINE
  5
5C1
330
3A
100
AcDbEntity
  8
Hawa1
370
    -2
100
AcDbLine
 10
128.4026352898527
 20
33.46421777762195
 30
0.0
 11
143.402651924214
 21
33.46371826383591
 31
0.0
  0
LINE
  5
5C2
330
3A
100
AcDbEntity
  8
Hawa1
370
    -2
100
AcDbLine
 10
143.402651924214
 20
33.46371826383591
 30
0.0
 11
159.9098973309206
 21
33.46316855800215
 31
0.0
  0
INSERT
  5
5C3
330
3A
100
AcDbEntity
  8
Hawa1
370
    -2
100
AcDbBlockReference
  2
_Oblique
 10
129.4026352892982
 20
33.46418447673983
 30
0.0
 41
2.0
 42
2.0
 43
2.0
 50
179.998092
  0
INSERT
  5
5C4
330
3A
100
AcDbEntity
  8
Hawa1
370
    -2
100
AcDbBlockReference
  2
_Oblique
 10
143.402651924214
 20
33.46371826383591
 30
0.0
 41
2.0
 42
2.0
 43
2.0
 50
359.998092
  0
MTEXT
  5
5C5
330
3A
100
AcDbEntity
  8
Hawa1
100
AcDbMText
 10
152.6564225995192
 20
37.90691120716383
 30
0.0
 40
3.5
 41
0.0
 71
     5
 72
     1
  1
\A1;14 [{\H0.711429x;\S9/16;}"]
  7
Beschlag
 11
0.9999999994455256
 21
-0.0000333008821221
 31
0.0
 73
     1
 44
1.0
1001
ACAD
1000
MTEXTBEGIN
1070
    73
1070
     1
1070
    44
1040
1.0
1070
    74
1070
     0
1000
MTEXTEND
  0
POINT
  5
5C6
330
3A
100
AcDbEntity
  8
Defpoints
 62
     0
100
AcDbPoint
 10
129.403658
 20
64.17540400000001
 30
0.0
  0
POINT
  5
5C7
330
3A
100
AcDbEntity
  8
Defpoints
 62
     0
100
AcDbPoint
 10
143.403658
 20
63.675404
 30
0.0
  0
POINT
  5
5C8
330
3A
100
AcDbEntity
  8
Defpoints
 62
     0
100
AcDbPoint
 10
143.402651924214
 20
33.46371826383591
 30
0.0
  0
ENDBLK
  5
346
330
3A
100
AcDbEntity
  8
Hawa1
100
AcDbBlockEnd
  0
BLOCK
  5
347
330
3C
100
AcDbEntity
  8
Hawa1
100
AcDbBlockBegin
  2
*D14
 70
     1
 10
0.0
 20
0.0
 30
0.0
  3
*D14
  1

  0
LINE
  5
79A
330
3C
100
AcDbEntity
  8
Hawa1
370
    -2
100
AcDbLine
 10
237.6813790006237
 20
76.32545395132317
 30
0.0
 11
226.8856867613211
 21
76.3257235808793
 31
0.0
  0
LINE
  5
79B
330
3C
100
AcDbEntity
  8
Hawa1
370
    -2
100
AcDbLine
 10
216.3708819993761
 20
66.3253540486768
 30
0.0
 11
228.8854369882932
 21
66.32504148938629
 31
0.0
  0
LINE
  5
79C
330
3C
100
AcDbEntity
  8
Hawa1
370
    -2
100
AcDbLine
 10
227.8854369886051
 20
66.32506646504788
 30
0.0
 11
227.8857117366708
 21
77.32569860490581
 31
0.0
  0
LINE
  5
79D
330
3C
100
AcDbEntity
  8
Hawa1
370
    -2
100
AcDbLine
 10
227.8856867610092
 20
76.32569860521769
 30
0.0
 11
227.8861504113273
 21
94.88978413380575
 31
0.0
  0
INSERT
  5
79E
330
3C
100
AcDbEntity
  8
Hawa1
370
    -2
100
AcDbBlockReference
  2
_Oblique
 10
227.8854369886051
 20
66.32506646504788
 30
0.0
 41
2.0
 42
2.0
 43
2.0
 50
269.998569
  0
INSERT
  5
79F
330
3C
100
AcDbEntity
  8
Hawa1
370
    -2
100
AcDbBlockReference
  2
_Oblique
 10
227.8856867610092
 20
76.32569860521769
 30
0.0
 41
2.0
 42
2.0
 43
2.0
 50
89.99856899999997
  0
MTEXT
  5
7A0
330
3C
100
AcDbEntity
  8
Hawa1
100
AcDbMText
 10
223.5115898950652
 20
88.73445545116167
 30
0.0
 40
3.5
 41
0.0
 71
     5
 72
     1
  1
\A1;8 [{\H0.7x;\S5/16;\H1.429x;"]}
  7
Beschlag
 11
0.0000249756615941
 21
0.9999999996881081
 31
0.0
 73
     1
 44
1.0
1001
ACAD
1000
MTEXTBEGIN
1070
    73
1070
     1
1070
    44
1040
1.0
1070
    74
1070
     0
1000
MTEXTEND
  0
POINT
  5
7A1
330
3C
100
AcDbEntity
  8
Defpoints
 62
     0
100
AcDbPoint
 10
239.6813789999999
 20
76.32540399999998
 30
0.0
  0
POINT
  5
7A2
330
3C
100
AcDbEntity
  8
Defpoints
 62
     0
100
AcDbPoint
 10
214.370882
 20
66.32540399999999
 30
0.0
  0
POINT
  5
7A3
330
3C
100
AcDbEntity
  8
Defpoints
 62
     0
100
AcDbPoint
 10
227.8854369886051
 20
66.32506646504788
 30
0.0
  0
ENDBLK
  5
351
330
3C
100
AcDbEntity
  8
Hawa1
100
AcDbBlockEnd
  0
BLOCK
  5
352
330
3E
100
AcDbEntity
  8
Hawa1
100
AcDbBlockBegin
  2
*D15
 70
     1
 10
0.0
 20
0.0
 30
0.0
  3
*D15
  1

  0
LINE
  5
7A4
330
3E
100
AcDbEntity
  8
Hawa1
370
    -2
100
AcDbLine
 10
216.3708819999307
 20
66.32538734955892
 30
0.0
 11
228.8857809663392
 21
66.32528316026508
 31
0.0
  0
LINE
  5
7A5
330
3E
100
AcDbEntity
  8
Hawa1
370
    -2
100
AcDbLine
 10
237.6813790000693
 20
76.32542065044105
 30
0.0
 11
226.8858642203681
 21
76.32551052548236
 31
0.0
  0
LINE
  5
7A6
330
3E
100
AcDbEntity
  8
Hawa1
370
    -2
100
AcDbLine
 10
227.8857726411533
 20
65.32529148552028
 30
0.0
 11
227.8858642203334
 21
76.32550220026182
 31
0.0
  0
LINE
  5
7A7
330
3E
100
AcDbEntity
  8
Hawa1
370
    -2
100
AcDbLine
 10
227.8858642203334
 20
76.32550220026182
 30
0.0
 11
227.8861550124465
 21
111.2545604736627
 31
0.0
  0
INSERT
  5
7A8
330
3E
100
AcDbEntity
  8
Hawa1
370
    -2
100
AcDbBlockReference
  2
_Oblique
 10
227.8857809663738
 20
66.32529148548562
 30
0.0
 41
2.0
 42
2.0
 43
2.0
 50
269.9995229999999
  0
INSERT
  5
7A9
330
3E
100
AcDbEntity
  8
Hawa1
370
    -2
100
AcDbBlockReference
  2
_Oblique
 10
227.8858642203334
 20
76.32550220026182
 30
0.0
 41
2.0
 42
2.0
 43
2.0
 50
89.999523
  0
MTEXT
  5
7AA
330
3E
100
AcDbEntity
  8
Hawa1
100
AcDbMText
 10
223.489118375675
 20
103.0309241482313
 30
0.0
 40
3.5
 41
0.0
 71
     5
 72
     1
  1
\A1;-12 [{\H0.7x;\S15/32;\H1.429x;"]}
  7
Beschlag
 11
0.000008325220532
 21
0.9999999999653454
 31
0.0
 73
     1
 44
1.0
1001
ACAD
1000
MTEXTBEGIN
1070
    73
1070
     1
1070
    44
1040
1.0
1070
    74
1070
     0
1000
MTEXTEND
  0
POINT
  5
7AB
330
3E
100
AcDbEntity
  8
Defpoints
 62
     0
100
AcDbPoint
 10
214.370882
 20
66.32540399999999
 30
0.0
  0
POINT
  5
7AC
330
3E
100
AcDbEntity
  8
Defpoints
 62
     0
100
AcDbPoint
 10
239.6813789999999
 20
76.32540399999999
 30
0.0
  0
POINT
  5
7AD
330
3E
100
AcDbEntity
  8
Defpoints
 62
     0
100
AcDbPoint
 10
227.8858642203334
 20
76.32550220026182
 30
0.0
  0
ENDBLK
  5
35D
330
3E
100
AcDbEntity
  8
Hawa1
100
AcDbBlockEnd
  0
BLOCK
  5
35E
330
40
100
AcDbEntity
  8
Hawa1
100
AcDbBlockBegin
  2
*D16
 70
     1
 10
0.0
 20
0.0
 30
0.0
  3
*D16
  1

  0
LINE
  5
5A4
330
40
100
AcDbEntity
  8
Hawa1
370
    -2
100
AcDbLine
 10
260.73868
 20
81.825404
 30
0.0
 11
270.161682
 21
81.825404
 31
0.0
  0
LINE
  5
5A5
330
40
100
AcDbEntity
  8
Hawa1
370
    -2
100
AcDbLine
 10
260.73868
 20
60.825404
 30
0.0
 11
270.161682
 21
60.825404
 31
0.0
  0
LINE
  5
5A6
330
40
100
AcDbEntity
  8
Hawa1
370
    -2
100
AcDbLine
 10
269.161682
 20
82.825404
 30
0.0
 11
269.161682
 21
59.82540400000001
 31
0.0
  0
INSERT
  5
5A7
330
40
100
AcDbEntity
  8
Hawa1
370
    -2
100
AcDbBlockReference
  2
_Oblique
 10
269.161682
 20
81.825404
 30
0.0
 41
2.0
 42
2.0
 43
2.0
 50
90.0
  0
INSERT
  5
5A8
330
40
100
AcDbEntity
  8
Hawa1
370
    -2
100
AcDbBlockReference
  2
_Oblique
 10
269.161682
 20
60.825404
 30
0.0
 41
2.0
 42
2.0
 43
2.0
 50
270.0
  0
MTEXT
  5
5A9
330
40
100
AcDbEntity
  8
Hawa1
100
AcDbMText
 10
264.7173316502387
 20
71.32540400000005
 30
0.0
 40
3.5
 41
0.0
 71
     5
 72
     1
  1
\A1;21 [{\H0.711429x;\S13/16;}"]
  7
Beschlag
 11
0.0000000000000001
 21
1.0
 31
0.0
 73
     1
 44
1.0
1001
ACAD
1000
MTEXTBEGIN
1070
    73
1070
     1
1070
    44
1040
1.0
1070
    74
1070
     0
1000
MTEXTEND
  0
POINT
  5
5AA
330
40
100
AcDbEntity
  8
Defpoints
 62
     0
100
AcDbPoint
 10
258.73868
 20
81.825404
 30
0.0
  0
POINT
  5
5AB
330
40
100
AcDbEntity
  8
Defpoints
 62
     0
100
AcDbPoint
 10
258.73868
 20
60.825404
 30
0.0
  0
POINT
  5
5AC
330
40
100
AcDbEntity
  8
Defpoints
 62
     0
100
AcDbPoint
 10
269.161682
 20
60.825404
 30
0.0
  0
ENDBLK
  5
36A
330
40
100
AcDbEntity
  8
Hawa1
100
AcDbBlockEnd
  0
BLOCK
  5
36B
330
280
100
AcDbEntity
  8
0
100
AcDbBlockBegin
  2
BLOCK1
 70
     0
 10
0.0
 20
0.0
 30
0.0
  3
BLOCK1
  1

  0
LINE
  5
36C
330
280
100
AcDbEntity
  8
Hawa4
  6
DASHDOT
 62
     4
 48
0.039
100
AcDbLine
 10
151.947693
 20
118.039421
 30
0.0
 11
150.38768
 21
118.039421
 31
0.0
  0
LINE
  5
36D
330
280
100
AcDbEntity
  8
Hawa4
  6
DASHDOT
 62
     4
 48
0.039
100
AcDbLine
 10
151.167694
 20
118.81942
 30
0.0
 11
151.167694
 21
117.259422
 31
0.0
  0
ENDBLK
  5
36E
330
280
100
AcDbEntity
  8
0
100
AcDbBlockEnd
  0
BLOCK
  5
36F
330
281
100
AcDbEntity
  8
0
100
AcDbBlockBegin
  2
BLOCK2
 70
     0
 10
0.0
 20
0.0
 30
0.0
  3
BLOCK2
  1

  0
LINE
  5
370
330
281
100
AcDbEntity
  8
Hawa4
  6
DASHDOT
 62
     4
 48
0.039
100
AcDbLine
 10
151.947693
 20
133.339417
 30
0.0
 11
150.38768
 21
133.339417
 31
0.0
  0
LINE
  5
371
330
281
100
AcDbEntity
  8
Hawa4
  6
DASHDOT
 62
     4
 48
0.039
100
AcDbLine
 10
151.167694
 20
134.119415
 30
0.0
 11
151.167694
 21
132.559418
 31
0.0
  0
ENDBLK
  5
372
330
281
100
AcDbEntity
  8
0
100
AcDbBlockEnd
  0
BLOCK
  5
373
330
282
100
AcDbEntity
  8
0
100
AcDbBlockBegin
  2
BLOCK3
 70
     0
 10
0.0
 20
0.0
 30
0.0
  3
BLOCK3
  1

  0
LINE
  5
374
330
282
100
AcDbEntity
  8
Hawa2
 62
     9
 48
0.068375
100
AcDbLine
 10
143.091949
 20
117.123344
 30
0.0
 11
145.025879
 21
115.189423
 31
0.0
  0
LINE
  5
375
330
282
100
AcDbEntity
  8
Hawa2
 62
     9
 48
0.058901
100
AcDbLine
 10
146.188339
 20
116.855385
 30
0.0
 11
147.854294
 21
115.189423
 31
0.0
  0
LINE
  5
376
330
282
100
AcDbEntity
  8
Hawa2
 62
     9
 48
0.07955
100
AcDbLine
 10
148.432724
 20
117.439423
 30
0.0
 11
150.682724
 21
115.189423
 31
0.0
  0
LINE
  5
377
330
282
100
AcDbEntity
  8
Hawa2
 62
     9
 48
0.07955
100
AcDbLine
 10
151.261154
 20
117.439423
 30
0.0
 11
153.511154
 21
115.189423
 31
0.0
  0
LINE
  5
378
330
282
100
AcDbEntity
  8
Hawa2
 62
     9
 48
0.07955
100
AcDbLine
 10
154.089584
 20
117.439423
 30
0.0
 11
156.339584
 21
115.189423
 31
0.0
  0
LINE
  5
379
330
282
100
AcDbEntity
  8
Hawa2
 62
     9
 48
0.088388
100
AcDbLine
 10
154.591949
 20
119.76548
 30
0.0
 11
157.091949
 21
117.26548
 31
0.0
  0
LINE
  5
37A
330
282
100
AcDbEntity
  8
Hawa2
 62
     9
 48
0.088388
100
AcDbLine
 10
154.591949
 20
122.59391
 30
0.0
 11
157.091949
 21
120.09391
 31
0.0
  0
LINE
  5
37B
330
282
100
AcDbEntity
  8
Hawa2
 62
     9
 48
0.067048
100
AcDbLine
 10
143.82486
 20
136.189423
 30
0.0
 11
145.721268
 21
134.293015
 31
0.0
  0
LINE
  5
37C
330
282
100
AcDbEntity
  8
Hawa2
 62
     9
 48
0.087806
100
AcDbLine
 10
154.608414
 20
125.405876
 30
0.0
 11
157.091949
 21
122.922333
 31
0.0
  0
LINE
  5
37D
330
282
100
AcDbEntity
  8
Hawa2
 62
     9
 48
0.07892
100
AcDbLine
 10
146.65329
 20
136.189423
 30
0.0
 11
148.885483
 21
133.95723
 31
0.0
  0
LINE
  5
37E
330
282
100
AcDbEntity
  8
Hawa2
 62
     9
 48
0.088388
100
AcDbLine
 10
154.591949
 20
128.250763
 30
0.0
 11
157.091949
 21
125.750763
 31
0.0
  0
LINE
  5
37F
330
282
100
AcDbEntity
  8
Hawa2
 62
     9
 48
0.07955
100
AcDbLine
 10
149.48172
 20
136.189423
 30
0.0
 11
151.73172
 21
133.939423
 31
0.0
  0
LINE
  5
380
330
282
100
AcDbEntity
  8
Hawa2
 62
     9
 48
0.088388
100
AcDbLine
 10
154.591949
 20
131.079193
 30
0.0
 11
157.091949
 21
128.579193
 31
0.0
  0
LINE
  5
381
330
282
100
AcDbEntity
  8
Hawa2
 62
     9
 48
0.169062
100
AcDbLine
 10
152.31015
 20
136.189423
 30
0.0
 11
157.091949
 21
131.407608
 31
0.0
  0
LINE
  5
382
330
282
100
AcDbEntity
  8
Hawa2
 62
     9
 48
0.069063
100
AcDbLine
 10
155.138565
 20
136.189423
 30
0.0
 11
157.091949
 21
134.236038
 31
0.0
  0
ENDBLK
  5
383
330
282
100
AcDbEntity
  8
0
100
AcDbBlockEnd
  0
BLOCK
  5
384
330
283
100
AcDbEntity
  8
0
100
AcDbBlockBegin
  2
BLOCK4
 70
     0
 10
0.0
 20
0.0
 30
0.0
  3
BLOCK4
  1

  0
LINE
  5
385
330
283
100
AcDbEntity
  8
Hawa2
 62
     9
 48
0.008622
100
AcDbLine
 10
151.452805
 20
117.511681
 30
0.0
 11
151.696686
 21
117.755554
 31
0.0
  0
LINE
  5
386
330
283
100
AcDbEntity
  8
Hawa2
 62
     9
 48
0.060102
100
AcDbLine
 10
148.552124
 20
117.439423
 30
0.0
 11
150.252075
 21
119.139374
 31
0.0
  0
LINE
  5
387
330
283
100
AcDbEntity
  8
Hawa2
 62
     9
 48
0.04872
100
AcDbLine
 10
145.545685
 20
117.261421
 30
0.0
 11
146.923691
 21
118.63942
 31
0.0
  0
LINE
  5
388
330
283
100
AcDbEntity
  8
Hawa2
 62
     9
 48
0.01177
100
AcDbLine
 10
148.387115
 20
120.102837
 30
0.0
 11
148.720016
 21
120.435738
 31
0.0
  0
LINE
  5
389
330
283
100
AcDbEntity
  8
Hawa2
 62
     9
 48
0.030171
100
AcDbLine
 10
141.580963
 20
116.125114
 30
0.0
 11
142.434311
 21
116.97847
 31
0.0
  0
LINE
  5
38A
330
283
100
AcDbEntity
  8
Hawa2
 62
     9
 48
0.043011
100
AcDbLine
 10
142.878723
 20
117.422882
 30
0.0
 11
144.095261
 21
118.63942
 31
0.0
  0
LINE
  5
38B
330
283
100
AcDbEntity
  8
Hawa2
 62
     9
 48
0.018197
100
AcDbLine
 10
144.632385
 20
119.176537
 30
0.0
 11
145.147079
 21
119.691238
 31
0.0
  0
LINE
  5
38C
330
283
100
AcDbEntity
  8
Hawa2
 62
     9
 48
0.044371
100
AcDbLine
 10
140.249359
 20
117.621941
 30
0.0
 11
141.504364
 21
118.876945
 31
0.0
  0
LINE
  5
38D
330
283
100
AcDbEntity
  8
Hawa2
 62
     9
 48
0.008019
100
AcDbLine
 10
143.050171
 20
120.422752
 30
0.0
 11
143.276993
 21
120.649574
 31
0.0
  0
LINE
  5
38E
330
283
100
AcDbEntity
  8
Hawa2
 62
     9
 48
0.032411
100
AcDbLine
 10
138.80571
 20
119.006729
 30
0.0
 11
139.722427
 21
119.923439
 31
0.0
  0
LINE
  5
38F
330
283
100
AcDbEntity
  8
Hawa2
 62
     9
 48
0.01313
100
AcDbLine
 10
137.278534
 20
120.307968
 30
0.0
 11
137.649902
 21
120.679344
 31
0.0
  0
ENDBLK
  5
390
330
283
100
AcDbEntity
  8
0
100
AcDbBlockEnd
  0
BLOCK
  5
391
330
284
100
AcDbEntity
  8
0
100
AcDbBlockBegin
  2
BLOCK5
 70
     0
 10
0.0
 20
0.0
 30
0.0
  3
BLOCK5
  1

  0
LINE
  5
392
330
284
100
AcDbEntity
  8
Hawa2
 62
     9
 48
0.071771
100
AcDbLine
 10
148.87999
 20
131.909424
 30
0.0
 11
150.909988
 21
133.939423
 31
0.0
  0
LINE
  5
393
330
284
100
AcDbEntity
  8
Hawa2
 62
     9
 48
0.042426
100
AcDbLine
 10
146.881561
 20
132.739426
 30
0.0
 11
148.081558
 21
133.939423
 31
0.0
  0
LINE
  5
394
330
284
100
AcDbEntity
  8
Hawa2
 62
     9
 48
0.042426
100
AcDbLine
 10
144.053131
 20
132.739426
 30
0.0
 11
145.253128
 21
133.939423
 31
0.0
  0
LINE
  5
395
330
284
100
AcDbEntity
  8
Hawa2
 62
     9
 48
0.079096
100
AcDbLine
 10
140.359863
 20
131.874573
 30
0.0
 11
142.597031
 21
134.11174
 31
0.0
  0
ENDBLK
  5
396
330
284
100
AcDbEntity
  8
0
100
AcDbBlockEnd
  0
BLOCK
  5
397
330
285
100
AcDbEntity
  8
0
100
AcDbBlockBegin
  2
BLOCK6
 70
     0
 10
0.0
 20
0.0
 30
0.0
  3
BLOCK6
  1

  0
LINE
  5
398
330
285
100
AcDbEntity
  8
Hawa2
 62
     9
 48
0.080676
100
AcDbLine
 10
27.256929
 20
119.821281
 30
0.0
 11
29.538788
 21
117.539421
 31
0.0
  0
LINE
  5
399
330
285
100
AcDbEntity
  8
Hawa2
 62
     9
 48
0.180676
100
AcDbLine
 10
27.256929
 20
122.649712
 30
0.0
 11
32.367214
 21
117.539421
 31
0.0
  0
LINE
  5
39A
330
285
100
AcDbEntity
  8
Hawa2
 62
     9
 48
0.280676
100
AcDbLine
 10
27.256929
 20
125.478134
 30
0.0
 11
35.195641
 21
117.539421
 31
0.0
  0
LINE
  5
39B
330
285
100
AcDbEntity
  8
Hawa2
 62
     9
 48
0.235233
100
AcDbLine
 10
27.256929
 20
128.306564
 30
0.0
 11
33.910313
 21
121.653183
 31
0.0
  0
LINE
  5
39C
330
285
100
AcDbEntity
  8
Hawa2
 62
     9
 48
0.068943
100
AcDbLine
 10
36.07407
 20
119.489426
 30
0.0
 11
38.024071
 21
117.539421
 31
0.0
  0
LINE
  5
39D
330
285
100
AcDbEntity
  8
Hawa2
 62
     9
 48
0.041543
100
AcDbLine
 10
27.256929
 20
131.134995
 30
0.0
 11
28.431929
 21
129.959991
 31
0.0
  0
LINE
  5
39E
330
285
100
AcDbEntity
  8
Hawa2
 62
     9
 48
0.114522
100
AcDbLine
 10
30.717756
 20
127.674164
 30
0.0
 11
33.95692800000001
 21
124.43499
 31
0.0
  0
LINE
  5
39F
330
285
100
AcDbEntity
  8
Hawa2
 62
     9
 48
0.054525
100
AcDbLine
 10
39.302498
 20
119.089424
 30
0.0
 11
40.8447
 21
117.547218
 31
0.0
  0
LINE
  5
3A0
330
285
100
AcDbEntity
  8
Hawa2
 62
     9
 48
0.033957
100
AcDbLine
 10
27.614719
 20
133.605621
 30
0.0
 11
28.575171
 21
132.645172
 31
0.0
  0
LINE
  5
3A1
330
285
100
AcDbEntity
  8
Hawa2
 62
     9
 48
0.05922
100
AcDbLine
 10
32.281929
 20
128.938416
 30
0.0
 11
33.95692800000001
 21
127.26342
 31
0.0
  0
LINE
  5
3A2
330
285
100
AcDbEntity
  8
Hawa2
 62
     9
 48
0.052149
100
AcDbLine
 10
32.281929
 20
131.766846
 30
0.0
 11
33.756927
 21
130.29184
 31
0.0
  0
LINE
  5
3A3
330
285
100
AcDbEntity
  8
Hawa2
 62
     9
 48
0.068943
100
AcDbLine
 10
33.037777
 20
133.839417
 30
0.0
 11
34.98777800000001
 21
131.88942
 31
0.0
  0
LINE
  5
3A4
330
285
100
AcDbEntity
  8
Hawa2
 62
     9
 48
0.068943
100
AcDbLine
 10
35.86620300000001
 20
133.839417
 30
0.0
 11
37.816204
 21
131.88942
 31
0.0
  0
LINE
  5
3A5
330
285
100
AcDbEntity
  8
Hawa2
 62
     9
 48
0.068943
100
AcDbLine
 10
38.69463300000001
 20
133.839417
 30
0.0
 11
40.64462999999999
 21
131.88942
 31
0.0
  0
ENDBLK
  5
3A6
330
285
100
AcDbEntity
  8
0
100
AcDbBlockEnd
  0
BLOCK
  5
3A7
330
286
100
AcDbEntity
  8
0
100
AcDbBlockBegin
  2
BLOCK7
 70
     0
 10
0.0
 20
0.0
 30
0.0
  3
BLOCK7
  1

  0
LINE
  5
3A8
330
286
100
AcDbEntity
  8
Hawa2
 62
     9
 48
0.006588
100
AcDbLine
 10
39.893951
 20
119.089912
 30
0.0
 11
40.080284
 21
119.276245
 31
0.0
  0
LINE
  5
3A9
330
286
100
AcDbEntity
  8
Hawa2
 62
     9
 48
0.029823
100
AcDbLine
 10
40.293465
 20
119.489426
 30
0.0
 11
41.13699699999999
 21
120.332954
 31
0.0
  0
LINE
  5
3AA
330
286
100
AcDbEntity
  8
Hawa2
 62
     9
 48
0.033929
100
AcDbLine
 10
37.465034
 20
119.489426
 30
0.0
 11
38.42469000000001
 21
120.449081
 31
0.0
  0
LINE
  5
3AB
330
286
100
AcDbEntity
  8
Hawa2
 62
     9
 48
0.024722
100
AcDbLine
 10
34.636608
 20
119.489426
 30
0.0
 11
35.335857
 21
120.188667
 31
0.0
  0
LINE
  5
3AC
330
286
100
AcDbEntity
  8
Hawa2
 62
     9
 48
0.026517
100
AcDbLine
 10
33.95692800000001
 20
121.638168
 30
0.0
 11
34.70692800000001
 21
122.388168
 31
0.0
  0
LINE
  5
3AD
330
286
100
AcDbEntity
  8
Hawa2
 62
     9
 48
0.026517
100
AcDbLine
 10
33.95692800000001
 20
124.466599
 30
0.0
 11
34.70692800000001
 21
125.216599
 31
0.0
  0
LINE
  5
3AE
330
286
100
AcDbEntity
  8
Hawa2
 62
     9
 48
0.035676
100
AcDbLine
 10
40.22744799999999
 20
130.737122
 30
0.0
 11
41.23652299999999
 21
131.746185
 31
0.0
  0
LINE
  5
3AF
330
286
100
AcDbEntity
  8
Hawa2
 62
     9
 48
0.026517
100
AcDbLine
 10
33.95692800000001
 20
127.295021
 30
0.0
 11
34.70692800000001
 21
128.045029
 31
0.0
  0
LINE
  5
3B0
330
286
100
AcDbEntity
  8
Hawa2
 62
     9
 48
0.054197
100
AcDbLine
 10
37.418419
 20
130.756516
 30
0.0
 11
38.95132800000001
 21
132.289429
 31
0.0
  0
LINE
  5
3B1
330
286
100
AcDbEntity
  8
Hawa2
 62
     9
 48
0.023869
100
AcDbLine
 10
33.83181
 20
129.998337
 30
0.0
 11
34.50692700000001
 21
130.673447
 31
0.0
  0
LINE
  5
3B2
330
286
100
AcDbEntity
  8
Hawa2
 62
     9
 48
0.024722
100
AcDbLine
 10
35.023655
 20
131.19017
 30
0.0
 11
35.72290000000001
 21
131.88942
 31
0.0
  0
ENDBLK
  5
3B3
330
286
100
AcDbEntity
  8
0
100
AcDbBlockEnd
  0
BLOCK
  5
3B4
330
287
100
AcDbEntity
  8
0
100
AcDbBlockBegin
  2
BLOCK8
 70
     0
 10
0.0
 20
0.0
 30
0.0
  3
BLOCK8
  1

  0
LINE
  5
3B5
330
287
100
AcDbEntity
  8
Hawa2
 62
     9
 48
0.008986
100
AcDbLine
 10
-67.43289200000001
 20
138.14357
 30
0.0
 11
-67.178741
 21
137.88942
 31
0.0
  0
LINE
  5
3B6
330
287
100
AcDbEntity
  8
Hawa2
 62
     9
 48
0.09932
100
AcDbLine
 10
-67.159508
 20
140.698608
 30
0.0
 11
-64.350319
 21
137.88942
 31
0.0
  0
LINE
  5
3B7
330
287
100
AcDbEntity
  8
Hawa2
 62
     9
 48
0.191308
100
AcDbLine
 10
-66.93289200000001
 20
143.300415
 30
0.0
 11
-61.521889
 21
137.88942
 31
0.0
  0
LINE
  5
3B8
330
287
100
AcDbEntity
  8
Hawa2
 62
     9
 48
0.106117
100
AcDbLine
 10
-66.93289200000001
 20
146.128845
 30
0.0
 11
-63.931458
 21
143.127411
 31
0.0
  0
LINE
  5
3B9
330
287
100
AcDbEntity
  8
Hawa2
 62
     9
 48
0.099046
100
AcDbLine
 10
-61.49489599999999
 20
140.690857
 30
0.0
 11
-58.69346199999999
 21
137.88942
 31
0.0
  0
LINE
  5
3BA
330
287
100
AcDbEntity
  8
Hawa2
 62
     9
 48
0.106066
100
AcDbLine
 10
-66.93289200000001
 20
148.957275
 30
0.0
 11
-63.932892
 21
145.957275
 31
0.0
  0
LINE
  5
3BB
330
287
100
AcDbEntity
  8
Hawa2
 62
     9
 48
0.098995
100
AcDbLine
 10
-58.665035
 20
140.689423
 30
0.0
 11
-55.865036
 21
137.88942
 31
0.0
  0
LINE
  5
3BC
330
287
100
AcDbEntity
  8
Hawa2
 62
     9
 48
0.106066
100
AcDbLine
 10
-66.93289200000001
 20
151.785706
 30
0.0
 11
-63.932892
 21
148.785706
 31
0.0
  0
LINE
  5
3BD
330
287
100
AcDbEntity
  8
Hawa2
 62
     9
 48
0.109717
100
AcDbLine
 10
-56.139862
 20
140.992676
 30
0.0
 11
-53.03660999999999
 21
137.88942
 31
0.0
  0
LINE
  5
3BE
330
287
100
AcDbEntity
  8
Hawa2
 62
     9
 48
0.106066
100
AcDbLine
 10
-66.93289200000001
 20
154.614136
 30
0.0
 11
-63.932892
 21
151.614136
 31
0.0
  0
LINE
  5
3BF
330
287
100
AcDbEntity
  8
Hawa2
 62
     9
 48
0.166125
100
AcDbLine
 10
-54.906902
 20
142.58815
 30
0.0
 11
-50.208183
 21
137.88942
 31
0.0
  0
LINE
  5
3C0
330
287
100
AcDbEntity
  8
Hawa2
 62
     9
 48
0.106066
100
AcDbLine
 10
-66.93289200000001
 20
157.442551
 30
0.0
 11
-63.932892
 21
154.442551
 31
0.0
  0
LINE
  5
3C1
330
287
100
AcDbEntity
  8
Hawa2
 62
     9
 48
0.106066
100
AcDbLine
 10
-54.83289
 20
145.34256
 30
0.0
 11
-51.83289
 21
142.34256
 31
0.0
  0
LINE
  5
3C2
330
287
100
AcDbEntity
  8
Hawa2
 62
     9
 48
0.092136
100
AcDbLine
 10
-50.17975599999999
 20
140.689423
 30
0.0
 11
-47.57377199999999
 21
138.083435
 31
0.0
  0
LINE
  5
3C3
330
287
100
AcDbEntity
  8
Hawa2
 62
     9
 48
0.106066
100
AcDbLine
 10
-66.93289200000001
 20
160.270981
 30
0.0
 11
-63.932892
 21
157.270981
 31
0.0
  0
LINE
  5
3C4
330
287
100
AcDbEntity
  8
Hawa2
 62
     9
 48
0.106066
100
AcDbLine
 10
-54.83289
 20
148.17099
 30
0.0
 11
-51.83289
 21
145.17099
 31
0.0
  0
LINE
  5
3C5
330
287
100
AcDbEntity
  8
Hawa2
 62
     9
 48
0.077644
100
AcDbLine
 10
-48.632889
 20
141.970978
 30
0.0
 11
-46.436779
 21
139.774872
 31
0.0
  0
LINE
  5
3C6
330
287
100
AcDbEntity
  8
Hawa2
 62
     9
 48
0.106066
100
AcDbLine
 10
-66.93289200000001
 20
163.099411
 30
0.0
 11
-63.932892
 21
160.099411
 31
0.0
  0
LINE
  5
3C7
330
287
100
AcDbEntity
  8
Hawa2
 62
     9
 48
0.059751
100
AcDbLine
 10
-53.52289999999999
 20
149.689423
 30
0.0
 11
-51.83289
 21
147.999405
 31
0.0
  0
LINE
  5
3C8
330
287
100
AcDbEntity
  8
Hawa2
 62
     9
 48
0.060073
100
AcDbLine
 10
-48.632889
 20
144.799408
 30
0.0
 11
-46.933765
 21
143.100296
 31
0.0
  0
LINE
  5
3C9
330
287
100
AcDbEntity
  8
Hawa2
 62
     9
 48
0.106066
100
AcDbLine
 10
-66.93289200000001
 20
165.927841
 30
0.0
 11
-63.932892
 21
162.927841
 31
0.0
  0
LINE
  5
3CA
330
287
100
AcDbEntity
  8
Hawa2
 62
     9
 48
0.106066
100
AcDbLine
 10
-66.93289200000001
 20
168.756271
 30
0.0
 11
-63.932892
 21
165.756271
 31
0.0
  0
LINE
  5
3CB
330
287
100
AcDbEntity
  8
Hawa2
 62
     9
 48
0.106066
100
AcDbLine
 10
-66.93289200000001
 20
171.584686
 30
0.0
 11
-63.932892
 21
168.584686
 31
0.0
  0
LINE
  5
3CC
330
287
100
AcDbEntity
  8
Hawa2
 62
     9
 48
0.131291
100
AcDbLine
 10
-67.43289200000001
 20
174.913116
 30
0.0
 11
-63.71943299999999
 21
171.199661
 31
0.0
  0
LINE
  5
3CD
330
287
100
AcDbEntity
  8
Hawa2
 62
     9
 48
0.1038
100
AcDbLine
 10
-65.180763
 20
175.489426
 30
0.0
 11
-62.244854
 21
172.553513
 31
0.0
  0
LINE
  5
3CE
330
287
100
AcDbEntity
  8
Hawa2
 62
     9
 48
0.05134
100
AcDbLine
 10
-54.83289
 20
165.141541
 30
0.0
 11
-53.380764
 21
163.689423
 31
0.0
  0
LINE
  5
3CF
330
287
100
AcDbEntity
  8
Hawa2
 62
     9
 48
0.098995
100
AcDbLine
 10
-62.352337
 20
175.489426
 30
0.0
 11
-59.552338
 21
172.689423
 31
0.0
  0
LINE
  5
3D0
330
287
100
AcDbEntity
  8
Hawa2
 62
     9
 48
0.106066
100
AcDbLine
 10
-54.83289
 20
167.969971
 30
0.0
 11
-51.83289
 21
164.969971
 31
0.0
  0
LINE
  5
3D1
330
287
100
AcDbEntity
  8
Hawa2
 62
     9
 48
0.102696
100
AcDbLine
 10
-59.52391099999999
 20
175.489426
 30
0.0
 11
-56.619236
 21
172.584747
 31
0.0
  0
LINE
  5
3D2
330
287
100
AcDbEntity
  8
Hawa2
 62
     9
 48
0.109767
100
AcDbLine
 10
-54.93756499999999
 20
170.903076
 30
0.0
 11
-51.83289
 21
167.798401
 31
0.0
  0
LINE
  5
3D3
330
287
100
AcDbEntity
  8
Hawa2
 62
     9
 48
0.171919
100
AcDbLine
 10
-56.695484
 20
175.489426
 30
0.0
 11
-51.83289
 21
170.626831
 31
0.0
  0
LINE
  5
3D4
330
287
100
AcDbEntity
  8
Hawa2
 62
     9
 48
0.098995
100
AcDbLine
 10
-53.86705799999999
 20
175.489426
 30
0.0
 11
-51.067055
 21
172.689423
 31
0.0
  0
LINE
  5
3D5
330
287
100
AcDbEntity
  8
Hawa2
 62
     9
 48
0.05124
100
AcDbLine
 10
-48.632889
 20
170.255249
 30
0.0
 11
-47.183609
 21
168.805969
 31
0.0
  0
LINE
  5
3D6
330
287
100
AcDbEntity
  8
Hawa2
 62
     9
 48
0.150648
100
AcDbLine
 10
-51.038628
 20
175.489426
 30
0.0
 11
-46.77765299999999
 21
171.2284389999999
 31
0.0
  0
LINE
  5
3D7
330
287
100
AcDbEntity
  8
Hawa2
 62
     9
 48
0.061798
100
AcDbLine
 10
-48.19546500000001
 20
175.474686
 30
0.0
 11
-46.447552
 21
173.726776
 31
0.0
  0
ENDBLK
  5
3D8
330
287
100
AcDbEntity
  8
0
100
AcDbBlockEnd
  0
BLOCK
  5
3D9
330
288
100
AcDbEntity
  8
0
100
AcDbBlockBegin
  2
BLOCK9
 70
     0
 10
0.0
 20
0.0
 30
0.0
  3
BLOCK9
  1

  0
LINE
  5
3DA
330
288
100
AcDbEntity
  8
Hawa2
 62
     9
 48
0.023043
100
AcDbLine
 10
-49.284657
 20
143.048386
 30
0.0
 11
-48.632889
 21
143.70015
 31
0.0
  0
LINE
  5
3DB
330
288
100
AcDbEntity
  8
Hawa2
 62
     9
 48
0.089601
100
AcDbLine
 10
-51.167198
 20
143.994278
 30
0.0
 11
-48.632889
 21
146.52858
 31
0.0
  0
LINE
  5
3DC
330
288
100
AcDbEntity
  8
Hawa2
 62
     9
 48
0.018824
100
AcDbLine
 10
-51.83289
 20
146.157013
 30
0.0
 11
-51.30047600000001
 21
146.689423
 31
0.0
  0
LINE
  5
3DD
330
288
100
AcDbEntity
  8
Hawa2
 62
     9
 48
0.111034
100
AcDbLine
 10
-50.53791799999999
 20
147.451981
 30
0.0
 11
-47.397415
 21
150.592484
 31
0.0
  0
LINE
  5
3DE
330
288
100
AcDbEntity
  8
Hawa2
 62
     9
 48
0.160965
100
AcDbLine
 10
-51.140202
 20
149.678131
 30
0.0
 11
-46.587421
 21
154.230911
 31
0.0
  0
LINE
  5
3DF
330
288
100
AcDbEntity
  8
Hawa2
 62
     9
 48
0.021623
100
AcDbLine
 10
-55.44447299999999
 20
148.202286
 30
0.0
 11
-54.83289
 21
148.813858
 31
0.0
  0
LINE
  5
3E0
330
288
100
AcDbEntity
  8
Hawa2
 62
     9
 48
0.070711
100
AcDbLine
 10
-53.957329
 20
149.689423
 30
0.0
 11
-51.957329
 21
151.689423
 31
0.0
  0
LINE
  5
3E1
330
288
100
AcDbEntity
  8
Hawa2
 62
     9
 48
0.10578
100
AcDbLine
 10
-49.43289199999999
 20
154.213867
 30
0.0
 11
-46.44098999999999
 21
157.205765
 31
0.0
  0
LINE
  5
3E2
330
288
100
AcDbEntity
  8
Hawa2
 62
     9
 48
0.087265
100
AcDbLine
 10
-57.25397099999999
 20
149.221207
 30
0.0
 11
-54.785759
 21
151.689423
 31
0.0
  0
LINE
  5
3E3
330
288
100
AcDbEntity
  8
Hawa2
 62
     9
 48
0.097366
100
AcDbLine
 10
-49.43289199999999
 20
157.042297
 30
0.0
 11
-46.678963
 21
159.796219
 31
0.0
  0
LINE
  5
3E4
330
288
100
AcDbEntity
  8
Hawa2
 62
     9
 48
0.050662
100
AcDbLine
 10
-59.04712299999999
 20
150.256485
 30
0.0
 11
-57.614185
 21
151.689423
 31
0.0
  0
LINE
  5
3E5
330
288
100
AcDbEntity
  8
Hawa2
 62
     9
 48
0.079247
100
AcDbLine
 10
-49.43289199999999
 20
159.870712
 30
0.0
 11
-47.191456
 21
162.112152
 31
0.0
  0
LINE
  5
3E6
330
288
100
AcDbEntity
  8
Hawa2
 62
     9
 48
0.035355
100
AcDbLine
 10
-59.83289
 20
152.299149
 30
0.0
 11
-58.83289
 21
153.299149
 31
0.0
  0
LINE
  5
3E7
330
288
100
AcDbEntity
  8
Hawa2
 62
     9
 48
0.089186
100
AcDbLine
 10
-50.442612
 20
161.689423
 30
0.0
 11
-47.920052
 21
164.21199
 31
0.0
  0
LINE
  5
3E8
330
288
100
AcDbEntity
  8
Hawa2
 62
     9
 48
0.035355
100
AcDbLine
 10
-59.83289
 20
155.127579
 30
0.0
 11
-58.83289
 21
156.127579
 31
0.0
  0
LINE
  5
3E9
330
288
100
AcDbEntity
  8
Hawa2
 62
     9
 48
0.07073
100
AcDbLine
 10
-53.27103799999999
 20
161.689423
 30
0.0
 11
-51.270496
 21
163.689972
 31
0.0
  0
LINE
  5
3EA
330
288
100
AcDbEntity
  8
Hawa2
 62
     9
 48
0.059793
100
AcDbLine
 10
-50.288982
 20
164.671478
 30
0.0
 11
-48.597794
 21
166.362671
 31
0.0
  0
LINE
  5
3EB
330
288
100
AcDbEntity
  8
Hawa2
 62
     9
 48
0.035355
100
AcDbLine
 10
-59.83289
 20
157.955994
 30
0.0
 11
-58.83289
 21
158.955994
 31
0.0
  0
LINE
  5
3EC
330
288
100
AcDbEntity
  8
Hawa2
 62
     9
 48
0.070711
100
AcDbLine
 10
-56.099464
 20
161.689423
 30
0.0
 11
-54.099464
 21
163.689423
 31
0.0
  0
LINE
  5
3ED
330
288
100
AcDbEntity
  8
Hawa2
 62
     9
 48
0.087207
100
AcDbLine
 10
-51.099464
 20
166.689423
 30
0.0
 11
-48.632889
 21
169.156006
 31
0.0
  0
LINE
  5
3EE
330
288
100
AcDbEntity
  8
Hawa2
 62
     9
 48
0.155329
100
AcDbLine
 10
-59.83289
 20
160.784424
 30
0.0
 11
-55.43951800000001
 21
165.177795
 31
0.0
  0
ENDBLK
  5
3EF
330
288
100
AcDbEntity
  8
0
100
AcDbBlockEnd
  0
BLOCK
  5
3F0
330
289
100
AcDbEntity
  8
0
100
AcDbBlockBegin
  2
BLOCK10
 70
     0
 10
0.0
 20
0.0
 30
0.0
  3
BLOCK10
  1

  0
LINE
  5
3F1
330
289
100
AcDbEntity
  8
Hawa2
 62
     9
 48
0.056936
100
AcDbLine
 10
29.589628
 20
128.584579
 30
0.0
 11
31.200033
 21
130.194977
 31
0.0
  0
LINE
  5
3F2
330
289
100
AcDbEntity
  8
Hawa2
 62
     9
 48
0.006381
100
AcDbLine
 10
28.431929
 20
130.25531
 30
0.0
 11
28.612421
 21
130.435791
 31
0.0
  0
LINE
  5
3F3
330
289
100
AcDbEntity
  8
Hawa2
 62
     9
 48
0.082859
100
AcDbLine
 10
29.19722
 20
131.020599
 30
0.0
 11
31.540823
 21
133.364197
 31
0.0
  0
LINE
  5
3F4
330
289
100
AcDbEntity
  8
Hawa2
 62
     9
 48
0.014408
100
AcDbLine
 10
32.286072
 20
134.109451
 30
0.0
 11
32.693592
 21
134.516968
 31
0.0
  0
LINE
  5
3F5
330
289
100
AcDbEntity
  8
Hawa2
 62
     9
 48
0.082253
100
AcDbLine
 10
29.118984
 20
133.770782
 30
0.0
 11
31.445454
 21
136.09726
 31
0.0
  0
LINE
  5
3F6
330
289
100
AcDbEntity
  8
Hawa2
 62
     9
 48
0.024511
100
AcDbLine
 10
33.135002
 20
137.786804
 30
0.0
 11
33.828289
 21
138.480087
 31
0.0
  0
LINE
  5
3F7
330
289
100
AcDbEntity
  8
Hawa2
 62
     9
 48
0.020778
100
AcDbLine
 10
28.249437
 20
135.72966
 30
0.0
 11
28.837139
 21
136.317368
 31
0.0
  0
LINE
  5
3F8
330
289
100
AcDbEntity
  8
Hawa2
 62
     9
 48
0.012888
100
AcDbLine
 10
32.934673
 20
140.414902
 30
0.0
 11
33.299206
 21
140.779434
 31
0.0
  0
LINE
  5
3F9
330
289
100
AcDbEntity
  8
Hawa2
 62
     9
 48
0.013729
100
AcDbLine
 10
27.162746
 20
137.471405
 30
0.0
 11
27.55106
 21
137.859711
 31
0.0
  0
LINE
  5
3FA
330
289
100
AcDbEntity
  8
Hawa2
 62
     9
 48
0.018044
100
AcDbLine
 10
31.393927
 20
141.7025909999999
 30
0.0
 11
31.904301
 21
142.212952
 31
0.0
  0
LINE
  5
3FB
330
289
100
AcDbEntity
  8
Hawa2
 62
     9
 48
0.140474
100
AcDbLine
 10
27.150471
 20
140.287552
 30
0.0
 11
31.123686
 21
144.260773
 31
0.0
  0
LINE
  5
3FC
330
289
100
AcDbEntity
  8
Hawa2
 62
     9
 48
0.043792
100
AcDbLine
 10
29.692331
 20
145.657837
 30
0.0
 11
30.930954
 21
146.896469
 31
0.0
  0
LINE
  5
3FD
330
289
100
AcDbEntity
  8
Hawa2
 62
     9
 48
0.029089
100
AcDbLine
 10
29.915474
 20
148.709412
 30
0.0
 11
30.738222
 21
149.532166
 31
0.0
  0
LINE
  5
3FE
330
289
100
AcDbEntity
  8
Hawa2
 62
     9
 48
0.017994
100
AcDbLine
 10
29.858885
 20
151.481247
 30
0.0
 11
30.367817
 21
151.990189
 31
0.0
  0
ENDBLK
  5
3FF
330
289
100
AcDbEntity
  8
0
100
AcDbBlockEnd
  0
BLOCK
  5
400
330
28A
100
AcDbEntity
  8
0
100
AcDbBlockBegin
  2
BLOCK11
 70
     0
 10
0.0
 20
0.0
 30
0.0
  3
BLOCK11
  1

  0
LINE
  5
401
330
28A
100
AcDbEntity
  8
Hawa2
 62
     9
 48
0.011419
100
AcDbLine
 10
33.828289
 20
138.480087
 30
0.0
 11
34.15126400000001
 21
138.80307
 31
0.0
  0
LINE
  5
402
330
28A
100
AcDbEntity
  8
Hawa2
 62
     9
 48
0.007651
100
AcDbLine
 10
33.299206
 20
140.779434
 30
0.0
 11
33.515598
 21
140.995834
 31
0.0
  0
LINE
  5
403
330
28A
100
AcDbEntity
  8
Hawa2
 62
     9
 48
0.008035
100
AcDbLine
 10
26.935486
 20
137.244141
 30
0.0
 11
27.162746
 21
137.471405
 31
0.0
  0
LINE
  5
404
330
28A
100
AcDbEntity
  8
Hawa2
 62
     9
 48
0.007533
100
AcDbLine
 10
31.904301
 20
142.212952
 30
0.0
 11
32.117359
 21
142.42601
 31
0.0
  0
LINE
  5
405
330
28A
100
AcDbEntity
  8
Hawa2
 62
     9
 48
0.016946
100
AcDbLine
 10
26.671154
 20
139.808243
 30
0.0
 11
27.150471
 21
140.287552
 31
0.0
  0
LINE
  5
406
330
28A
100
AcDbEntity
  8
Hawa2
 62
     9
 48
0.00991
100
AcDbLine
 10
31.123686
 20
144.260773
 30
0.0
 11
31.40399
 21
144.541077
 31
0.0
  0
LINE
  5
407
330
28A
100
AcDbEntity
  8
Hawa2
 62
     9
 48
0.011474
100
AcDbLine
 10
29.3678
 20
145.333313
 30
0.0
 11
29.692331
 21
145.657837
 31
0.0
  0
LINE
  5
408
330
28A
100
AcDbEntity
  8
Hawa2
 62
     9
 48
0.00991
100
AcDbLine
 10
30.930954
 20
146.896469
 30
0.0
 11
31.211258
 21
147.176773
 31
0.0
  0
LINE
  5
409
330
28A
100
AcDbEntity
  8
Hawa2
 62
     9
 48
0.011474
100
AcDbLine
 10
29.590942
 20
148.384888
 30
0.0
 11
29.915474
 21
148.709412
 31
0.0
  0
LINE
  5
40A
330
28A
100
AcDbEntity
  8
Hawa2
 62
     9
 48
0.00991
100
AcDbLine
 10
30.738222
 20
149.532166
 30
0.0
 11
31.018526
 21
149.812469
 31
0.0
  0
LINE
  5
40B
330
28A
100
AcDbEntity
  8
Hawa2
 62
     9
 48
0.008892
100
AcDbLine
 10
29.60739099999999
 20
151.229752
 30
0.0
 11
29.858885
 21
151.481247
 31
0.0
  0
LINE
  5
40C
330
28A
100
AcDbEntity
  8
Hawa2
 62
     9
 48
0.008885
100
AcDbLine
 10
30.367817
 20
151.990189
 30
0.0
 11
30.619116
 21
152.241486
 31
0.0
  0
ENDBLK
  5
40D
330
28A
100
AcDbEntity
  8
0
100
AcDbBlockEnd
  0
BLOCK
  5
4FA
330
4F9
100
AcDbEntity
  8
0
100
AcDbBlockBegin
  2
_Oblique
 70
     0
 10
0.0
 20
0.0
 30
0.0
  3
_Oblique
  1

  0
LINE
  5
4FB
330
4F9
100
AcDbEntity
  8
0
 62
     0
370
    -2
100
AcDbLine
 10
-0.5
 20
-0.5
 30
0.0
 11
0.5
 21
0.5
 31
0.0
  0
ENDBLK
  5
4FC
330
4F9
100
AcDbEntity
  8
0
100
AcDbBlockEnd
  0
ENDSEC
  0
SECTION
  2
ENTITIES
  0
DIMENSION
  5
21
330
A
100
AcDbEntity
  8
Hawa1
 62
     0
100
AcDbDimension
  2
*D0
 10
256.7388181268436
 20
94.3710907639007
 30
0.0
 11
246.6048317929528
 21
98.81645909979088
 31
0.0
 70
    32
 71
     5
 42
2.499578812810341
 52
89.999523
  3
HAWA-Strich
100
AcDbAlignedDimension
 13
259.23868
 23
111.371241
 33
0.0
 14
256.73868
 24
86.07540400000001
 34
0.0
 50
179.999046
100
AcDbRotatedDimension
  0
DIMENSION
  5
23
330
A
100
AcDbEntity
  8
Hawa1
 62
     0
100
AcDbDimension
  2
*D1
 10
259.2387798774588
 20
51.43887463430406
 30
0.0
 11
268.492550552764
 21
55.88206757763197
 31
0.0
 70
    32
 71
     5
 42
14.00066220601994
 52
89.999523
  3
HAWA-Strich
100
AcDbAlignedDimension
 13
245.23868
 23
68.325404
 33
0.0
 14
259.23868
 24
48.43963099999999
 34
0.0
 50
359.998092
100
AcDbRotatedDimension
  0
DIMENSION
  5
25
330
A
100
AcDbEntity
  8
Hawa1
 62
     0
100
AcDbDimension
  2
*D2
 10
11.74880400000002
 20
121.325404
 30
0.0
 11
7.347765408935878
 21
102.325404
 31
0.0
 70
    33
 71
     5
 42
38.0
 52
89.999523
  3
HAWA-Strich
100
AcDbAlignedDimension
 13
34.713838
 23
83.325404
 33
0.0
 14
34.713838
 24
121.325404
 34
0.0
  0
DIMENSION
  5
27
330
A
100
AcDbEntity
  8
Hawa1
 62
     0
100
AcDbDimension
  2
*D3
 10
34.71420287603687
 20
143.2393001799055
 30
0.0
 11
45.20105988929355
 21
147.6834759194882
 31
0.0
 70
    32
 71
     5
 42
20.97356602863358
 52
89.999523
  3
HAWA-Strich
100
AcDbAlignedDimension
 13
55.687362
 23
118.801054
 33
0.0
 14
34.713838
 24
121.325404
 34
0.0
 50
179.999046
100
AcDbRotatedDimension
  0
DIMENSION
  5
29
330
A
100
AcDbEntity
  8
Hawa1
 62
     0
100
AcDbDimension
  2
*D4
 10
212.5330986051527
 20
71.32520106266916
 30
0.0
 11
212.5334857298998
 21
86.82528083151167
 31
0.0
 70
   160
 71
     5
 42
30.99944704224594
 52
89.999523
  3
HAWA-Strich
100
AcDbAlignedDimension
 13
182.268218
 23
102.325404
 33
0.0
 14
204.407695
 24
71.325404
 34
0.0
 50
269.998569
100
AcDbRotatedDimension
  0
DIMENSION
  5
2B
330
A
100
AcDbEntity
  8
Hawa1
 62
     0
100
AcDbDimension
  2
*D5
 10
191.5140106089914
 20
76.32572510886909
 30
0.0
 11
191.5152532660472
 21
126.0804453478984
 31
0.0
 70
   160
  1
-21 [{\H0.7x;\S13/16;}"]
 71
     5
 42
20.99935144485112
 52
89.999523
  3
HAWA-Strich
100
AcDbAlignedDimension
 13
178.403658
 23
97.32540400000001
 33
0.0
 14
204.370882
 24
76.325404
 34
0.0
 50
269.998569
100
AcDbRotatedDimension
  0
DIMENSION
  5
2D
330
A
100
AcDbEntity
  8
Hawa1
 62
     0
100
AcDbDimension
  2
*D6
 10
191.5144259710255
 20
76.32572509849516
 30
0.0
 11
191.5152787704037
 21
110.4709418227738
 31
0.0
 70
   160
  1
20 [{\H0.7x;\S25/32;}"]
 71
     5
 42
20.99935144485112
 52
89.999523
  3
HAWA-Strich
100
AcDbAlignedDimension
 13
178.403658
 23
97.32540400000001
 33
0.0
 14
204.370882
 24
76.325404
 34
0.0
 50
269.998569
100
AcDbRotatedDimension
  0
DIMENSION
  5
2F
330
A
100
AcDbEntity
  8
Hawa1
 62
     0
100
AcDbDimension
  2
*D7
 10
129.404240866493
 20
113.4814732513217
 30
0.0
 11
154.4040830167043
 21
117.9262565934713
 31
0.0
 70
    32
  1
=><>
 71
     5
 42
49.99953627828543
 52
89.999523
  3
HAWA-Strich
100
AcDbAlignedDimension
 13
179.403658
 23
106.325404
 33
0.0
 14
129.403658
 24
78.47540399999999
 34
0.0
 50
179.999046
100
AcDbRotatedDimension
  0
DIMENSION
  5
31
330
A
100
AcDbEntity
  8
Hawa1
 62
     0
100
AcDbDimension
  2
*D8
 10
80.83913766979339
 20
97.32540400000001
 30
0.0
 11
80.83913766979337
 21
131.3521939807635
 31
0.0
 70
   161
  1
-12,7 [{\H0.7x;\S1/2;\H1.429x;"]}
 71
     5
 42
10.0
 52
89.999523
  3
HAWA-Strich
100
AcDbAlignedDimension
 13
94.50521999999999
 23
107.325404
 33
0.0
 14
94.50521999999999
 24
97.32540400000001
 34
0.0
  0
DIMENSION
  5
33
330
A
100
AcDbEntity
  8
Hawa1
 62
     0
100
AcDbDimension
  2
*D9
 10
80.83913766979335
 20
97.32540400000001
 30
0.0
 11
80.83913766979334
 21
115.4807013708711
 31
0.0
 70
   161
  1
8 [{\H0.7x;\S5/16;\H1.429x;"\H0.9997x;]}
 71
     5
 42
10.0
 52
89.999523
  3
HAWA-Strich
100
AcDbAlignedDimension
 13
94.50521999999999
 23
107.325404
 33
0.0
 14
94.50521999999999
 24
97.32540400000001
 34
0.0
  0
DIMENSION
  5
35
330
A
100
AcDbEntity
  8
Hawa1
 62
     0
100
AcDbDimension
  2
*D10
 10
106.100729
 20
79.475404
 30
0.0
 11
106.100729
 21
49.93615731888024
 31
0.0
 70
   161
 71
     5
 42
16.3
 52
89.999523
  3
HAWA-Strich
100
AcDbAlignedDimension
 13
130.403658
 23
63.175404
 33
0.0
 14
130.403658
 24
79.475404
 34
0.0
  0
DIMENSION
  5
37
330
A
100
AcDbEntity
  8
Hawa1
 62
     0
100
AcDbDimension
  2
*D11
 10
136.1031449428204
 20
51.81868962580139
 30
0.0
 11
120.1052780711181
 21
51.81922236888059
 31
0.0
 70
   160
 71
     5
 42
6.699898428594536
 52
89.999523
  3
HAWA-Strich
100
AcDbAlignedDimension
 13
129.403658
 23
64.175404
 33
0.0
 14
136.103658
 24
67.22540399999999
 34
0.0
 50
359.998092
100
AcDbRotatedDimension
  0
DIMENSION
  5
39
330
A
100
AcDbEntity
  8
Hawa1
 62
     0
100
AcDbDimension
  2
*D12
 10
136.8528055087536
 20
41.31508342571398
 30
0.0
 11
119.3085874183803
 21
41.31566766365285
 31
0.0
 70
   160
 71
     5
 42
7.449908773464017
 52
89.999523
  3
HAWA-Strich
100
AcDbAlignedDimension
 13
129.403658
 23
64.175404
 33
0.0
 14
136.853658
 24
66.914743
 34
0.0
 50
359.998092
100
AcDbRotatedDimension
  0
DIMENSION
  5
3B
330
A
100
AcDbEntity
  8
Hawa1
 62
     0
100
AcDbDimension
  2
*D13
 10
143.402651924214
 20
33.46371826383591
 30
0.0
 11
152.6564225995192
 21
37.90691120716383
 31
0.0
 70
    32
 71
     5
 42
14.00001664267842
 52
89.999523
  3
HAWA-Strich
100
AcDbAlignedDimension
 13
129.403658
 23
64.175404
 33
0.0
 14
143.403658
 24
63.675404
 34
0.0
 50
359.998092
100
AcDbRotatedDimension
  0
DIMENSION
  5
3D
330
A
100
AcDbEntity
  8
Hawa1
 62
     0
100
AcDbDimension
  2
*D14
 10
227.8854369886051
 20
66.32506646504788
 30
0.0
 11
227.8859966751924
 21
88.73434619745822
 31
0.0
 70
   160
  1
8 [{\H0.7x;\S5/16;\H1.429x;"]}
 71
     5
 42
10.00063214328892
 52
89.999523
  3
HAWA-Strich
100
AcDbAlignedDimension
 13
239.681379
 23
76.325404
 33
0.0
 14
214.370882
 24
66.325404
 34
0.0
 50
269.998569
100
AcDbRotatedDimension
  0
DIMENSION
  5
3F
330
A
100
AcDbEntity
  8
Hawa1
 62
     0
100
AcDbDimension
  2
*D15
 10
227.8858642203334
 20
76.32550220026182
 30
0.0
 11
227.8860865485558
 21
103.0308875425016
 31
0.0
 70
   160
  1
-12 [{\H0.7x;\S15/32;\H1.429x;"]}
 71
     5
 42
10.00021071512276
 52
89.999523
  3
HAWA-Strich
100
AcDbAlignedDimension
 13
214.370882
 23
66.325404
 33
0.0
 14
239.681379
 24
76.325404
 34
0.0
 50
89.999523
100
AcDbRotatedDimension
  0
DIMENSION
  5
41
330
A
100
AcDbEntity
  8
Hawa1
 62
     0
100
AcDbDimension
  2
*D16
 10
269.161682
 20
60.825404
 30
0.0
 11
264.7173316502387
 21
71.32540400000005
 31
0.0
 70
    33
 71
     5
 42
21.0
 52
89.999523
  3
HAWA-Strich
100
AcDbAlignedDimension
 13
258.73868
 23
81.825404
 33
0.0
 14
258.73868
 24
60.825404
 34
0.0
  0
LINE
  5
42
330
A
100
AcDbEntity
  8
Hawa5
  6
DASHDOT
 62
     1
100
AcDbLine
 10
204.407692
 20
71.325404
 30
0.0
 11
129.2739639999999
 21
71.325404
 31
0.0
  0
LINE
  5
43
330
A
100
AcDbEntity
  8
Hawa5
  6
DASHDOT
 62
     1
100
AcDbLine
 10
256.575454
 20
71.325404
 30
0.0
 11
214.279724
 21
71.325404
 31
0.0
  0
LINE
  5
44
330
A
100
AcDbEntity
  8
Hawa5
  6
DASHDOT
 62
     1
100
AcDbLine
 10
54.03469799999999
 20
102.325404
 30
0.0
 11
94.939447
 21
102.325404
 31
0.0
  0
LINE
  5
45
330
A
100
AcDbEntity
  8
Hawa5
  6
DASHDOT
 62
     1
100
AcDbLine
 10
104.478826
 20
102.325404
 30
0.0
 11
182.268219
 21
102.325404
 31
0.0
  0
POINT
  5
46
330
A
100
AcDbEntity
  8
0
 62
     7
100
AcDbPoint
 10
132.503658
 20
79.475398
 30
0.0
  0
LINE
  5
47
330
A
100
AcDbEntity
  8
Hawa5
  6
PHANTOM
 62
     1
100
AcDbLine
 10
214.370882
 20
86.762385
 30
0.0
 11
214.370882
 21
55.89662399999999
 31
0.0
  0
LINE
  5
48
330
A
100
AcDbEntity
  8
Hawa5
  6
PHANTOM
 62
     1
100
AcDbLine
 10
204.370882
 20
86.762385
 30
0.0
 11
204.370882
 21
55.89662399999999
 31
0.0
  0
LINE
  5
49
330
A
100
AcDbEntity
  8
Hawa5
  6
PHANTOM
 62
     1
 48
0.479073
100
AcDbLine
 10
104.50522
 20
111.378047
 30
0.0
 11
104.50522
 21
92.215144
 31
0.0
  0
LINE
  5
4A
330
A
100
AcDbEntity
  8
Hawa5
  6
PHANTOM
 62
     1
 48
0.479073
100
AcDbLine
 10
94.50521999999999
 20
111.378047
 30
0.0
 11
94.50521999999999
 21
92.215144
 31
0.0
  0
LINE
  5
4B
330
A
100
AcDbEntity
  8
Hawa5
 62
     1
100
AcDbLine
 10
259.23868
 20
48.325404
 30
0.0
 11
259.23868
 21
128.325404
 31
0.0
  0
LINE
  5
4C
330
A
100
AcDbEntity
  8
Hawa4
 62
     4
 48
0.075032
100
AcDbLine
 10
253.7372
 20
71.62540400000001
 30
0.0
 11
256.738467
 21
71.62540400000001
 31
0.0
  0
LINE
  5
4D
330
A
100
AcDbEntity
  8
Hawa6
 62
     3
 48
0.004997
100
AcDbLine
 10
129.403658
 20
79.07540400000001
 30
0.0
 11
129.603518
 21
79.07540400000001
 31
0.0
  0
LINE
  5
4E
330
A
100
AcDbEntity
  8
Hawa4
 62
     4
 48
0.00026
100
AcDbLine
 10
143.393256
 20
79.07540400000001
 30
0.0
 11
143.403647
 21
79.07540400000001
 31
0.0
  0
LINE
  5
4F
330
A
100
AcDbEntity
  8
Hawa4
 62
     4
 48
0.070827
100
AcDbLine
 10
253.905598
 20
79.07540400000001
 30
0.0
 11
256.738677
 21
79.07540400000001
 31
0.0
  0
LINE
  5
50
330
A
100
AcDbEntity
  8
Hawa6
 62
     3
 48
0.015
100
AcDbLine
 10
129.403658
 20
79.07540400000001
 30
0.0
 11
129.403658
 21
78.47540399999999
 31
0.0
  0
LINE
  5
51
330
A
100
AcDbEntity
  8
Hawa4
 62
     4
 48
0.00125
100
AcDbLine
 10
136.852179
 20
71.62540400000001
 30
0.0
 11
136.902179
 21
71.62540400000001
 31
0.0
  0
LINE
  5
52
330
A
100
AcDbEntity
  8
Hawa4
 62
     4
 48
0.082526
100
AcDbLine
 10
253.7372
 20
71.325404
 30
0.0
 11
257.038257
 21
71.325404
 31
0.0
  0
LINE
  5
53
330
A
100
AcDbEntity
  8
Hawa4
 62
     4
 48
0.075037
100
AcDbLine
 10
253.7372
 20
71.02540400000001
 30
0.0
 11
256.738676
 21
71.02540400000001
 31
0.0
  0
LINE
  5
54
330
A
100
AcDbEntity
  8
Hawa4
 62
     4
 48
0.075032
100
AcDbLine
 10
253.7372
 20
69.205289
 30
0.0
 11
256.738466
 21
69.205289
 31
0.0
  0
LINE
  5
55
330
A
100
AcDbEntity
  8
Hawa4
 62
     4
 48
0.082526
100
AcDbLine
 10
253.7372
 20
68.90528899999999
 30
0.0
 11
257.038256
 21
68.90528899999999
 31
0.0
  0
LINE
  5
56
330
A
100
AcDbEntity
  8
Hawa4
 62
     4
 48
0.075037
100
AcDbLine
 10
253.7372
 20
68.605289
 30
0.0
 11
256.738676
 21
68.605289
 31
0.0
  0
LINE
  5
57
330
A
100
AcDbEntity
  8
Hawa4
 62
     4
 48
0.00125
100
AcDbLine
 10
136.852179
 20
68.605289
 30
0.0
 11
136.902179
 21
68.605289
 31
0.0
  0
LINE
  5
58
330
A
100
AcDbEntity
  8
Hawa6
 62
     3
 48
0.013625
100
AcDbLine
 10
129.403658
 20
64.120409
 30
0.0
 11
129.403658
 21
63.57540400000001
 31
0.0
  0
LINE
  5
59
330
A
100
AcDbEntity
  8
Hawa6
 62
     3
 48
0.004973
100
AcDbLine
 10
129.403658
 20
63.57540400000001
 30
0.0
 11
129.602569
 21
63.57540400000001
 31
0.0
  0
LINE
  5
5A
330
A
100
AcDbEntity
  8
Hawa4
 62
     4
 48
0.070787
100
AcDbLine
 10
253.905719
 20
63.57540400000001
 30
0.0
 11
256.7372
 21
63.57540400000001
 31
0.0
  0
LINE
  5
5B
330
A
100
AcDbEntity
  8
Hawa6
 62
     3
 48
0.0125
100
AcDbLine
 10
129.403658
 20
79.07540400000001
 30
0.0
 11
129.403658
 21
79.575404
 31
0.0
  0
LINE
  5
5C
330
A
100
AcDbEntity
  8
Hawa6
 62
     3
 48
0.0125
100
AcDbLine
 10
129.403658
 20
81.32540400000001
 30
0.0
 11
129.403658
 21
81.825404
 31
0.0
  0
LINE
  5
5D
330
A
100
AcDbEntity
  8
Hawa6
 62
     3
 48
0.03625
100
AcDbLine
 10
129.403658
 20
79.875404
 30
0.0
 11
129.403658
 21
81.32540400000001
 31
0.0
  0
LINE
  5
5E
330
A
100
AcDbEntity
  8
Hawa6
 62
     3
 48
0.0075
100
AcDbLine
 10
129.403658
 20
79.575404
 30
0.0
 11
129.403658
 21
79.875404
 31
0.0
  0
LINE
  5
5F
330
A
100
AcDbEntity
  8
Hawa6
 62
     3
 48
0.0125
100
AcDbLine
 10
129.403658
 20
63.075404
 30
0.0
 11
129.403658
 21
63.57540400000001
 31
0.0
  0
LINE
  5
60
330
A
100
AcDbEntity
  8
Hawa6
 62
     3
 48
0.0075
100
AcDbLine
 10
129.403658
 20
62.775404
 30
0.0
 11
129.403658
 21
63.075404
 31
0.0
  0
LINE
  5
61
330
A
100
AcDbEntity
  8
Hawa6
 62
     3
 48
0.03625
100
AcDbLine
 10
129.403658
 20
62.775404
 30
0.0
 11
129.403658
 21
61.325404
 31
0.0
  0
LINE
  5
62
330
A
100
AcDbEntity
  8
Hawa6
 62
     3
 48
0.0125
100
AcDbLine
 10
129.403658
 20
60.825404
 30
0.0
 11
129.403658
 21
61.325404
 31
0.0
  0
LINE
  5
63
330
A
100
AcDbEntity
  8
Hawa4
 62
     4
 48
0.007464
100
AcDbLine
 10
135.803633
 20
71.325404
 30
0.0
 11
136.102178
 21
71.325404
 31
0.0
  0
LINE
  5
64
330
A
100
AcDbEntity
  8
Hawa4
 62
     4
 48
0.00125
100
AcDbLine
 10
136.852178
 20
71.325404
 30
0.0
 11
136.902178
 21
71.325404
 31
0.0
  0
LINE
  5
65
330
A
100
AcDbEntity
  8
Hawa4
 62
     4
 48
0.00125
100
AcDbLine
 10
136.852178
 20
68.90528899999999
 30
0.0
 11
136.902178
 21
68.90528899999999
 31
0.0
  0
LINE
  5
66
330
A
100
AcDbEntity
  8
Hawa6
 62
     3
100
AcDbLine
 10
129.403658
 20
60.825404
 30
0.0
 11
204.370882
 21
60.825404
 31
0.0
  0
LINE
  5
67
330
A
100
AcDbEntity
  8
Hawa6
 62
     3
100
AcDbLine
 10
214.370882
 20
60.825404
 30
0.0
 11
245.700334
 21
60.825404
 31
0.0
  0
LINE
  5
68
330
A
100
AcDbEntity
  8
Hawa4
 62
     4
 48
0.011721
100
AcDbLine
 10
258.769834
 20
60.825404
 30
0.0
 11
259.23868
 21
60.825404
 31
0.0
  0
LINE
  5
69
330
A
100
AcDbEntity
  8
Hawa6
 62
     3
 48
0.010706
100
AcDbLine
 10
129.403658
 20
81.825404
 30
0.0
 11
129.8319149999999
 21
81.825404
 31
0.0
  0
LINE
  5
6A
330
A
100
AcDbEntity
  8
Hawa6
 62
     3
 48
0.065158
100
AcDbLine
 10
131.200504
 20
81.825404
 30
0.0
 11
133.806811
 21
81.825404
 31
0.0
  0
LINE
  5
6B
330
A
100
AcDbEntity
  8
Hawa6
 62
     3
100
AcDbLine
 10
135.1754
 20
81.825404
 30
0.0
 11
204.370882
 21
81.825404
 31
0.0
  0
LINE
  5
6C
330
A
100
AcDbEntity
  8
Hawa6
 62
     3
100
AcDbLine
 10
214.370882
 20
81.825404
 30
0.0
 11
245.737208
 21
81.825404
 31
0.0
  0
LINE
  5
6D
330
A
100
AcDbEntity
  8
Hawa4
 62
     4
 48
0.0125
100
AcDbLine
 10
258.738679
 20
81.825404
 30
0.0
 11
259.23868
 21
81.825404
 31
0.0
  0
LINE
  5
6E
330
A
100
AcDbEntity
  8
Hawa6
 62
     3
 48
0.026351
100
AcDbLine
 10
129.403658
 20
81.32540400000001
 30
0.0
 11
130.457679
 21
81.32540400000001
 31
0.0
  0
LINE
  5
6F
330
A
100
AcDbEntity
  8
Hawa6
 62
     3
 48
0.221351
100
AcDbLine
 10
134.549636
 20
81.32540400000001
 30
0.0
 11
143.403657
 21
81.32540400000001
 31
0.0
  0
LINE
  5
70
330
A
100
AcDbEntity
  8
Hawa6
 62
     3
 48
0.014738
100
AcDbLine
 10
129.403658
 20
79.875404
 30
0.0
 11
129.993159
 21
79.875404
 31
0.0
  0
LINE
  5
71
330
A
100
AcDbEntity
  8
Hawa6
 62
     3
 48
0.209737
100
AcDbLine
 10
135.014156
 20
79.875404
 30
0.0
 11
143.403656
 21
79.875404
 31
0.0
  0
LINE
  5
72
330
A
100
AcDbEntity
  8
Hawa4
 62
     4
 48
0.016158
100
AcDbLine
 10
248.013708
 20
79.875404
 30
0.0
 11
248.660026
 21
79.875404
 31
0.0
  0
LINE
  5
73
330
A
100
AcDbEntity
  8
Hawa4
 62
     4
 48
0.021141
100
AcDbLine
 10
251.314374
 20
79.875404
 30
0.0
 11
252.160009
 21
79.875404
 31
0.0
  0
LINE
  5
74
330
A
100
AcDbEntity
  8
Hawa6
 62
     3
 48
0.013952
100
AcDbLine
 10
129.403658
 20
79.575404
 30
0.0
 11
129.961752
 21
79.575404
 31
0.0
  0
LINE
  5
75
330
A
100
AcDbEntity
  8
Hawa6
 62
     3
 48
0.023263
100
AcDbLine
 10
130.312784
 20
79.575404
 30
0.0
 11
131.243293
 21
79.575404
 31
0.0
  0
LINE
  5
76
330
A
100
AcDbEntity
  8
Hawa6
 62
     3
 48
0.023272
100
AcDbLine
 10
133.764023
 20
79.575404
 30
0.0
 11
134.694912
 21
79.575404
 31
0.0
  0
LINE
  5
77
330
A
100
AcDbEntity
  8
Hawa6
 62
     3
 48
0.208952
100
AcDbLine
 10
135.045563
 20
79.575404
 30
0.0
 11
143.403655
 21
79.575404
 31
0.0
  0
LINE
  5
78
330
A
100
AcDbEntity
  8
Hawa6
 62
     3
 48
0.35
100
AcDbLine
 10
129.403658
 20
63.075404
 30
0.0
 11
143.403655
 21
63.075404
 31
0.0
  0
LINE
  5
79
330
A
100
AcDbEntity
  8
Hawa4
 62
     4
 48
0.000889
100
AcDbLine
 10
256.238679
 20
63.075404
 30
0.0
 11
256.274242
 21
63.075404
 31
0.0
  0
LINE
  5
7A
330
A
100
AcDbEntity
  8
Hawa6
 62
     3
 48
0.35
100
AcDbLine
 10
129.403658
 20
62.775404
 30
0.0
 11
143.403656
 21
62.775404
 31
0.0
  0
LINE
  5
7B
330
A
100
AcDbEntity
  8
Hawa4
 62
     4
 48
0.016213
100
AcDbLine
 10
248.01441
 20
62.775404
 30
0.0
 11
248.662919
 21
62.775404
 31
0.0
  0
LINE
  5
7C
330
A
100
AcDbEntity
  8
Hawa4
 62
     4
 48
0.021286
100
AcDbLine
 10
251.311481
 20
62.775404
 30
0.0
 11
252.162903
 21
62.775404
 31
0.0
  0
LINE
  5
7D
330
A
100
AcDbEntity
  8
Hawa6
 62
     3
 48
0.35
100
AcDbLine
 10
129.403658
 20
61.325404
 30
0.0
 11
143.403657
 21
61.325404
 31
0.0
  0
LINE
  5
7E
330
A
100
AcDbEntity
  8
Hawa4
 62
     4
 48
0.00125
100
AcDbLine
 10
136.852179
 20
71.02540400000001
 30
0.0
 11
136.902179
 21
71.02540400000001
 31
0.0
  0
LINE
  5
7F
330
A
100
AcDbEntity
  8
Hawa4
 62
     4
 48
0.00125
100
AcDbLine
 10
136.852179
 20
69.205289
 30
0.0
 11
136.902179
 21
69.205289
 31
0.0
  0
LINE
  5
80
330
A
100
AcDbEntity
  8
Hawa5
 62
     1
 48
0.2
100
AcDbLine
 10
253.73868
 20
67.32540400000001
 30
0.0
 11
253.73868
 21
75.32540400000001
 31
0.0
  0
LINE
  5
81
330
A
100
AcDbEntity
  8
Hawa5
 62
     1
 48
0.035355
100
AcDbLine
 10
253.73868
 20
67.32540400000001
 30
0.0
 11
252.73868
 21
66.325404
 31
0.0
  0
LINE
  5
82
330
A
100
AcDbEntity
  8
Hawa5
 62
     1
100
AcDbLine
 10
137.903658
 20
66.325404
 30
0.0
 11
204.370882
 21
66.325404
 31
0.0
  0
LINE
  5
83
330
A
100
AcDbEntity
  8
Hawa5
 62
     1
100
AcDbLine
 10
214.370882
 20
66.325404
 30
0.0
 11
252.73868
 21
66.325404
 31
0.0
  0
LINE
  5
84
330
A
100
AcDbEntity
  8
Hawa5
 62
     1
 48
0.035355
100
AcDbLine
 10
136.903658
 20
67.32540400000001
 30
0.0
 11
137.903658
 21
66.325404
 31
0.0
  0
LINE
  5
85
330
A
100
AcDbEntity
  8
Hawa5
 62
     1
 48
0.2
100
AcDbLine
 10
136.903658
 20
67.32540400000001
 30
0.0
 11
136.903658
 21
75.32540400000001
 31
0.0
  0
LINE
  5
86
330
A
100
AcDbEntity
  8
Hawa5
 62
     1
 48
0.035355
100
AcDbLine
 10
136.903658
 20
75.32540400000001
 30
0.0
 11
137.903658
 21
76.325404
 31
0.0
  0
LINE
  5
87
330
A
100
AcDbEntity
  8
Hawa5
 62
     1
100
AcDbLine
 10
137.903658
 20
76.325404
 30
0.0
 11
204.370882
 21
76.325404
 31
0.0
  0
LINE
  5
88
330
A
100
AcDbEntity
  8
Hawa5
 62
     1
100
AcDbLine
 10
214.370882
 20
76.325404
 30
0.0
 11
252.73868
 21
76.325404
 31
0.0
  0
LINE
  5
89
330
A
100
AcDbEntity
  8
Hawa5
 62
     1
 48
0.035355
100
AcDbLine
 10
253.73868
 20
75.32540400000001
 30
0.0
 11
252.73868
 21
76.325404
 31
0.0
  0
LINE
  5
8A
330
A
100
AcDbEntity
  8
Hawa4
 62
     4
 48
0.03625
100
AcDbLine
 10
245.23868
 20
62.775404
 30
0.0
 11
245.23868
 21
61.325404
 31
0.0
  0
ARC
  5
8B
330
A
100
AcDbEntity
  8
Hawa4
 62
     4
100
AcDbCircle
 10
245.53868
 20
62.775404
 30
0.0
 40
0.3
100
AcDbArc
 50
90.0
 51
180.0
  0
LINE
  5
8C
330
A
100
AcDbEntity
  8
Hawa4
 62
     4
 48
0.049393
100
AcDbLine
 10
245.53868
 20
63.075404
 30
0.0
 11
247.514416
 21
63.075404
 31
0.0
  0
LINE
  5
8D
330
A
100
AcDbEntity
  8
Hawa4
 62
     4
 48
0.018107
100
AcDbLine
 10
247.514416
 20
63.075404
 30
0.0
 11
248.026548
 21
62.563272
 31
0.0
  0
ARC
  5
8E
330
A
100
AcDbEntity
  8
Hawa4
 62
     4
100
AcDbCircle
 10
248.23868
 20
62.775404
 30
0.0
 40
0.3
100
AcDbArc
 50
225.0
 51
315.0
  0
LINE
  5
8F
330
A
100
AcDbEntity
  8
Hawa4
 62
     4
 48
0.018107
100
AcDbLine
 10
248.450812
 20
62.563272
 30
0.0
 11
248.962944
 21
63.075404
 31
0.0
  0
LINE
  5
90
330
A
100
AcDbEntity
  8
Hawa4
 62
     4
 48
0.051286
100
AcDbLine
 10
248.962944
 20
63.075404
 30
0.0
 11
251.014399
 21
63.075404
 31
0.0
  0
LINE
  5
91
330
A
100
AcDbEntity
  8
Hawa4
 62
     4
 48
0.018107
100
AcDbLine
 10
251.014399
 20
63.075404
 30
0.0
 11
251.526531
 21
62.563272
 31
0.0
  0
ARC
  5
92
330
A
100
AcDbEntity
  8
Hawa4
 62
     4
100
AcDbCircle
 10
251.738663
 20
62.775404
 30
0.0
 40
0.3
100
AcDbArc
 50
225.0
 51
315.0
  0
LINE
  5
93
330
A
100
AcDbEntity
  8
Hawa4
 62
     4
 48
0.018107
100
AcDbLine
 10
251.950795
 20
62.563272
 30
0.0
 11
252.462927
 21
63.075404
 31
0.0
  0
LINE
  5
94
330
A
100
AcDbEntity
  8
Hawa4
 62
     4
 48
0.094394
100
AcDbLine
 10
252.462927
 20
63.075404
 30
0.0
 11
256.23868
 21
63.075404
 31
0.0
  0
ARC
  5
95
330
A
100
AcDbEntity
  8
Hawa4
 62
     4
100
AcDbCircle
 10
256.23868
 20
63.57540400000001
 30
0.0
 40
0.5
100
AcDbArc
 50
270.0
 51
360.0
  0
LINE
  5
96
330
A
100
AcDbEntity
  8
Hawa4
 62
     4
 48
0.125747
100
AcDbLine
 10
256.73868
 20
68.605289
 30
0.0
 11
256.73868
 21
63.57540400000001
 31
0.0
  0
LINE
  5
97
330
A
100
AcDbEntity
  8
Hawa4
 62
     4
 48
0.010607
100
AcDbLine
 10
257.03868
 20
68.90528899999999
 30
0.0
 11
256.73868
 21
68.605289
 31
0.0
  0
LINE
  5
98
330
A
100
AcDbEntity
  8
Hawa4
 62
     4
 48
0.010607
100
AcDbLine
 10
256.73868
 20
69.205289
 30
0.0
 11
257.03868
 21
68.90528899999999
 31
0.0
  0
LINE
  5
99
330
A
100
AcDbEntity
  8
Hawa4
 62
     4
 48
0.045503
100
AcDbLine
 10
256.73868
 20
71.02540400000001
 30
0.0
 11
256.73868
 21
69.205289
 31
0.0
  0
LINE
  5
9A
330
A
100
AcDbEntity
  8
Hawa4
 62
     4
 48
0.010607
100
AcDbLine
 10
257.03868
 20
71.325404
 30
0.0
 11
256.73868
 21
71.02540400000001
 31
0.0
  0
LINE
  5
9B
330
A
100
AcDbEntity
  8
Hawa4
 62
     4
 48
0.010607
100
AcDbLine
 10
256.73868
 20
71.62540400000001
 30
0.0
 11
257.03868
 21
71.325404
 31
0.0
  0
LINE
  5
9C
330
A
100
AcDbEntity
  8
Hawa4
 62
     4
 48
0.18625
100
AcDbLine
 10
256.73868
 20
79.07540400000001
 30
0.0
 11
256.73868
 21
71.62540400000001
 31
0.0
  0
ARC
  5
9D
330
A
100
AcDbEntity
  8
Hawa4
 62
     4
100
AcDbCircle
 10
256.23868
 20
79.07540400000001
 30
0.0
 40
0.5
100
AcDbArc
 50
360.0
 51
450.0
  0
LINE
  5
9E
330
A
100
AcDbEntity
  8
Hawa4
 62
     4
 48
0.094394
100
AcDbLine
 10
256.23868
 20
79.575404
 30
0.0
 11
252.462927
 21
79.575404
 31
0.0
  0
LINE
  5
9F
330
A
100
AcDbEntity
  8
Hawa4
 62
     4
 48
0.018107
100
AcDbLine
 10
251.950795
 20
80.087536
 30
0.0
 11
252.462927
 21
79.575404
 31
0.0
  0
ARC
  5
A0
330
A
100
AcDbEntity
  8
Hawa4
 62
     4
100
AcDbCircle
 10
251.738663
 20
79.875404
 30
0.0
 40
0.3
100
AcDbArc
 50
45.0
 51
135.0
  0
LINE
  5
A1
330
A
100
AcDbEntity
  8
Hawa4
 62
     4
 48
0.018107
100
AcDbLine
 10
251.014399
 20
79.575404
 30
0.0
 11
251.526531
 21
80.087536
 31
0.0
  0
LINE
  5
A2
330
A
100
AcDbEntity
  8
Hawa4
 62
     4
 48
0.051286
100
AcDbLine
 10
251.014399
 20
79.575404
 30
0.0
 11
248.962944
 21
79.575404
 31
0.0
  0
LINE
  5
A3
330
A
100
AcDbEntity
  8
Hawa4
 62
     4
 48
0.018107
100
AcDbLine
 10
248.450812
 20
80.087536
 30
0.0
 11
248.962944
 21
79.575404
 31
0.0
  0
ARC
  5
A4
330
A
100
AcDbEntity
  8
Hawa4
 62
     4
100
AcDbCircle
 10
248.23868
 20
79.875404
 30
0.0
 40
0.3
100
AcDbArc
 50
45.0
 51
135.0
  0
LINE
  5
A5
330
A
100
AcDbEntity
  8
Hawa4
 62
     4
 48
0.018107
100
AcDbLine
 10
247.514416
 20
79.575404
 30
0.0
 11
248.026548
 21
80.087536
 31
0.0
  0
LINE
  5
A6
330
A
100
AcDbEntity
  8
Hawa4
 62
     4
 48
0.049393
100
AcDbLine
 10
247.514416
 20
79.575404
 30
0.0
 11
245.53868
 21
79.575404
 31
0.0
  0
ARC
  5
A7
330
A
100
AcDbEntity
  8
Hawa4
 62
     4
100
AcDbCircle
 10
245.53868
 20
79.875404
 30
0.0
 40
0.3
100
AcDbArc
 50
180.0
 51
270.0
  0
LINE
  5
A8
330
A
100
AcDbEntity
  8
Hawa4
 62
     4
 48
0.03625
100
AcDbLine
 10
245.23868
 20
81.32540400000001
 30
0.0
 11
245.23868
 21
79.875404
 31
0.0
  0
ARC
  5
A9
330
A
100
AcDbEntity
  8
Hawa4
 62
     4
100
AcDbCircle
 10
245.73868
 20
81.32540400000001
 30
0.0
 40
0.5
100
AcDbArc
 50
90.0
 51
180.0
  0
LINE
  5
AA
330
A
100
AcDbEntity
  8
Hawa4
 62
     4
 48
0.325
100
AcDbLine
 10
245.73868
 20
81.825404
 30
0.0
 11
258.73868
 21
81.825404
 31
0.0
  0
ARC
  5
AB
330
A
100
AcDbEntity
  8
Hawa4
 62
     4
100
AcDbCircle
 10
258.73868
 20
81.32540400000001
 30
0.0
 40
0.5
100
AcDbArc
 50
360.0
 51
450.0
  0
LINE
  5
AC
330
A
100
AcDbEntity
  8
Hawa4
 62
     4
100
AcDbLine
 10
259.23868
 20
81.32540400000001
 30
0.0
 11
259.23868
 21
61.325404
 31
0.0
  0
ARC
  5
AD
330
A
100
AcDbEntity
  8
Hawa4
 62
     4
100
AcDbCircle
 10
258.73868
 20
61.325404
 30
0.0
 40
0.5
100
AcDbArc
 50
270.0
 51
360.0
  0
LINE
  5
AE
330
A
100
AcDbEntity
  8
Hawa4
 62
     4
 48
0.325
100
AcDbLine
 10
245.73868
 20
60.825404
 30
0.0
 11
258.73868
 21
60.825404
 31
0.0
  0
ARC
  5
AF
330
A
100
AcDbEntity
  8
Hawa4
 62
     4
100
AcDbCircle
 10
245.73868
 20
61.325404
 30
0.0
 40
0.5
100
AcDbArc
 50
180.0
 51
270.0
  0
LINE
  5
B0
330
A
100
AcDbEntity
  8
Hawa6
 62
     3
100
AcDbLine
 10
143.403658
 20
60.996166
 30
0.0
 11
204.370882
 21
60.996166
 31
0.0
  0
LINE
  5
B1
330
A
100
AcDbEntity
  8
Hawa4
 62
     4
 48
0.000492
100
AcDbLine
 10
143.403658
 20
60.996166
 30
0.0
 11
143.403658
 21
61.015845
 31
0.0
  0
LINE
  5
B2
330
A
100
AcDbEntity
  8
Hawa4
 62
     4
 48
0.010949
100
AcDbLine
 10
143.403658
 20
61.453804
 30
0.0
 11
143.403658
 21
61.015845
 31
0.0
  0
LINE
  5
B3
330
A
100
AcDbEntity
  8
Hawa6
 62
     3
100
AcDbLine
 10
143.403658
 20
61.453804
 30
0.0
 11
204.370882
 21
61.453804
 31
0.0
  0
LINE
  5
B4
330
A
100
AcDbEntity
  8
Hawa4
 62
     4
 48
0.09629
100
AcDbLine
 10
143.403658
 20
61.453804
 30
0.0
 11
143.403658
 21
65.305419
 31
0.0
  0
LINE
  5
B5
330
A
100
AcDbEntity
  8
Hawa4
 62
     4
 48
0.001382
100
AcDbLine
 10
143.403658
 20
65.77003000000001
 30
0.0
 11
143.403658
 21
65.82530600000001
 31
0.0
  0
LINE
  5
B6
330
A
100
AcDbEntity
  8
Hawa6
 62
     3
100
AcDbLine
 10
143.403658
 20
65.82530600000001
 30
0.0
 11
204.370882
 21
65.82530600000001
 31
0.0
  0
LINE
  5
B7
330
A
100
AcDbEntity
  8
Hawa4
 62
     4
 48
0.012502
100
AcDbLine
 10
143.403658
 20
66.325404
 30
0.0
 11
143.403658
 21
65.82530600000001
 31
0.0
  0
LINE
  5
B8
330
A
100
AcDbEntity
  8
Hawa6
 62
     3
100
AcDbLine
 10
204.370882
 20
61.015845
 30
0.0
 11
143.403658
 21
61.015845
 31
0.0
  0
LINE
  5
B9
330
A
100
AcDbEntity
  8
Hawa6
 62
     3
100
AcDbLine
 10
204.370882
 20
81.65464099999999
 30
0.0
 11
143.403658
 21
81.65464099999999
 31
0.0
  0
LINE
  5
BA
330
A
100
AcDbEntity
  8
Hawa4
 62
     4
 48
0.000492
100
AcDbLine
 10
143.403658
 20
81.65464099999999
 30
0.0
 11
143.403658
 21
81.634962
 31
0.0
  0
LINE
  5
BB
330
A
100
AcDbEntity
  8
Hawa6
 62
     3
100
AcDbLine
 10
204.370882
 20
81.19700300000001
 30
0.0
 11
143.403658
 21
81.19700300000001
 31
0.0
  0
LINE
  5
BC
330
A
100
AcDbEntity
  8
Hawa4
 62
     4
 48
0.010949
100
AcDbLine
 10
143.403658
 20
81.19700300000001
 30
0.0
 11
143.403658
 21
81.634963
 31
0.0
  0
LINE
  5
BD
330
A
100
AcDbEntity
  8
Hawa6
 62
     3
100
AcDbLine
 10
204.370882
 20
76.825501
 30
0.0
 11
143.403658
 21
76.825501
 31
0.0
  0
LINE
  5
BE
330
A
100
AcDbEntity
  8
Hawa4
 62
     4
 48
0.096558
100
AcDbLine
 10
143.403658
 20
77.334681
 30
0.0
 11
143.403658
 21
81.19700300000001
 31
0.0
  0
LINE
  5
BF
330
A
100
AcDbEntity
  8
Hawa4
 62
     4
 48
0.001238
100
AcDbLine
 10
143.403658
 20
76.825501
 30
0.0
 11
143.403658
 21
76.875022
 31
0.0
  0
LINE
  5
C0
330
A
100
AcDbEntity
  8
Hawa5
 62
     1
100
AcDbLine
 10
204.370882
 20
76.325404
 30
0.0
 11
143.403658
 21
76.325404
 31
0.0
  0
LINE
  5
C1
330
A
100
AcDbEntity
  8
Hawa4
 62
     4
 48
0.012502
100
AcDbLine
 10
143.403658
 20
76.325404
 30
0.0
 11
143.403658
 21
76.825501
 31
0.0
  0
LINE
  5
C2
330
A
100
AcDbEntity
  8
Hawa6
 62
     3
100
AcDbLine
 10
143.403658
 20
81.634963
 30
0.0
 11
204.370882
 21
81.634963
 31
0.0
  0
ARC
  5
C3
330
A
100
AcDbEntity
  8
Hawa4
 62
     4
100
AcDbCircle
 10
253.314416
 20
63.675404
 30
0.0
 40
0.6
100
AcDbArc
 50
270.0
 51
450.0
  0
LINE
  5
C4
330
A
100
AcDbEntity
  8
Hawa4
 62
     4
 48
0.125
100
AcDbLine
 10
253.314416
 20
63.075404
 30
0.0
 11
248.314416
 21
63.075404
 31
0.0
  0
LINE
  5
C5
330
A
100
AcDbEntity
  8
Hawa4
 62
     4
 48
0.014142
100
AcDbLine
 10
247.914416
 20
62.675404
 30
0.0
 11
248.314416
 21
63.075404
 31
0.0
  0
LINE
  5
C6
330
A
100
AcDbEntity
  8
Hawa4
 62
     4
 48
0.014142
100
AcDbLine
 10
247.514416
 20
63.075404
 30
0.0
 11
247.914416
 21
62.675404
 31
0.0
  0
LINE
  5
C7
330
A
100
AcDbEntity
  8
Hawa4
 62
     4
 48
0.05875
100
AcDbLine
 10
247.514416
 20
63.075404
 30
0.0
 11
245.164416
 21
63.075404
 31
0.0
  0
ARC
  5
C8
330
A
100
AcDbEntity
  8
Hawa4
 62
     4
100
AcDbCircle
 10
245.164416
 20
62.475404
 30
0.0
 40
0.6
100
AcDbArc
 50
90.0
 51
215.079116
  0
LINE
  5
C9
330
A
100
AcDbEntity
  8
Hawa4
 62
     4
 48
0.033058
100
AcDbLine
 10
245.352855
 20
60.996166
 30
0.0
 11
244.6734
 21
62.130579
 31
0.0
  0
LINE
  5
CA
330
A
100
AcDbEntity
  8
Hawa4
 62
     4
 48
0.006371
100
AcDbLine
 10
245.352855
 20
60.996166
 30
0.0
 11
245.098894
 21
61.01710799999999
 31
0.0
  0
ARC
  5
CB
330
A
100
AcDbEntity
  8
Hawa4
 62
     4
100
AcDbCircle
 10
245.037335
 20
62.51584499999999
 30
0.0
 40
1.5
100
AcDbArc
 50
225.074603
 51
272.35207
  0
ARC
  5
CC
330
A
100
AcDbEntity
  8
Hawa4
 62
     4
100
AcDbCircle
 10
224.113134
 20
45.646653
 30
0.0
 40
25.386531
100
AcDbArc
 50
38.51038300000001
 51
52.641488
  0
ARC
  5
CD
330
A
100
AcDbEntity
  8
Hawa4
 62
     4
100
AcDbCircle
 10
239.681379
 20
66.04858199999999
 30
0.0
 40
0.2768219999999999
100
AcDbArc
 50
90.0
 51
233.762158
  0
SPLINE
  5
CE
330
A
100
AcDbEntity
  8
Hawa4
 62
     4
100
AcDbSpline
210
0.0
220
0.0
230
1.0
 70
     8
 71
     3
 72
    26
 73
    22
 74
     0
 42
0.0000000001
 43
0.0000000001
 40
0.0
 40
0.0
 40
0.0
 40
0.0
 40
0.2799053032571495
 40
0.5569766701720558
 40
0.8318028465371243
 40
1.10514872481035
 40
1.377820895543437
 40
1.650486016717686
 40
1.923735672973514
 40
2.198064096823335
 40
2.473320467761501
 40
2.748944347686588
 40
3.024366183839371
 40
3.299380517134514
 40
3.573530225836808
 40
3.846544756545418
 40
4.119001624977699
 40
4.391841238306758
 40
4.665771665432004
 40
4.940870125284896
 40
5.217302632576782
 40
5.217302632576782
 40
5.217302632576782
 40
5.217302632576782
 10
239.6813792167125
 20
66.32540356911575
 30
0.0
 10
239.7745766755379
 20
66.32031010846112
 30
0.0
 10
239.9596487556777
 20
66.30426227453928
 30
0.0
 10
240.2338528677206
 20
66.26161450202769
 30
0.0
 10
240.5022368886428
 20
66.20024364909132
 30
0.0
 10
240.7641561304728
 20
66.12030678752546
 30
0.0
 10
241.0191647196124
 20
66.02254728417427
 30
0.0
 10
241.2671916105783
 20
65.9083925747003
 30
0.0
 10
241.5087117793982
 20
65.7799758726935
 30
0.0
 10
241.7447476110862
 20
65.64013831581863
 30
0.0
 10
241.9766879351234
 20
65.49220925335672
 30
0.0
 10
242.2061087038556
 20
65.33978747415442
 30
0.0
 10
242.4348347492385
 20
65.18647976867585
 30
0.0
 10
242.6647314316844
 20
65.03580340005796
 30
0.0
 10
242.8975090284166
 20
64.8910773173987
 30
0.0
 10
243.1346602135757
 20
64.75526817661438
 30
0.0
 10
243.3774828349465
 20
64.63075494657836
 30
0.0
 10
243.6269239164961
 20
64.51927491746535
 30
0.0
 10
243.8832063415353
 20
64.42202983352547
 30
0.0
 10
244.1459461722101
 20
64.33974776676804
 30
0.0
 10
244.3243915732632
 20
64.29517921915739
 30
0.0
 10
244.4144155321961
 20
64.27540356911499
 30
0.0
  0
LINE
  5
CF
330
A
100
AcDbEntity
  8
Hawa4
 62
     4
 48
0.072553
100
AcDbLine
 10
244.414416
 20
64.27540400000001
 30
0.0
 11
247.316551
 21
64.27540400000001
 31
0.0
  0
ARC
  5
D0
330
A
100
AcDbEntity
  8
Hawa4
 62
     4
100
AcDbCircle
 10
238.749909
 20
56.25361999999999
 30
0.0
 40
11.736401
100
AcDbArc
 50
43.11875599999999
 51
57.468423
  0
LINE
  5
D1
330
A
100
AcDbEntity
  8
Hawa4
 62
     4
 48
0.0125
100
AcDbLine
 10
245.06149
 20
66.148779
 30
0.0
 11
245.529255
 21
66.325404
 31
0.0
  0
SPLINE
  5
D2
330
A
100
AcDbEntity
  8
Hawa4
 62
     4
100
AcDbSpline
210
0.0
220
0.0
230
1.0
 70
     8
 71
     3
 72
    14
 73
    10
 74
     0
 42
0.0000000001
 43
0.0000000001
 40
0.0
 40
0.0
 40
0.0
 40
0.0
 40
0.5567912818920769
 40
1.117595884496572
 40
1.677108816236269
 40
2.233208358225138
 40
2.788559517683196
 40
3.343697473209628
 40
3.899247083813459
 40
3.899247083813459
 40
3.899247083813459
 40
3.899247083813459
 10
248.8398516163146
 20
64.27540356911423
 30
0.0
 10
248.6877824276465
 20
64.38180624727803
 30
0.0
 10
248.381920671931
 20
64.59447887322411
 30
0.0
 10
247.9209872566041
 20
64.91081266907746
 30
0.0
 10
247.4575116026824
 20
65.22300861012597
 30
0.0
 10
246.9905573953246
 20
65.5267141210129
 30
0.0
 10
246.5162455370436
 20
65.81613848047097
 30
0.0
 10
246.0302470749442
 20
66.08532132797577
 30
0.0
 10
245.6976318003309
 20
66.24821934509521
 30
0.0
 10
245.5292550934757
 20
66.3254035691148
 30
0.0
  0
LINE
  5
D3
330
A
100
AcDbEntity
  8
Hawa4
 62
     4
 48
0.068158
100
AcDbLine
 10
248.839852
 20
64.27540400000001
 30
0.0
 11
251.56617
 21
64.27540400000001
 31
0.0
  0
SPLINE
  5
D4
330
A
100
AcDbEntity
  8
Hawa4
 62
     4
100
AcDbSpline
210
0.0
220
0.0
230
1.0
 70
     8
 71
     3
 72
    14
 73
    10
 74
     0
 42
0.0000000001
 43
0.0000000001
 40
0.0
 40
0.0
 40
0.0
 40
0.0
 40
0.3551788021910713
 40
0.710709687838294
 40
1.06644447295021
 40
1.42207890468193
 40
1.776811573561935
 40
2.131418462505438
 40
2.486903502558118
 40
2.486903502558118
 40
2.486903502558118
 40
2.486903502558118
 10
251.566169737029
 20
64.27540356911379
 30
0.0
 10
251.5054041256323
 20
64.37702063954576
 30
0.0
 10
251.3812300668396
 20
64.57879645387987
 30
0.0
 10
251.1872115113605
 20
64.87671298563737
 30
0.0
 10
250.9849156388689
 20
65.16926791324094
 30
0.0
 10
250.7728941244615
 20
65.45457181858735
 30
0.0
 10
250.5478351293428
 20
65.72933172444023
 30
0.0
 10
250.3057308148535
 20
65.98930210057395
 30
0.0
 10
250.1321298121464
 20
66.15045615251696
 30
0.0
 10
250.042370512962
 20
66.22789759831151
 30
0.0
  0
LINE
  5
D5
330
A
100
AcDbEntity
  8
Hawa4
 62
     4
 48
0.0125
100
AcDbLine
 10
250.042371
 20
66.22789799999999
 30
0.0
 11
250.534774
 21
66.31472200000001
 31
0.0
  0
ARC
  5
D6
330
A
100
AcDbEntity
  8
Hawa4
 62
     4
100
AcDbCircle
 10
240.454782
 20
52.195537
 30
0.0
 40
17.348387
100
AcDbArc
 50
44.131026
 51
54.476135
  0
LINE
  5
D7
330
A
100
AcDbEntity
  8
Hawa4
 62
     4
 48
0.010192
100
AcDbLine
 10
252.906738
 20
64.27540400000001
 30
0.0
 11
253.314416
 21
64.27540400000001
 31
0.0
  0
LINE
  5
D8
330
A
100
AcDbEntity
  8
Hawa4
 62
     4
 48
0.010192
100
AcDbLine
 10
252.906738
 20
78.375404
 30
0.0
 11
253.314416
 21
78.375404
 31
0.0
  0
ARC
  5
D9
330
A
100
AcDbEntity
  8
Hawa4
 62
     4
100
AcDbCircle
 10
240.454782
 20
90.45526999999999
 30
0.0
 40
17.348387
100
AcDbArc
 50
305.523865
 51
315.868974
  0
LINE
  5
DA
330
A
100
AcDbEntity
  8
Hawa4
 62
     4
 48
0.0125
100
AcDbLine
 10
250.042371
 20
76.42291
 30
0.0
 11
250.534774
 21
76.336085
 31
0.0
  0
SPLINE
  5
DB
330
A
100
AcDbEntity
  8
Hawa4
 62
     4
100
AcDbSpline
210
0.0
220
0.0
230
1.0
 70
     8
 71
     3
 72
    14
 73
    10
 74
     0
 42
0.0000000001
 43
0.0000000001
 40
0.0
 40
0.0
 40
0.0
 40
0.0
 40
0.3551788021934668
 40
0.7107096878429939
 40
1.066444472957253
 40
1.42207890469052
 40
1.776811573564159
 40
2.131418462503368
 40
2.486903502557997
 40
2.486903502557997
 40
2.486903502557997
 40
2.486903502557997
 10
251.5661697370991
 20
78.3754035691138
 30
0.0
 10
251.5054041257019
 20
78.27378649868115
 30
0.0
 10
251.381230066908
 20
78.07201068434597
 30
0.0
 10
251.1872115114277
 20
77.77409415258645
 30
0.0
 10
250.9849156389346
 20
77.48153922498139
 30
0.0
 10
250.7728941245273
 20
77.19623531963589
 30
0.0
 10
250.547835129411
 20
76.921475413785
 30
0.0
 10
250.3057308149227
 20
76.66150503765428
 30
0.0
 10
250.1321298122165
 20
76.50035098571149
 30
0.0
 10
250.0423705130315
 20
76.42290953991656
 30
0.0
  0
LINE
  5
DC
330
A
100
AcDbEntity
  8
Hawa4
 62
     4
 48
0.068158
100
AcDbLine
 10
248.839852
 20
78.375404
 30
0.0
 11
251.56617
 21
78.375404
 31
0.0
  0
SPLINE
  5
DD
330
A
100
AcDbEntity
  8
Hawa4
 62
     4
100
AcDbSpline
210
0.0
220
0.0
230
1.0
 70
     8
 71
     3
 72
    14
 73
    10
 74
     0
 42
0.0000000001
 43
0.0000000001
 40
0.0
 40
0.0
 40
0.0
 40
0.0
 40
0.5567912819089667
 40
1.11759588669878
 40
1.67710881967691
 40
2.233208360891604
 40
2.788559519471449
 40
3.343697474116488
 40
3.899247083813636
 40
3.899247083813636
 40
3.899247083813636
 40
3.899247083813636
 10
248.8398516163846
 20
78.37540356911427
 30
0.0
 10
248.6877824277119
 20
78.26900089094727
 30
0.0
 10
248.3819206713898
 20
78.05632826458756
 30
0.0
 10
247.9209872551049
 20
77.73999446810342
 30
0.0
 10
247.4575116004471
 20
77.42779852656653
 30
0.0
 10
246.9905573931659
 20
77.12409301581441
 30
0.0
 10
246.5162455355625
 20
76.83466865686773
 30
0.0
 10
246.0302470742098
 20
76.56548580985099
 30
0.0
 10
245.6976318001254
 20
76.40258779300828
 30
0.0
 10
245.5292550935451
 20
76.3254035691148
 30
0.0
  0
LINE
  5
DE
330
A
100
AcDbEntity
  8
Hawa4
 62
     4
 48
0.0125
100
AcDbLine
 10
245.06149
 20
76.50202799999999
 30
0.0
 11
245.529255
 21
76.325404
 31
0.0
  0
ARC
  5
DF
330
A
100
AcDbEntity
  8
Hawa4
 62
     4
100
AcDbCircle
 10
238.749909
 20
86.39718700000001
 30
0.0
 40
11.736401
100
AcDbArc
 50
302.531577
 51
316.881244
  0
LINE
  5
E0
330
A
100
AcDbEntity
  8
Hawa4
 62
     4
 48
0.072553
100
AcDbLine
 10
244.414416
 20
78.375404
 30
0.0
 11
247.316551
 21
78.375404
 31
0.0
  0
SPLINE
  5
E1
330
A
100
AcDbEntity
  8
Hawa4
 62
     4
100
AcDbSpline
210
0.0
220
0.0
230
1.0
 70
     8
 71
     3
 72
    26
 73
    22
 74
     0
 42
0.0000000001
 43
0.0000000001
 40
0.0
 40
0.0
 40
0.0
 40
0.0
 40
0.2799053032833589
 40
0.5569766701983989
 40
0.8318028465425491
 40
1.10514872479792
 40
1.377820895537162
 40
1.650486016740629
 40
1.923735673014089
 40
2.19806409684754
 40
2.473320467750556
 40
2.748944347653269
 40
3.024366183816999
 40
3.299380517142771
 40
3.573530225849143
 40
3.846544756525601
 40
4.119001624915046
 40
4.391841238224656
 40
4.665771665368334
 40
4.940870125253808
 40
5.217302632578729
 40
5.217302632578729
 40
5.217302632578729
 40
5.217302632578729
 10
239.681379216782
 20
76.3254035691158
 30
0.0
 10
239.7745766756162
 20
76.33049702977088
 30
0.0
 10
239.9596487557647
 20
76.34654486369348
 30
0.0
 10
240.2338528678098
 20
76.38919263620213
 30
0.0
 10
240.5022368887198
 20
76.45056348913451
 30
0.0
 10
240.7641561305387
 20
76.53050035070009
 30
0.0
 10
241.0191647196823
 20
76.62825985405672
 30
0.0
 10
241.267191610664
 20
76.74241456353859
 30
0.0
 10
241.5087117794928
 20
76.87083126555044
 30
0.0
 10
241.7447476111717
 20
77.01066882241846
 30
0.0
 10
241.9766879351876
 20
77.15859788486787
 30
0.0
 10
242.2061087039062
 20
77.31101966406268
 30
0.0
 10
242.4348347492938
 20
77.4643273695458
 30
0.0
 10
242.664731431753
 20
77.61500373817111
 30
0.0
 10
242.8975090284843
 20
77.7597298208333
 30
0.0
 10
243.1346602136209
 20
77.89553896160938
 30
0.0
 10
243.377482834963
 20
78.0200521916324
 30
0.0
 10
243.6269239164995
 20
78.13153222073879
 30
0.0
 10
243.8832063415476
 20
78.22877730468483
 30
0.0
 10
244.1459461722482
 20
78.31105937145385
 30
0.0
 10
244.3243915733225
 20
78.35562791907026
 30
0.0
 10
244.4144155322662
 20
78.37540356911498
 30
0.0
  0
ARC
  5
E2
330
A
100
AcDbEntity
  8
Hawa4
 62
     4
100
AcDbCircle
 10
239.681379
 20
76.602225
 30
0.0
 40
0.2768219999999999
100
AcDbArc
 50
126.2378419999999
 51
270.0
  0
ARC
  5
E3
330
A
100
AcDbEntity
  8
Hawa4
 62
     4
100
AcDbCircle
 10
224.113134
 20
97.004154
 30
0.0
 40
25.386531
100
AcDbArc
 50
307.358512
 51
321.4896170000001
  0
ARC
  5
E4
330
A
100
AcDbEntity
  8
Hawa4
 62
     4
100
AcDbCircle
 10
245.037335
 20
80.13496299999999
 30
0.0
 40
1.5
100
AcDbArc
 50
87.64793
 51
134.925397
  0
LINE
  5
E5
330
A
100
AcDbEntity
  8
Hawa4
 62
     4
 48
0.006371
100
AcDbLine
 10
245.352855
 20
81.65464099999999
 30
0.0
 11
245.098894
 21
81.63369899999999
 31
0.0
  0
LINE
  5
E6
330
A
100
AcDbEntity
  8
Hawa4
 62
     4
 48
0.033058
100
AcDbLine
 10
245.352855
 20
81.65464099999999
 30
0.0
 11
244.6734
 21
80.52022800000001
 31
0.0
  0
ARC
  5
E7
330
A
100
AcDbEntity
  8
Hawa4
 62
     4
100
AcDbCircle
 10
245.164416
 20
80.17540399999999
 30
0.0
 40
0.6
100
AcDbArc
 50
144.920884
 51
270.0
  0
LINE
  5
E8
330
A
100
AcDbEntity
  8
Hawa4
 62
     4
 48
0.05875
100
AcDbLine
 10
247.514416
 20
79.575404
 30
0.0
 11
245.164416
 21
79.575404
 31
0.0
  0
LINE
  5
E9
330
A
100
AcDbEntity
  8
Hawa4
 62
     4
 48
0.014142
100
AcDbLine
 10
247.514416
 20
79.575404
 30
0.0
 11
247.914416
 21
79.975404
 31
0.0
  0
LINE
  5
EA
330
A
100
AcDbEntity
  8
Hawa4
 62
     4
 48
0.014142
100
AcDbLine
 10
247.914416
 20
79.975404
 30
0.0
 11
248.314416
 21
79.575404
 31
0.0
  0
LINE
  5
EB
330
A
100
AcDbEntity
  8
Hawa4
 62
     4
 48
0.125
100
AcDbLine
 10
253.314416
 20
79.575404
 30
0.0
 11
248.314416
 21
79.575404
 31
0.0
  0
ARC
  5
EC
330
A
100
AcDbEntity
  8
Hawa4
 62
     4
100
AcDbCircle
 10
253.314416
 20
78.975404
 30
0.0
 40
0.6
100
AcDbArc
 50
270.0
 51
450.0
  0
SPLINE
  5
ED
330
A
100
AcDbEntity
  8
Hawa4
 62
     4
100
AcDbSpline
210
0.0
220
0.0
230
1.0
 70
     8
 71
     3
 72
    26
 73
    22
 74
     0
 42
0.0000000001
 43
0.0000000001
 40
0.0
 40
0.0
 40
0.0
 40
0.0
 40
0.2852896173035391
 40
0.5647955282442352
 40
0.8399198313648499
 40
1.112128606397981
 40
1.382861347886387
 40
1.653398149363984
 40
1.924707996812438
 40
2.197320498875034
 40
2.471289199182991
 40
2.746268081625304
 40
3.021668222390583
 40
3.296853380787111
 40
3.571335182313596
 40
3.844930520204751
 40
4.117845379057672
 40
4.390655143983906
 40
4.664192364005195
 40
4.939414517303482
 40
5.217301580200913
 40
5.217301580200913
 40
5.217301580200913
 40
5.217301580200913
 10
239.6813792167128
 20
66.32540356911568
 30
0.0
 10
239.7763709272709
 20
66.32021204837744
 30
0.0
 10
239.9640355334262
 20
66.30382275308804
 30
0.0
 10
240.2408488418996
 20
66.26030178680185
 30
0.0
 10
240.509625029721
 20
66.19825764824425
 30
0.0
 10
240.7704989912146
 20
66.11808042339418
 30
0.0
 10
241.0237371942352
 20
66.02056438836614
 30
0.0
 10
241.2698396261829
 20
65.90702960773274
 30
0.0
 10
241.5096126354989
 20
65.77944023801897
 30
0.0
 10
241.7442310903656
 20
65.64044534868398
 30
0.0
 10
241.9751621935986
 20
65.49319595318107
 30
0.0
 10
242.2040554794186
 20
65.34115732842899
 30
0.0
 10
242.432643474485
 20
65.18794060290251
 30
0.0
 10
242.6626487577785
 20
65.03713771779294
 30
0.0
 10
242.8956926221888
 20
64.89215614785482
 30
0.0
 10
243.1331997775721
 20
64.75604830985592
 30
0.0
 10
243.3762957396157
 20
64.63133022283753
 30
0.0
 10
243.6257194558456
 20
64.51978375468534
 30
0.0
 10
243.8818767873414
 20
64.42249186058115
 30
0.0
 10
244.144966910612
 20
64.34000478116323
 30
0.0
 10
244.3239175783094
 20
64.29528334208689
 30
0.0
 10
244.4144155321965
 20
64.2754035691149
 30
0.0
  0
SPLINE
  5
EE
330
A
100
AcDbEntity
  8
Hawa4
 62
     4
100
AcDbSpline
210
0.0
220
0.0
230
1.0
 70
     8
 71
     3
 72
    14
 73
    10
 74
     0
 42
0.0000000001
 43
0.0000000001
 40
0.0
 40
0.0
 40
0.0
 40
0.0
 40
0.5563202239734196
 40
1.113387449801112
 40
1.670982285656705
 40
2.228598060610857
 40
2.785688833762121
 40
3.342273949627319
 40
3.899246304631838
 40
3.899246304631838
 40
3.899246304631838
 40
3.899246304631838
 10
248.8398516163149
 20
64.27540356911414
 30
0.0
 10
248.6879110786217
 20
64.38171623030348
 30
0.0
 10
248.3832034603443
 20
64.59359144049627
 30
0.0
 10
247.9239575001266
 20
64.90877489389963
 30
0.0
 10
247.4616586544172
 20
65.22024761941145
 30
0.0
 10
246.9943976513621
 20
65.52429881993344
 30
0.0
 10
246.5188205662956
 20
65.81466009145917
 30
0.0
 10
246.0315279558866
 20
66.0846807230469
 30
0.0
 10
245.6980632057156
 20
66.24802158799164
 30
0.0
 10
245.529255093476
 20
66.32540356911469
 30
0.0
  0
ARC
  5
F0
330
A
100
AcDbEntity
  8
Hawa4
 62
     4
100
AcDbCircle
 10
224.056242
 20
97.07149799999999
 30
0.0
 40
25.474625
100
AcDbArc
 50
307.36831
 51
313.791102
  0
ARC
  5
F1
330
A
100
AcDbEntity
  8
Hawa4
 62
     4
100
AcDbCircle
 10
238.687719
 20
86.47852399999999
 30
0.0
 40
11.838594
100
AcDbArc
 50
302.573644
 51
313.749319
  0
ARC
  5
F2
330
A
100
AcDbEntity
  8
Hawa4
 62
     4
100
AcDbCircle
 10
246.853126
 20
80.119663
 30
0.0
 40
4.882341999999999
100
AcDbArc
 50
310.784833
 51
313.272977
  0
ARC
  5
F3
330
A
100
AcDbEntity
  8
Hawa4
 62
     4
100
AcDbCircle
 10
240.556226
 20
90.329875
 30
0.0
 40
17.187257
100
AcDbArc
 50
305.49152
 51
313.548096
  0
LINE
  5
F4
330
A
100
AcDbEntity
  8
Hawa4
 62
     4
 48
0.01375
100
AcDbLine
 10
130.953658
 20
79.475404
 30
0.0
 11
130.403658
 21
79.475404
 31
0.0
  0
ARC
  5
F5
330
A
100
AcDbEntity
  8
Hawa4
 62
     4
100
AcDbCircle
 10
130.953658
 20
79.175404
 30
0.0
 40
0.3
100
AcDbArc
 50
360.0
 51
450.0
  0
LINE
  5
F6
330
A
100
AcDbEntity
  8
Hawa4
 62
     4
 48
0.01625
100
AcDbLine
 10
131.253658
 20
78.52540400000001
 30
0.0
 11
131.253658
 21
79.175404
 31
0.0
  0
ARC
  5
F7
330
A
100
AcDbEntity
  8
Hawa4
 62
     4
100
AcDbCircle
 10
131.053658
 20
78.52540400000001
 30
0.0
 40
0.2
100
AcDbArc
 50
270.0
 51
360.0
  0
LINE
  5
F8
330
A
100
AcDbEntity
  8
Hawa4
 62
     4
 48
0.004375
100
AcDbLine
 10
130.878658
 20
78.325404
 30
0.0
 11
131.053658
 21
78.325404
 31
0.0
  0
ARC
  5
F9
330
A
100
AcDbEntity
  8
Hawa4
 62
     4
100
AcDbCircle
 10
130.878658
 20
78.02540400000001
 30
0.0
 40
0.3
100
AcDbArc
 50
90.0
 51
180.0
  0
LINE
  5
FA
330
A
100
AcDbEntity
  8
Hawa4
 62
     4
 48
0.11
100
AcDbLine
 10
130.578658
 20
78.02540400000001
 30
0.0
 11
130.578658
 21
73.625404
 31
0.0
  0
ARC
  5
FB
330
A
100
AcDbEntity
  8
Hawa4
 62
     4
100
AcDbCircle
 10
130.878658
 20
73.625404
 30
0.0
 40
0.3
100
AcDbArc
 50
180.0
 51
270.0
  0
LINE
  5
FC
330
A
100
AcDbEntity
  8
Hawa4
 62
     4
 48
0.010233
100
AcDbLine
 10
131.287972
 20
73.325404
 30
0.0
 11
130.878658
 21
73.325404
 31
0.0
  0
ARC
  5
FD
330
A
100
AcDbEntity
  8
Hawa4
 62
     4
100
AcDbCircle
 10
131.287972
 20
73.125404
 30
0.0
 40
0.2
100
AcDbArc
 50
45.0
 51
90.0
  0
LINE
  5
FE
330
A
100
AcDbEntity
  8
Hawa4
 62
     4
 48
0.006464
100
AcDbLine
 10
131.612236
 20
73.08398199999999
 30
0.0
 11
131.429394
 21
73.266825
 31
0.0
  0
ARC
  5
FF
330
A
100
AcDbEntity
  8
Hawa4
 62
     4
100
AcDbCircle
 10
131.753658
 20
73.225404
 30
0.0
 40
0.2
100
AcDbArc
 50
225.0
 51
315.0
  0
LINE
  5
100
330
A
100
AcDbEntity
  8
Hawa4
 62
     4
 48
0.006464
100
AcDbLine
 10
132.077922
 20
73.266825
 30
0.0
 11
131.895079
 21
73.08398199999999
 31
0.0
  0
ARC
  5
101
330
A
100
AcDbEntity
  8
Hawa4
 62
     4
100
AcDbCircle
 10
132.219343
 20
73.125404
 30
0.0
 40
0.2
100
AcDbArc
 50
90.0
 51
135.0
  0
LINE
  5
102
330
A
100
AcDbEntity
  8
Hawa4
 62
     4
 48
0.014216
100
AcDbLine
 10
132.787972
 20
73.325404
 30
0.0
 11
132.219343
 21
73.325404
 31
0.0
  0
ARC
  5
103
330
A
100
AcDbEntity
  8
Hawa4
 62
     4
100
AcDbCircle
 10
132.787972
 20
73.125404
 30
0.0
 40
0.2
100
AcDbArc
 50
45.0
 51
90.0
  0
LINE
  5
104
330
A
100
AcDbEntity
  8
Hawa4
 62
     4
 48
0.006464
100
AcDbLine
 10
133.112236
 20
73.08398199999999
 30
0.0
 11
132.929394
 21
73.266825
 31
0.0
  0
ARC
  5
105
330
A
100
AcDbEntity
  8
Hawa4
 62
     4
100
AcDbCircle
 10
133.253658
 20
73.225404
 30
0.0
 40
0.2
100
AcDbArc
 50
225.0
 51
315.0
  0
LINE
  5
106
330
A
100
AcDbEntity
  8
Hawa4
 62
     4
 48
0.006464
100
AcDbLine
 10
133.577922
 20
73.266825
 30
0.0
 11
133.395079
 21
73.08398199999999
 31
0.0
  0
ARC
  5
107
330
A
100
AcDbEntity
  8
Hawa4
 62
     4
100
AcDbCircle
 10
133.719343
 20
73.125404
 30
0.0
 40
0.2
100
AcDbArc
 50
90.0
 51
135.0
  0
LINE
  5
108
330
A
100
AcDbEntity
  8
Hawa4
 62
     4
 48
0.010233
100
AcDbLine
 10
134.128658
 20
73.325404
 30
0.0
 11
133.719343
 21
73.325404
 31
0.0
  0
ARC
  5
109
330
A
100
AcDbEntity
  8
Hawa4
 62
     4
100
AcDbCircle
 10
134.128658
 20
73.625404
 30
0.0
 40
0.3
100
AcDbArc
 50
270.0
 51
360.0
  0
LINE
  5
10A
330
A
100
AcDbEntity
  8
Hawa4
 62
     4
 48
0.11
100
AcDbLine
 10
134.428658
 20
78.02540400000001
 30
0.0
 11
134.428658
 21
73.625404
 31
0.0
  0
ARC
  5
10B
330
A
100
AcDbEntity
  8
Hawa4
 62
     4
100
AcDbCircle
 10
134.128658
 20
78.02540400000001
 30
0.0
 40
0.3
100
AcDbArc
 50
360.0
 51
450.0
  0
LINE
  5
10C
330
A
100
AcDbEntity
  8
Hawa4
 62
     4
 48
0.004375
100
AcDbLine
 10
133.953658
 20
78.325404
 30
0.0
 11
134.128658
 21
78.325404
 31
0.0
  0
ARC
  5
10D
330
A
100
AcDbEntity
  8
Hawa4
 62
     4
100
AcDbCircle
 10
133.953658
 20
78.52540400000001
 30
0.0
 40
0.2
100
AcDbArc
 50
180.0
 51
270.0
  0
LINE
  5
10E
330
A
100
AcDbEntity
  8
Hawa4
 62
     4
 48
0.01625
100
AcDbLine
 10
133.753658
 20
79.175404
 30
0.0
 11
133.753658
 21
78.52540400000001
 31
0.0
  0
ARC
  5
10F
330
A
100
AcDbEntity
  8
Hawa4
 62
     4
100
AcDbCircle
 10
134.053658
 20
79.175404
 30
0.0
 40
0.3
100
AcDbArc
 50
90.0
 51
180.0
  0
LINE
  5
110
330
A
100
AcDbEntity
  8
Hawa4
 62
     4
 48
0.22125
100
AcDbLine
 10
142.903658
 20
79.475404
 30
0.0
 11
134.053658
 21
79.475404
 31
0.0
  0
ARC
  5
111
330
A
100
AcDbEntity
  8
Hawa4
 62
     4
100
AcDbCircle
 10
142.903658
 20
78.975404
 30
0.0
 40
0.5
100
AcDbArc
 50
0.0
 51
90.0
  0
LINE
  5
112
330
A
100
AcDbEntity
  8
Hawa4
 62
     4
 48
0.02375
100
AcDbLine
 10
143.403658
 20
78.02540400000001
 30
0.0
 11
143.403658
 21
78.975404
 31
0.0
  0
ARC
  5
113
330
A
100
AcDbEntity
  8
Hawa4
 62
     4
100
AcDbCircle
 10
142.903658
 20
78.02540400000001
 30
0.0
 40
0.5
100
AcDbArc
 50
270.0
 51
360.0
  0
LINE
  5
114
330
A
100
AcDbEntity
  8
Hawa4
 62
     4
 48
0.0075
100
AcDbLine
 10
142.603658
 20
77.525404
 30
0.0
 11
142.903658
 21
77.525404
 31
0.0
  0
ARC
  5
115
330
A
100
AcDbEntity
  8
Hawa4
 62
     4
100
AcDbCircle
 10
142.603658
 20
77.725404
 30
0.0
 40
0.2
100
AcDbArc
 50
180.0
 51
270.0
  0
ARC
  5
116
330
A
100
AcDbEntity
  8
Hawa4
 62
     4
100
AcDbCircle
 10
142.203658
 20
77.725404
 30
0.0
 40
0.2
100
AcDbArc
 50
360.0
 51
450.0
  0
LINE
  5
117
330
A
100
AcDbEntity
  8
Hawa4
 62
     4
 48
0.045
100
AcDbLine
 10
140.403658
 20
77.925404
 30
0.0
 11
142.203658
 21
77.925404
 31
0.0
  0
ARC
  5
118
330
A
100
AcDbEntity
  8
Hawa4
 62
     4
100
AcDbCircle
 10
140.403658
 20
77.725404
 30
0.0
 40
0.2
100
AcDbArc
 50
90.0
 51
180.0
  0
ARC
  5
119
330
A
100
AcDbEntity
  8
Hawa4
 62
     4
100
AcDbCircle
 10
140.003658
 20
77.725404
 30
0.0
 40
0.2
100
AcDbArc
 50
270.0
 51
360.0
  0
LINE
  5
11A
330
A
100
AcDbEntity
  8
Hawa4
 62
     4
 48
0.09
100
AcDbLine
 10
136.403658
 20
77.525404
 30
0.0
 11
140.003658
 21
77.525404
 31
0.0
  0
ARC
  5
11B
330
A
100
AcDbEntity
  8
Hawa4
 62
     4
100
AcDbCircle
 10
136.403658
 20
77.02540400000001
 30
0.0
 40
0.5
100
AcDbArc
 50
90.0
 51
180.0
  0
LINE
  5
11C
330
A
100
AcDbEntity
  8
Hawa4
 62
     4
 48
0.034393
100
AcDbLine
 10
135.903658
 20
75.649668
 30
0.0
 11
135.903658
 21
77.02540400000001
 31
0.0
  0
ARC
  5
11D
330
A
100
AcDbEntity
  8
Hawa4
 62
     4
100
AcDbCircle
 10
136.203658
 20
75.649668
 30
0.0
 40
0.3
100
AcDbArc
 50
180.0
 51
225.0
  0
LINE
  5
11E
330
A
100
AcDbEntity
  8
Hawa4
 62
     4
 48
0.000858
100
AcDbLine
 10
136.01579
 20
75.41327199999999
 30
0.0
 11
135.991526
 21
75.43753599999999
 31
0.0
  0
ARC
  5
11F
330
A
100
AcDbEntity
  8
Hawa4
 62
     4
100
AcDbCircle
 10
135.803658
 20
75.20114000000001
 30
0.0
 40
0.3
100
AcDbArc
 50
0.0
 51
45.0
  0
LINE
  5
120
330
A
100
AcDbEntity
  8
Hawa4
 62
     4
 48
0.089393
100
AcDbLine
 10
136.103658
 20
71.62540400000001
 30
0.0
 11
136.103658
 21
75.20114000000001
 31
0.0
  0
LINE
  5
121
330
A
100
AcDbEntity
  8
Hawa4
 62
     4
 48
0.010607
100
AcDbLine
 10
136.103658
 20
71.62540400000001
 30
0.0
 11
135.803658
 21
71.325404
 31
0.0
  0
LINE
  5
122
330
A
100
AcDbEntity
  8
Hawa4
 62
     4
 48
0.010607
100
AcDbLine
 10
136.103658
 20
71.02540400000001
 30
0.0
 11
135.803658
 21
71.325404
 31
0.0
  0
LINE
  5
123
330
A
100
AcDbEntity
  8
Hawa4
 62
     4
 48
0.089393
100
AcDbLine
 10
136.103658
 20
67.449668
 30
0.0
 11
136.103658
 21
71.02540400000001
 31
0.0
  0
ARC
  5
124
330
A
100
AcDbEntity
  8
Hawa4
 62
     4
100
AcDbCircle
 10
135.803658
 20
67.449668
 30
0.0
 40
0.3
100
AcDbArc
 50
315.0
 51
360.0
  0
LINE
  5
125
330
A
100
AcDbEntity
  8
Hawa4
 62
     4
 48
0.000858
100
AcDbLine
 10
135.991526
 20
67.21327200000001
 30
0.0
 11
136.01579
 21
67.23753599999999
 31
0.0
  0
ARC
  5
126
330
A
100
AcDbEntity
  8
Hawa4
 62
     4
100
AcDbCircle
 10
136.203658
 20
67.00114000000001
 30
0.0
 40
0.3
100
AcDbArc
 50
135.0
 51
180.0
  0
LINE
  5
127
330
A
100
AcDbEntity
  8
Hawa4
 62
     4
 48
0.034393
100
AcDbLine
 10
135.903658
 20
65.625404
 30
0.0
 11
135.903658
 21
67.00114000000001
 31
0.0
  0
ARC
  5
128
330
A
100
AcDbEntity
  8
Hawa4
 62
     4
100
AcDbCircle
 10
136.403658
 20
65.625404
 30
0.0
 40
0.5
100
AcDbArc
 50
180.0
 51
270.0
  0
LINE
  5
129
330
A
100
AcDbEntity
  8
Hawa4
 62
     4
 48
0.09
100
AcDbLine
 10
140.003658
 20
65.125404
 30
0.0
 11
136.403658
 21
65.125404
 31
0.0
  0
ARC
  5
12A
330
A
100
AcDbEntity
  8
Hawa4
 62
     4
100
AcDbCircle
 10
140.003658
 20
64.925404
 30
0.0
 40
0.2
100
AcDbArc
 50
360.0
 51
450.0
  0
ARC
  5
12B
330
A
100
AcDbEntity
  8
Hawa4
 62
     4
100
AcDbCircle
 10
140.403658
 20
64.925404
 30
0.0
 40
0.2
100
AcDbArc
 50
180.0
 51
270.0
  0
LINE
  5
12C
330
A
100
AcDbEntity
  8
Hawa4
 62
     4
 48
0.045
100
AcDbLine
 10
142.203658
 20
64.72540399999999
 30
0.0
 11
140.403658
 21
64.72540399999999
 31
0.0
  0
ARC
  5
12D
330
A
100
AcDbEntity
  8
Hawa4
 62
     4
100
AcDbCircle
 10
142.203658
 20
64.925404
 30
0.0
 40
0.2
100
AcDbArc
 50
270.0
 51
360.0
  0
ARC
  5
12E
330
A
100
AcDbEntity
  8
Hawa4
 62
     4
100
AcDbCircle
 10
142.603658
 20
64.925404
 30
0.0
 40
0.2
100
AcDbArc
 50
90.0
 51
180.0
  0
LINE
  5
12F
330
A
100
AcDbEntity
  8
Hawa4
 62
     4
 48
0.0075
100
AcDbLine
 10
142.903658
 20
65.125404
 30
0.0
 11
142.603658
 21
65.125404
 31
0.0
  0
ARC
  5
130
330
A
100
AcDbEntity
  8
Hawa4
 62
     4
100
AcDbCircle
 10
142.903658
 20
64.625404
 30
0.0
 40
0.5
100
AcDbArc
 50
0.0
 51
90.0
  0
LINE
  5
131
330
A
100
AcDbEntity
  8
Hawa4
 62
     4
 48
0.02375
100
AcDbLine
 10
143.403658
 20
63.675404
 30
0.0
 11
143.403658
 21
64.625404
 31
0.0
  0
ARC
  5
132
330
A
100
AcDbEntity
  8
Hawa4
 62
     4
100
AcDbCircle
 10
142.903658
 20
63.675404
 30
0.0
 40
0.5
100
AcDbArc
 50
270.0
 51
360.0
  0
LINE
  5
133
330
A
100
AcDbEntity
  8
Hawa4
 62
     4
 48
0.3125
100
AcDbLine
 10
130.403658
 20
63.175404
 30
0.0
 11
142.903658
 21
63.175404
 31
0.0
  0
ARC
  5
134
330
A
100
AcDbEntity
  8
Hawa4
 62
     4
100
AcDbCircle
 10
130.403658
 20
64.175404
 30
0.0
 40
1.0
100
AcDbArc
 50
180.0
 51
270.0
  0
LINE
  5
135
330
A
100
AcDbEntity
  8
Hawa4
 62
     4
 48
0.3575
100
AcDbLine
 10
129.403658
 20
78.47540399999999
 30
0.0
 11
129.403658
 21
64.175404
 31
0.0
  0
ARC
  5
136
330
A
100
AcDbEntity
  8
Hawa6
 62
     3
100
AcDbCircle
 10
130.403658
 20
78.47540399999999
 30
0.0
 40
1.0
100
AcDbArc
 50
90.0
 51
180.0
  0
LINE
  5
137
330
A
100
AcDbEntity
  8
Hawa4
 62
     4
 48
0.088096
100
AcDbLine
 10
140.227501
 20
77.525404
 30
0.0
 11
136.703658
 21
77.525404
 31
0.0
  0
ARC
  5
138
330
A
100
AcDbEntity
  8
Hawa4
 62
     4
100
AcDbCircle
 10
140.227501
 20
77.725404
 30
0.0
 40
0.2
100
AcDbArc
 50
270.0
 51
359.999998
  0
ARC
  5
139
330
A
100
AcDbEntity
  8
Hawa4
 62
     4
100
AcDbCircle
 10
140.627501
 20
77.725404
 30
0.0
 40
0.2
100
AcDbArc
 50
90.0
 51
180.000002
  0
LINE
  5
13A
330
A
100
AcDbEntity
  8
Hawa4
 62
     4
 48
0.035
100
AcDbLine
 10
142.027501
 20
77.925404
 30
0.0
 11
140.627501
 21
77.925404
 31
0.0
  0
ARC
  5
13B
330
A
100
AcDbEntity
  8
Hawa4
 62
     4
100
AcDbCircle
 10
142.027501
 20
77.725404
 30
0.0
 40
0.2
100
AcDbArc
 50
360.0
 51
450.0
  0
ARC
  5
13C
330
A
100
AcDbEntity
  8
Hawa4
 62
     4
100
AcDbCircle
 10
142.427501
 20
77.725404
 30
0.0
 40
0.2
100
AcDbArc
 50
180.0
 51
270.0
  0
LINE
  5
13D
330
A
100
AcDbEntity
  8
Hawa4
 62
     4
 48
0.0175
100
AcDbLine
 10
143.127501
 20
77.525404
 30
0.0
 11
142.427501
 21
77.525404
 31
0.0
  0
ARC
  5
13E
330
A
100
AcDbEntity
  8
Hawa4
 62
     4
100
AcDbCircle
 10
143.127501
 20
77.22540399999999
 30
0.0
 40
0.3
100
AcDbArc
 50
360.0
 51
450.0
  0
LINE
  5
13F
330
A
100
AcDbEntity
  8
Hawa4
 62
     4
 48
0.004822
100
AcDbLine
 10
143.427501
 20
77.22540399999999
 30
0.0
 11
143.427501
 21
77.03251
 31
0.0
  0
ARC
  5
140
330
A
100
AcDbEntity
  8
Hawa4
 62
     4
100
AcDbCircle
 10
142.927501
 20
77.03251
 30
0.0
 40
0.5
100
AcDbArc
 50
305.233887
 51
360.0
  0
LINE
  5
141
330
A
100
AcDbEntity
  8
Hawa4
 62
     4
 48
0.012944
100
AcDbLine
 10
143.215959
 20
76.62410799999999
 30
0.0
 11
142.793049
 21
76.325404
 31
0.0
  0
LINE
  5
142
330
A
100
AcDbEntity
  8
Hawa4
 62
     4
 48
0.011616
100
AcDbLine
 10
142.793049
 20
76.325404
 30
0.0
 11
142.3284149999999
 21
76.325404
 31
0.0
  0
LINE
  5
143
330
A
100
AcDbEntity
  8
Hawa4
 62
     4
 48
0.011486
100
AcDbLine
 10
142.646503
 20
76.65692299999999
 30
0.0
 11
142.3284149999999
 21
76.325404
 31
0.0
  0
ARC
  5
144
330
A
100
AcDbEntity
  8
Hawa4
 62
     4
100
AcDbCircle
 10
142.574346
 20
76.726157
 30
0.0
 40
0.1
100
AcDbArc
 50
316.184434
 51
450.0
  0
LINE
  5
145
330
A
100
AcDbEntity
  8
Hawa4
 62
     4
 48
0.041928
100
AcDbLine
 10
140.897215
 20
76.82615699999999
 30
0.0
 11
142.574346
 21
76.82615699999999
 31
0.0
  0
ARC
  5
146
330
A
100
AcDbEntity
  8
Hawa4
 62
     4
100
AcDbCircle
 10
140.897215
 20
76.62615699999999
 30
0.0
 40
0.2
100
AcDbArc
 50
90.0
 51
144.314665
  0
ARC
  5
147
330
A
100
AcDbEntity
  8
Hawa4
 62
     4
100
AcDbCircle
 10
139.922536
 20
77.326157
 30
0.0
 40
1.0
100
AcDbArc
 50
215.685335
 51
324.314665
  0
ARC
  5
148
330
A
100
AcDbEntity
  8
Hawa4
 62
     4
100
AcDbCircle
 10
138.947856
 20
76.62615699999999
 30
0.0
 40
0.2
100
AcDbArc
 50
35.685335
 51
90.0
  0
LINE
  5
149
330
A
100
AcDbEntity
  8
Hawa4
 62
     4
 48
0.052529
100
AcDbLine
 10
136.846678
 20
76.82615699999999
 30
0.0
 11
138.947856
 21
76.82615699999999
 31
0.0
  0
ARC
  5
14A
330
A
100
AcDbEntity
  8
Hawa4
 62
     4
100
AcDbCircle
 10
136.853658
 20
76.626278
 30
0.0
 40
0.2
100
AcDbArc
 50
92.0
 51
180.0
  0
LINE
  5
14B
330
A
100
AcDbEntity
  8
Hawa4
 62
     4
 48
0.012078
100
AcDbLine
 10
136.653658
 20
76.626278
 30
0.0
 11
136.653658
 21
76.143171
 31
0.0
  0
ARC
  5
14C
330
A
100
AcDbEntity
  8
Hawa4
 62
     4
100
AcDbCircle
 10
136.953658
 20
76.143171
 30
0.0
 40
0.3
100
AcDbArc
 50
180.0
 51
225.0
  0
LINE
  5
14D
330
A
100
AcDbEntity
  8
Hawa4
 62
     4
 48
0.001893
100
AcDbLine
 10
136.741526
 20
75.931038
 30
0.0
 11
136.795079
 21
75.877485
 31
0.0
  0
ARC
  5
14E
330
A
100
AcDbEntity
  8
Hawa4
 62
     4
100
AcDbCircle
 10
136.653658
 20
75.736064
 30
0.0
 40
0.2
100
AcDbArc
 50
0.0
 51
45.0
  0
LINE
  5
14F
330
A
100
AcDbEntity
  8
Hawa4
 62
     4
 48
0.110267
100
AcDbLine
 10
136.853658
 20
71.325404
 30
0.0
 11
136.853658
 21
75.736064
 31
0.0
  0
LINE
  5
150
330
A
100
AcDbEntity
  8
Hawa4
 62
     4
 48
0.110267
100
AcDbLine
 10
136.853658
 20
66.914743
 30
0.0
 11
136.853658
 21
71.325404
 31
0.0
  0
ARC
  5
151
330
A
100
AcDbEntity
  8
Hawa4
 62
     4
100
AcDbCircle
 10
136.653658
 20
66.914743
 30
0.0
 40
0.2
100
AcDbArc
 50
315.0
 51
360.0
  0
LINE
  5
152
330
A
100
AcDbEntity
  8
Hawa4
 62
     4
 48
0.001893
100
AcDbLine
 10
136.741526
 20
66.719769
 30
0.0
 11
136.795079
 21
66.77332199999999
 31
0.0
  0
ARC
  5
153
330
A
100
AcDbEntity
  8
Hawa4
 62
     4
100
AcDbCircle
 10
136.953658
 20
66.507637
 30
0.0
 40
0.3
100
AcDbArc
 50
135.0
 51
180.0
  0
LINE
  5
154
330
A
100
AcDbEntity
  8
Hawa4
 62
     4
 48
0.012078
100
AcDbLine
 10
136.653658
 20
66.507637
 30
0.0
 11
136.653658
 21
66.024529
 31
0.0
  0
ARC
  5
155
330
A
100
AcDbEntity
  8
Hawa4
 62
     4
100
AcDbCircle
 10
136.853658
 20
66.024529
 30
0.0
 40
0.2
100
AcDbArc
 50
180.0
 51
268.0
  0
LINE
  5
156
330
A
100
AcDbEntity
  8
Hawa4
 62
     4
 48
0.052529
100
AcDbLine
 10
136.846678
 20
65.82465
 30
0.0
 11
138.947856
 21
65.82465
 31
0.0
  0
ARC
  5
157
330
A
100
AcDbEntity
  8
Hawa4
 62
     4
100
AcDbCircle
 10
138.947856
 20
66.02464999999999
 30
0.0
 40
0.2
100
AcDbArc
 50
270.0
 51
324.314665
  0
ARC
  5
158
330
A
100
AcDbEntity
  8
Hawa4
 62
     4
100
AcDbCircle
 10
139.922536
 20
65.32465000000001
 30
0.0
 40
1.0
100
AcDbArc
 50
35.685335
 51
144.314665
  0
ARC
  5
159
330
A
100
AcDbEntity
  8
Hawa4
 62
     4
100
AcDbCircle
 10
140.897215
 20
66.02464999999999
 30
0.0
 40
0.2
100
AcDbArc
 50
215.685335
 51
270.0
  0
LINE
  5
15A
330
A
100
AcDbEntity
  8
Hawa4
 62
     4
 48
0.041928
100
AcDbLine
 10
140.897215
 20
65.82465
 30
0.0
 11
142.574346
 21
65.82465
 31
0.0
  0
ARC
  5
15B
330
A
100
AcDbEntity
  8
Hawa4
 62
     4
100
AcDbCircle
 10
142.574346
 20
65.92465
 30
0.0
 40
0.1
100
AcDbArc
 50
270.0
 51
403.815566
  0
LINE
  5
15C
330
A
100
AcDbEntity
  8
Hawa4
 62
     4
 48
0.011486
100
AcDbLine
 10
142.646503
 20
65.99388399999999
 30
0.0
 11
142.3284149999999
 21
66.325404
 31
0.0
  0
LINE
  5
15D
330
A
100
AcDbEntity
  8
Hawa4
 62
     4
 48
0.011616
100
AcDbLine
 10
142.793049
 20
66.325404
 30
0.0
 11
142.3284149999999
 21
66.325404
 31
0.0
  0
LINE
  5
15E
330
A
100
AcDbEntity
  8
Hawa4
 62
     4
 48
0.012944
100
AcDbLine
 10
143.215959
 20
66.02669899999999
 30
0.0
 11
142.793049
 21
66.325404
 31
0.0
  0
ARC
  5
15F
330
A
100
AcDbEntity
  8
Hawa4
 62
     4
100
AcDbCircle
 10
142.927501
 20
65.618297
 30
0.0
 40
0.5
100
AcDbArc
 50
360.0
 51
414.7661129999999
  0
LINE
  5
160
330
A
100
AcDbEntity
  8
Hawa4
 62
     4
 48
0.004822
100
AcDbLine
 10
143.427501
 20
65.618297
 30
0.0
 11
143.427501
 21
65.425404
 31
0.0
  0
ARC
  5
161
330
A
100
AcDbEntity
  8
Hawa4
 62
     4
100
AcDbCircle
 10
143.127501
 20
65.425404
 30
0.0
 40
0.3
100
AcDbArc
 50
270.0
 51
360.0
  0
LINE
  5
162
330
A
100
AcDbEntity
  8
Hawa4
 62
     4
 48
0.0175
100
AcDbLine
 10
143.127501
 20
65.125404
 30
0.0
 11
142.427501
 21
65.125404
 31
0.0
  0
ARC
  5
163
330
A
100
AcDbEntity
  8
Hawa4
 62
     4
100
AcDbCircle
 10
142.427501
 20
64.925404
 30
0.0
 40
0.2
100
AcDbArc
 50
90.0
 51
180.0
  0
ARC
  5
164
330
A
100
AcDbEntity
  8
Hawa4
 62
     4
100
AcDbCircle
 10
142.027501
 20
64.925404
 30
0.0
 40
0.2
100
AcDbArc
 50
270.0
 51
360.0
  0
LINE
  5
165
330
A
100
AcDbEntity
  8
Hawa4
 62
     4
 48
0.035
100
AcDbLine
 10
142.027501
 20
64.72540399999999
 30
0.0
 11
140.627501
 21
64.72540399999999
 31
0.0
  0
ARC
  5
166
330
A
100
AcDbEntity
  8
Hawa4
 62
     4
100
AcDbCircle
 10
140.627501
 20
64.925404
 30
0.0
 40
0.2
100
AcDbArc
 50
179.999998
 51
270.0
  0
ARC
  5
167
330
A
100
AcDbEntity
  8
Hawa4
 62
     4
100
AcDbCircle
 10
140.227501
 20
64.925404
 30
0.0
 40
0.2
100
AcDbArc
 50
0.000002
 51
90.0
  0
LINE
  5
168
330
A
100
AcDbEntity
  8
Hawa4
 62
     4
 48
0.088096
100
AcDbLine
 10
140.227501
 20
65.125404
 30
0.0
 11
136.703658
 21
65.125404
 31
0.0
  0
ARC
  5
169
330
A
100
AcDbEntity
  8
Hawa4
 62
     4
100
AcDbCircle
 10
136.703658
 20
65.925404
 30
0.0
 40
0.8
100
AcDbArc
 50
180.0
 51
270.0
  0
LINE
  5
16A
330
A
100
AcDbEntity
  8
Hawa4
 62
     4
 48
0.022322
100
AcDbLine
 10
135.903658
 20
66.818297
 30
0.0
 11
135.903658
 21
65.925404
 31
0.0
  0
ARC
  5
16B
330
A
100
AcDbEntity
  8
Hawa4
 62
     4
100
AcDbCircle
 10
136.203658
 20
66.818297
 30
0.0
 40
0.3
100
AcDbArc
 50
135.0
 51
180.0
  0
LINE
  5
16C
330
A
100
AcDbEntity
  8
Hawa4
 62
     4
 48
0.001893
100
AcDbLine
 10
135.991526
 20
67.03042899999999
 30
0.0
 11
136.045079
 21
67.08398199999999
 31
0.0
  0
ARC
  5
16D
330
A
100
AcDbEntity
  8
Hawa4
 62
     4
100
AcDbCircle
 10
135.903658
 20
67.22540399999999
 30
0.0
 40
0.2
100
AcDbArc
 50
315.0
 51
360.0
  0
LINE
  5
16E
330
A
100
AcDbEntity
  8
Hawa4
 62
     4
 48
0.1025
100
AcDbLine
 10
136.103658
 20
71.325404
 30
0.0
 11
136.103658
 21
67.22540399999999
 31
0.0
  0
LINE
  5
16F
330
A
100
AcDbEntity
  8
Hawa4
 62
     4
 48
0.1025
100
AcDbLine
 10
136.103658
 20
75.425404
 30
0.0
 11
136.103658
 21
71.325404
 31
0.0
  0
ARC
  5
170
330
A
100
AcDbEntity
  8
Hawa4
 62
     4
100
AcDbCircle
 10
135.903658
 20
75.425404
 30
0.0
 40
0.2
100
AcDbArc
 50
0.0
 51
45.0
  0
LINE
  5
171
330
A
100
AcDbEntity
  8
Hawa4
 62
     4
 48
0.001893
100
AcDbLine
 10
135.991526
 20
75.620378
 30
0.0
 11
136.045079
 21
75.56682499999999
 31
0.0
  0
ARC
  5
172
330
A
100
AcDbEntity
  8
Hawa4
 62
     4
100
AcDbCircle
 10
136.203658
 20
75.83251
 30
0.0
 40
0.3
100
AcDbArc
 50
180.0
 51
225.0
  0
LINE
  5
173
330
A
100
AcDbEntity
  8
Hawa4
 62
     4
 48
0.022322
100
AcDbLine
 10
135.903658
 20
76.72540399999999
 30
0.0
 11
135.903658
 21
75.83251
 31
0.0
  0
ARC
  5
174
330
A
100
AcDbEntity
  8
Hawa4
 62
     4
100
AcDbCircle
 10
136.703658
 20
76.72540399999999
 30
0.0
 40
0.8
100
AcDbArc
 50
90.0
 51
180.0
  0
ARC
  5
175
330
A
100
AcDbEntity
  8
Hawa4
 62
     4
100
AcDbCircle
 10
130.125116
 20
79.22112199999999
 30
0.0
 40
0.2
100
AcDbArc
 50
105.852745
 51
124.752566
  0
LINE
  5
176
330
A
100
AcDbEntity
  8
Hawa5
 62
     1
 48
0.035355
100
AcDbLine
 10
179.403658
 20
106.325404
 30
0.0
 11
178.403658
 21
107.325404
 31
0.0
  0
LINE
  5
177
330
A
100
AcDbEntity
  8
Hawa5
 62
     1
 48
0.2
100
AcDbLine
 10
179.403658
 20
98.325404
 30
0.0
 11
179.403658
 21
106.325404
 31
0.0
  0
LINE
  5
178
330
A
100
AcDbEntity
  8
Hawa5
 62
     1
 48
0.035355
100
AcDbLine
 10
179.403658
 20
98.325404
 30
0.0
 11
178.403658
 21
97.32540400000001
 31
0.0
  0
LINE
  5
179
330
A
100
AcDbEntity
  8
Hawa5
 62
     1
100
AcDbLine
 10
57.713838
 20
97.32540400000001
 30
0.0
 11
94.50521999999999
 21
97.32540400000001
 31
0.0
  0
LINE
  5
17A
330
A
100
AcDbEntity
  8
Hawa5
 62
     1
100
AcDbLine
 10
104.50522
 20
97.32540400000001
 30
0.0
 11
178.403658
 21
97.32540400000001
 31
0.0
  0
LINE
  5
17B
330
A
100
AcDbEntity
  8
Hawa5
 62
     1
 48
0.035355
100
AcDbLine
 10
56.713838
 20
98.325404
 30
0.0
 11
57.713838
 21
97.32540400000001
 31
0.0
  0
LINE
  5
17C
330
A
100
AcDbEntity
  8
Hawa5
 62
     1
 48
0.2
100
AcDbLine
 10
56.713838
 20
98.325404
 30
0.0
 11
56.713838
 21
106.325404
 31
0.0
  0
LINE
  5
17D
330
A
100
AcDbEntity
  8
Hawa5
 62
     1
 48
0.035355
100
AcDbLine
 10
56.713838
 20
106.325404
 30
0.0
 11
57.713838
 21
107.325404
 31
0.0
  0
LINE
  5
17E
330
A
100
AcDbEntity
  8
Hawa5
 62
     1
100
AcDbLine
 10
57.713838
 20
107.325404
 30
0.0
 11
94.50521999999999
 21
107.325404
 31
0.0
  0
LINE
  5
17F
330
A
100
AcDbEntity
  8
Hawa5
 62
     1
100
AcDbLine
 10
104.50522
 20
107.325404
 30
0.0
 11
178.403658
 21
107.325404
 31
0.0
  0
LINE
  5
180
330
A
100
AcDbEntity
  8
Hawa5
 62
     1
 48
0.35
100
AcDbLine
 10
50.713838
 20
121.325404
 30
0.0
 11
50.713838
 21
135.325404
 31
0.0
  0
LINE
  5
181
330
A
100
AcDbEntity
  8
Hawa5
 62
     1
 48
0.4
100
AcDbLine
 10
50.713838
 20
121.325404
 30
0.0
 11
34.713838
 21
121.325404
 31
0.0
  0
LINE
  5
182
330
A
100
AcDbEntity
  8
Hawa5
 62
     1
100
AcDbLine
 10
34.713838
 20
83.325404
 30
0.0
 11
34.713838
 21
121.325404
 31
0.0
  0
LINE
  5
183
330
A
100
AcDbEntity
  8
Hawa5
 62
     1
 48
0.4
100
AcDbLine
 10
34.713838
 20
83.325404
 30
0.0
 11
50.713838
 21
83.325404
 31
0.0
  0
LINE
  5
184
330
A
100
AcDbEntity
  8
Hawa5
 62
     1
100
AcDbLine
 10
50.713838
 20
55.32540400000001
 30
0.0
 11
50.713838
 21
83.325404
 31
0.0
  0
LINE
  5
185
330
A
100
AcDbEntity
  8
Hawa4
 62
     4
 48
0.004964
100
AcDbLine
 10
50.713838
 20
83.52394699999999
 30
0.0
 11
50.713838
 21
83.325404
 31
0.0
  0
LINE
  5
186
330
A
100
AcDbEntity
  8
Hawa4
 62
     4
 48
0.08957
100
AcDbLine
 10
50.713838
 20
89.906755
 30
0.0
 11
50.713838
 21
86.323947
 31
0.0
  0
LINE
  5
187
330
A
100
AcDbEntity
  8
Hawa4
 62
     4
 48
0.089493
100
AcDbLine
 10
50.713838
 20
118.323947
 30
0.0
 11
50.713838
 21
114.744228
 31
0.0
  0
LINE
  5
188
330
A
100
AcDbEntity
  8
Hawa4
 62
     4
 48
0.005036
100
AcDbLine
 10
50.713838
 20
121.325404
 30
0.0
 11
50.713838
 21
121.123947
 31
0.0
  0
ARC
  5
189
330
A
100
AcDbEntity
  8
Hawa4
 62
     4
100
AcDbCircle
 10
34.913838
 20
118.025404
 30
0.0
 40
0.3
100
AcDbArc
 50
0.0
 51
90.0
  0
LINE
  5
18A
330
A
100
AcDbEntity
  8
Hawa4
 62
     4
 48
0.005
100
AcDbLine
 10
34.913838
 20
118.325404
 30
0.0
 11
34.713838
 21
118.325404
 31
0.0
  0
LINE
  5
18B
330
A
100
AcDbEntity
  8
Hawa4
 62
     4
 48
0.07
100
AcDbLine
 10
34.713838
 20
121.125404
 30
0.0
 11
34.713838
 21
118.325404
 31
0.0
  0
LINE
  5
18C
330
A
100
AcDbEntity
  8
Hawa4
 62
     4
 48
0.475
100
AcDbLine
 10
34.713838
 20
121.125404
 30
0.0
 11
53.713838
 21
121.125404
 31
0.0
  0
ARC
  5
18D
330
A
100
AcDbEntity
  8
Hawa4
 62
     4
100
AcDbCircle
 10
53.713838
 20
119.125404
 30
0.0
 40
2.0
100
AcDbArc
 50
350.666838
 51
450.0
  0
LINE
  5
18E
330
A
100
AcDbEntity
  8
Hawa4
 62
     4
 48
0.106888
100
AcDbLine
 10
55.687362
 20
118.801054
 30
0.0
 11
54.993981
 21
114.582141
 31
0.0
  0
ARC
  5
18F
330
A
100
AcDbEntity
  8
Hawa4
 62
     4
100
AcDbCircle
 10
53.513838
 20
114.825404
 30
0.0
 40
1.5
100
AcDbArc
 50
270.0
 51
350.666838
  0
LINE
  5
190
330
A
100
AcDbEntity
  8
Hawa4
 62
     4
 48
0.125
100
AcDbLine
 10
53.513838
 20
118.325404
 30
0.0
 11
53.513838
 21
113.325404
 31
0.0
  0
LINE
  5
191
330
A
100
AcDbEntity
  8
Hawa4
 62
     4
 48
0.08
100
AcDbLine
 10
53.513838
 20
118.325404
 30
0.0
 11
50.313838
 21
118.325404
 31
0.0
  0
LINE
  5
192
330
A
100
AcDbEntity
  8
Hawa4
 62
     4
 48
0.2
100
AcDbLine
 10
50.313838
 20
110.325404
 30
0.0
 11
50.313838
 21
118.325404
 31
0.0
  0
ARC
  5
193
330
A
100
AcDbEntity
  8
Hawa4
 62
     4
100
AcDbCircle
 10
49.31383799999999
 20
110.325404
 30
0.0
 40
1.0
100
AcDbArc
 50
270.0
 51
360.0
  0
LINE
  5
194
330
A
100
AcDbEntity
  8
Hawa4
 62
     4
 48
0.05
100
AcDbLine
 10
49.31383799999999
 20
109.325404
 30
0.0
 11
47.31383799999999
 21
109.325404
 31
0.0
  0
LINE
  5
195
330
A
100
AcDbEntity
  8
Hawa4
 62
     4
 48
0.1625
100
AcDbLine
 10
47.31383799999999
 20
115.825404
 30
0.0
 11
47.31383799999999
 21
109.325404
 31
0.0
  0
ARC
  5
196
330
A
100
AcDbEntity
  8
Hawa4
 62
     4
100
AcDbCircle
 10
44.81383799999999
 20
115.825404
 30
0.0
 40
2.5
100
AcDbArc
 50
0.0
 51
90.0
  0
LINE
  5
197
330
A
100
AcDbEntity
  8
Hawa4
 62
     4
 48
0.1025
100
AcDbLine
 10
44.81383799999999
 20
118.325404
 30
0.0
 11
40.713838
 21
118.325404
 31
0.0
  0
ARC
  5
198
330
A
100
AcDbEntity
  8
Hawa4
 62
     4
100
AcDbCircle
 10
40.713838
 20
115.825404
 30
0.0
 40
2.5
100
AcDbArc
 50
90.0
 51
180.0
  0
LINE
  5
199
330
A
100
AcDbEntity
  8
Hawa4
 62
     4
 48
0.33
100
AcDbLine
 10
38.213838
 20
102.625404
 30
0.0
 11
38.213838
 21
115.825404
 31
0.0
  0
LINE
  5
19A
330
A
100
AcDbEntity
  8
Hawa4
 62
     4
 48
0.010607
100
AcDbLine
 10
38.213838
 20
102.625404
 30
0.0
 11
37.913838
 21
102.325404
 31
0.0
  0
LINE
  5
19B
330
A
100
AcDbEntity
  8
Hawa4
 62
     4
 48
0.010607
100
AcDbLine
 10
38.213838
 20
102.025404
 30
0.0
 11
37.913838
 21
102.325404
 31
0.0
  0
LINE
  5
19C
330
A
100
AcDbEntity
  8
Hawa4
 62
     4
 48
0.33
100
AcDbLine
 10
38.213838
 20
88.82540400000001
 30
0.0
 11
38.213838
 21
102.025404
 31
0.0
  0
ARC
  5
19D
330
A
100
AcDbEntity
  8
Hawa4
 62
     4
100
AcDbCircle
 10
40.713838
 20
88.82540400000001
 30
0.0
 40
2.5
100
AcDbArc
 50
180.0
 51
270.0
  0
LINE
  5
19E
330
A
100
AcDbEntity
  8
Hawa4
 62
     4
 48
0.04375
100
AcDbLine
 10
42.463838
 20
86.32540400000001
 30
0.0
 11
40.713838
 21
86.32540400000001
 31
0.0
  0
LINE
  5
19F
330
A
100
AcDbEntity
  8
Hawa4
 62
     4
 48
0.010607
100
AcDbLine
 10
42.463838
 20
86.32540400000001
 30
0.0
 11
42.763838
 21
86.62540400000001
 31
0.0
  0
LINE
  5
1A0
330
A
100
AcDbEntity
  8
Hawa4
 62
     4
 48
0.010607
100
AcDbLine
 10
43.06383799999999
 20
86.32540400000001
 30
0.0
 11
42.763838
 21
86.62540400000001
 31
0.0
  0
LINE
  5
1A1
330
A
100
AcDbEntity
  8
Hawa4
 62
     4
 48
0.04375
100
AcDbLine
 10
44.81383799999999
 20
86.32540400000001
 30
0.0
 11
43.06383799999999
 21
86.32540400000001
 31
0.0
  0
ARC
  5
1A2
330
A
100
AcDbEntity
  8
Hawa4
 62
     4
100
AcDbCircle
 10
44.81383799999999
 20
88.82540400000001
 30
0.0
 40
2.5
100
AcDbArc
 50
270.0
 51
360.0
  0
LINE
  5
1A3
330
A
100
AcDbEntity
  8
Hawa4
 62
     4
 48
0.1625
100
AcDbLine
 10
47.31383799999999
 20
95.325404
 30
0.0
 11
47.31383799999999
 21
88.82540400000001
 31
0.0
  0
LINE
  5
1A4
330
A
100
AcDbEntity
  8
Hawa4
 62
     4
 48
0.05
100
AcDbLine
 10
49.31383799999999
 20
95.325404
 30
0.0
 11
47.31383799999999
 21
95.325404
 31
0.0
  0
ARC
  5
1A5
330
A
100
AcDbEntity
  8
Hawa4
 62
     4
100
AcDbCircle
 10
49.31383799999999
 20
94.325404
 30
0.0
 40
1.0
100
AcDbArc
 50
360.0
 51
450.0
  0
LINE
  5
1A6
330
A
100
AcDbEntity
  8
Hawa4
 62
     4
 48
0.2
100
AcDbLine
 10
50.313838
 20
86.32540400000001
 30
0.0
 11
50.313838
 21
94.325404
 31
0.0
  0
LINE
  5
1A7
330
A
100
AcDbEntity
  8
Hawa4
 62
     4
 48
0.08
100
AcDbLine
 10
53.513838
 20
86.32540400000001
 30
0.0
 11
50.313838
 21
86.32540400000001
 31
0.0
  0
LINE
  5
1A8
330
A
100
AcDbEntity
  8
Hawa4
 62
     4
 48
0.125
100
AcDbLine
 10
53.513838
 20
91.32540400000001
 30
0.0
 11
53.513838
 21
86.32540400000001
 31
0.0
  0
ARC
  5
1A9
330
A
100
AcDbEntity
  8
Hawa4
 62
     4
100
AcDbCircle
 10
53.513838
 20
89.82540400000001
 30
0.0
 40
1.5
100
AcDbArc
 50
9.333161999999999
 51
90.0
  0
LINE
  5
1AA
330
A
100
AcDbEntity
  8
Hawa4
 62
     4
 48
0.106888
100
AcDbLine
 10
55.687362
 20
85.84975400000001
 30
0.0
 11
54.993981
 21
90.068666
 31
0.0
  0
ARC
  5
1AB
330
A
100
AcDbEntity
  8
Hawa4
 62
     4
100
AcDbCircle
 10
53.713838
 20
85.52540400000001
 30
0.0
 40
2.0
100
AcDbArc
 50
270.0
 51
369.333162
  0
LINE
  5
1AC
330
A
100
AcDbEntity
  8
Hawa4
 62
     4
 48
0.475
100
AcDbLine
 10
34.713838
 20
83.525404
 30
0.0
 11
53.713838
 21
83.525404
 31
0.0
  0
LINE
  5
1AD
330
A
100
AcDbEntity
  8
Hawa4
 62
     4
 48
0.07
100
AcDbLine
 10
34.713838
 20
86.32540400000001
 30
0.0
 11
34.713838
 21
83.525404
 31
0.0
  0
LINE
  5
1AE
330
A
100
AcDbEntity
  8
Hawa4
 62
     4
 48
0.005
100
AcDbLine
 10
34.913838
 20
86.32540400000001
 30
0.0
 11
34.713838
 21
86.32540400000001
 31
0.0
  0
ARC
  5
1AF
330
A
100
AcDbEntity
  8
Hawa4
 62
     4
100
AcDbCircle
 10
34.913838
 20
86.62540400000001
 30
0.0
 40
0.3
100
AcDbArc
 50
270.0
 51
360.0
  0
LINE
  5
1B0
330
A
100
AcDbEntity
  8
Hawa4
 62
     4
 48
0.3925
100
AcDbLine
 10
35.21383800000001
 20
102.325404
 30
0.0
 11
35.21383800000001
 21
86.62540400000001
 31
0.0
  0
LINE
  5
1B1
330
A
100
AcDbEntity
  8
Hawa4
 62
     4
 48
0.3925
100
AcDbLine
 10
35.21383800000001
 20
118.025404
 30
0.0
 11
35.21383800000001
 21
102.325404
 31
0.0
  0
LINE
  5
1B2
330
A
100
AcDbEntity
  8
Hawa4
 62
     4
 48
0.085416
100
AcDbLine
 10
50.319691
 20
91.90743799999999
 30
0.0
 11
50.344926
 21
95.323989
 31
0.0
  0
LINE
  5
1B3
330
A
100
AcDbEntity
  8
Hawa4
 62
     4
 48
0.250007
100
AcDbLine
 10
50.359699
 20
97.32398899999999
 30
0.0
 11
50.433562
 21
107.3239889999999
 31
0.0
  0
LINE
  5
1B4
330
A
100
AcDbEntity
  8
Hawa4
 62
     4
 48
0.078394
100
AcDbLine
 10
50.448335
 20
109.3239889999999
 30
0.0
 11
50.471496
 21
112.459659
 31
0.0
  0
LINE
  5
1B5
330
A
100
AcDbEntity
  8
Hawa4
 62
     4
 48
0.004117
100
AcDbLine
 10
53.5124
 20
113.204755
 30
0.0
 11
53.677078
 21
113.203539
 31
0.0
  0
LINE
  5
1B6
330
A
100
AcDbEntity
  8
Hawa4
 62
     4
 48
0.026197
100
AcDbLine
 10
53.51606
 20
91.404133
 30
0.0
 11
53.5238
 21
92.45198700000001
 31
0.0
  0
LINE
  5
1B7
330
A
100
AcDbEntity
  8
Hawa6
 62
     3
 48
0.04574
100
AcDbLine
 10
53.663564
 20
111.373997
 30
0.0
 11
53.677078
 21
113.203539
 31
0.0
  0
LINE
  5
1B8
330
A
100
AcDbEntity
  8
Hawa6
 62
     3
 48
0.269178
100
AcDbLine
 10
54.420215
 20
95.292141
 30
0.0
 11
63.70478399999999
 21
89.83986299999999
 31
0.0
  0
LINE
  5
1B9
330
A
100
AcDbEntity
  8
Hawa6
 62
     3
 48
0.271103
100
AcDbLine
 10
54.456723
 20
109.264586
 30
0.0
 11
63.887797
 21
114.617132
 31
0.0
  0
ARC
  5
1BA
330
A
100
AcDbEntity
  8
Hawa6
 62
     3
100
AcDbCircle
 10
59.211473
 20
90.762049
 30
0.0
 40
1.5
100
AcDbArc
 50
50.237766
 51
68.916009
  0
LINE
  5
1BB
330
A
100
AcDbEntity
  8
Hawa6
 62
     3
 48
0.022301
100
AcDbLine
 10
61.98192699999999
 20
90.851588
 30
0.0
 11
62.873948
 21
90.845
 31
0.0
  0
LINE
  5
1BC
330
A
100
AcDbEntity
  8
Hawa6
 62
     3
 48
0.032602
100
AcDbLine
 10
63.70478399999999
 20
89.83986299999999
 30
0.0
 11
62.873948
 21
90.845
 31
0.0
  0
LINE
  5
1BD
330
A
100
AcDbEntity
  8
Hawa6
 62
     3
 48
0.032602
100
AcDbLine
 10
63.04220400000001
 20
113.624378
 30
0.0
 11
63.887797
 21
114.617132
 31
0.0
  0
LINE
  5
1BE
330
A
100
AcDbEntity
  8
Hawa6
 62
     3
 48
0.022301
100
AcDbLine
 10
62.150197
 20
113.630967
 30
0.0
 11
63.04220400000001
 21
113.624378
 31
0.0
  0
ARC
  5
1BF
330
A
100
AcDbEntity
  8
Hawa6
 62
     3
100
AcDbCircle
 10
59.381354
 20
113.761422
 30
0.0
 40
1.5
100
AcDbArc
 50
290.240479
 51
308.9131720000001
  0
LINE
  5
1C0
330
A
100
AcDbEntity
  8
Hawa6
 62
     3
 48
0.133781
100
AcDbLine
 10
55.643862
 20
86.11443299999999
 30
0.0
 11
54.776026
 21
91.394827
 31
0.0
  0
LINE
  5
1C1
330
A
100
AcDbEntity
  8
Hawa6
 62
     3
 48
0.0315
100
AcDbLine
 10
54.776026
 20
91.394827
 30
0.0
 11
53.51606
 21
91.404133
 31
0.0
  0
LINE
  5
1C2
330
A
100
AcDbEntity
  8
Hawa6
 62
     3
 48
0.021526
100
AcDbLine
 10
63.698425
 20
88.978859
 30
0.0
 11
63.70478399999999
 21
89.83986299999999
 31
0.0
  0
LINE
  5
1C3
330
A
100
AcDbEntity
  8
Hawa6
 62
     3
 48
0.213718
100
AcDbLine
 10
55.643862
 20
86.114432
 30
0.0
 11
63.698425
 21
88.978859
 31
0.0
  0
LINE
  5
1C4
330
A
100
AcDbEntity
  8
Hawa6
 62
     3
 48
0.0315
100
AcDbLine
 10
54.937043
 20
113.194232
 30
0.0
 11
53.677078
 21
113.203539
 31
0.0
  0
LINE
  5
1C5
330
A
100
AcDbEntity
  8
Hawa6
 62
     3
 48
0.133781
100
AcDbLine
 10
55.88278599999999
 20
118.46123
 30
0.0
 11
54.937043
 21
113.194232
 31
0.0
  0
LINE
  5
1C6
330
A
100
AcDbEntity
  8
Hawa6
 62
     3
 48
0.213718
100
AcDbLine
 10
55.88278599999999
 20
118.461231
 30
0.0
 11
63.89415699999999
 21
115.478136
 31
0.0
  0
LINE
  5
1C7
330
A
100
AcDbEntity
  8
Hawa6
 62
     3
 48
0.021526
100
AcDbLine
 10
63.887797
 20
114.617132
 30
0.0
 11
63.89415699999999
 21
115.478136
 31
0.0
  0
LINE
  5
1C8
330
A
100
AcDbEntity
  8
Hawa6
 62
     3
 48
0.000026
100
AcDbLine
 10
63.70478399999999
 20
89.83986299999999
 30
0.0
 11
63.704777
 21
89.838836
 31
0.0
  0
LINE
  5
1C9
330
A
100
AcDbEntity
  8
Hawa6
 62
     3
 48
0.064679
100
AcDbLine
 10
57.014051
 20
94.795075
 30
0.0
 11
58.662362
 21
92.800966
 31
0.0
  0
LINE
  5
1CA
330
A
100
AcDbEntity
  8
Hawa6
 62
     3
 48
0.077648
100
AcDbLine
 10
57.014051
 20
94.795075
 30
0.0
 11
55.035229
 21
97.18903199999999
 31
0.0
  0
LINE
  5
1CB
330
A
100
AcDbEntity
  8
Hawa6
 62
     3
 48
0.06527
100
AcDbLine
 10
57.014051
 20
94.795075
 30
0.0
 11
59.624795
 21
94.77579099999999
 31
0.0
  0
LINE
  5
1CC
330
A
100
AcDbEntity
  8
Hawa6
 62
     3
 48
0.127495
100
AcDbLine
 10
62.873948
 20
90.845
 30
0.0
 11
59.624795
 21
94.77579099999999
 31
0.0
  0
LINE
  5
1CD
330
A
100
AcDbEntity
  8
Hawa6
 62
     3
 48
0.018457
100
AcDbLine
 10
56.65296899999999
 20
98.371074
 30
0.0
 11
56.182609
 21
98.94011
 31
0.0
  0
LINE
  5
1CE
330
A
100
AcDbEntity
  8
Hawa6
 62
     3
 48
0.116613
100
AcDbLine
 10
59.624795
 20
94.77579099999999
 30
0.0
 11
56.65296899999999
 21
98.371074
 31
0.0
  0
LINE
  5
1CF
330
A
100
AcDbEntity
  8
Hawa6
 62
     3
 48
0.127495
100
AcDbLine
 10
63.04220400000001
 20
113.624378
 30
0.0
 11
59.73534
 21
109.742012
 31
0.0
  0
LINE
  5
1D0
330
A
100
AcDbEntity
  8
Hawa6
 62
     3
 48
0.087822
100
AcDbLine
 10
57.45747900000001
 20
107.067729
 30
0.0
 11
59.73534
 21
109.742012
 31
0.0
  0
LINE
  5
1D1
330
A
100
AcDbEntity
  8
Hawa6
 62
     3
 48
0.018457
100
AcDbLine
 10
56.232015
 20
105.628995
 30
0.0
 11
56.71073
 21
106.191021
 31
0.0
  0
LINE
  5
1D2
330
A
100
AcDbEntity
  8
Hawa6
 62
     3
 48
0.06527
100
AcDbLine
 10
57.124597
 20
109.761296
 30
0.0
 11
59.73534
 21
109.742012
 31
0.0
  0
LINE
  5
1D3
330
A
100
AcDbEntity
  8
Hawa6
 62
     3
 48
0.064678
100
AcDbLine
 10
57.124597
 20
109.761296
 30
0.0
 11
58.802156
 21
111.730806
 31
0.0
  0
LINE
  5
1D4
330
A
100
AcDbEntity
  8
Hawa6
 62
     3
 48
0.079356
100
AcDbLine
 10
55.066336
 20
107.344831
 30
0.0
 11
57.124597
 21
109.761296
 31
0.0
  0
LINE
  5
1D5
330
A
100
AcDbEntity
  8
Hawa6
 62
     3
 48
0.033405
100
AcDbLine
 10
55.31681800000001
 20
98.38094300000001
 30
0.0
 11
56.65296899999999
 21
98.371074
 31
0.0
  0
LINE
  5
1D6
330
A
100
AcDbEntity
  8
Hawa6
 62
     3
 48
0.018986
100
AcDbLine
 10
55.423194
 20
98.945719
 30
0.0
 11
56.182609
 21
98.94011
 31
0.0
  0
LINE
  5
1D7
330
A
100
AcDbEntity
  8
Hawa6
 62
     3
 48
0.019932
100
AcDbLine
 10
55.434743
 20
105.634884
 30
0.0
 11
56.232015
 21
105.628995
 31
0.0
  0
LINE
  5
1D8
330
A
100
AcDbEntity
  8
Hawa6
 62
     3
 48
0.034517
100
AcDbLine
 10
55.330081
 20
106.201219
 30
0.0
 11
56.71073
 21
106.191021
 31
0.0
  0
ARC
  5
1D9
330
A
100
AcDbEntity
  8
Hawa6
 62
     3
100
AcDbCircle
 10
50.675308
 20
102.325071
 30
0.0
 40
5.421355
100
AcDbArc
 50
359.580422
 51
385.113982
  0
ARC
  5
1DA
330
A
100
AcDbEntity
  8
Hawa6
 62
     3
100
AcDbCircle
 10
50.674701
 20
102.325936
 30
0.0
 40
5.421978
100
AcDbArc
 50
334.81645
 51
359.571326
  0
LINE
  5
1DD
330
A
100
AcDbEntity
  8
Hawa4
 62
     4
 48
0.101731
100
AcDbLine
 10
44.04802199999999
 20
109.305322
 30
0.0
 11
44.078078
 21
113.374443
 31
0.0
  0
LINE
  5
1DE
330
A
100
AcDbEntity
  8
Hawa4
 62
     4
 48
0.247408
100
AcDbLine
 10
43.96000899999999
 20
97.38956299999999
 30
0.0
 11
44.03310399999999
 21
107.285618
 31
0.0
  0
LINE
  5
1DF
330
A
100
AcDbEntity
  8
Hawa4
 62
     4
 48
0.100675
100
AcDbLine
 10
43.915584
 20
91.37504300000001
 30
0.0
 11
43.945327
 21
95.40193399999999
 31
0.0
  0
LINE
  5
1E0
330
A
100
AcDbEntity
  8
Hawa4
 62
     4
 48
0.125534
100
AcDbLine
 10
47.959633
 20
97.323982
 30
0.0
 11
47.99672199999999
 21
102.345198
 31
0.0
  0
LINE
  5
1E1
330
A
100
AcDbEntity
  8
Hawa4
 62
     4
 48
0.05
100
AcDbLine
 10
47.99672199999999
 20
102.345198
 30
0.0
 11
49.99666699999999
 21
102.330426
 31
0.0
  0
LINE
  5
1E2
330
A
100
AcDbEntity
  8
Hawa4
 62
     4
 48
0.124842
100
AcDbLine
 10
49.99666699999999
 20
102.330426
 30
0.0
 11
50.033551
 21
107.323982
 31
0.0
  0
LINE
  5
1E3
330
A
100
AcDbEntity
  8
Hawa4
 62
     4
 48
0.125126
100
AcDbLine
 10
49.959699
 20
97.32551200000001
 30
0.0
 11
49.99666699999999
 21
102.330426
 31
0.0
  0
LINE
  5
1E4
330
A
100
AcDbEntity
  8
Hawa4
 62
     4
 48
0.0375
100
AcDbLine
 10
43.90450399999999
 20
89.87508400000001
 30
0.0
 11
43.915584
 21
91.37504300000001
 31
0.0
  0
LINE
  5
1E5
330
A
100
AcDbEntity
  8
Hawa4
 62
     4
 48
0.0852
100
AcDbLine
 10
43.90450399999999
 20
89.87508400000001
 30
0.0
 11
47.312392
 21
89.84991200000001
 31
0.0
  0
LINE
  5
1E6
330
A
100
AcDbEntity
  8
Hawa4
 62
     4
 48
0.080583
100
AcDbLine
 10
44.089157
 20
114.874402
 30
0.0
 11
47.312392
 21
114.850594
 31
0.0
  0
LINE
  5
1E7
330
A
100
AcDbEntity
  8
Hawa4
 62
     4
 48
0.0375
100
AcDbLine
 10
44.078078
 20
113.374443
 30
0.0
 11
44.089157
 21
114.874402
 31
0.0
  0
LINE
  5
1E8
330
A
100
AcDbEntity
  8
Hawa4
 62
     4
 48
0.039043
100
AcDbLine
 10
43.962324
 20
105.37508
 30
0.0
 11
43.950789
 21
103.813399
 31
0.0
  0
LINE
  5
1E9
330
A
100
AcDbEntity
  8
Hawa4
 62
     4
 48
0.110957
100
AcDbLine
 10
43.950789
 20
103.813399
 30
0.0
 11
43.918007
 21
99.37524300000001
 31
0.0
  0
LINE
  5
1EA
330
A
100
AcDbEntity
  8
Hawa4
 62
     4
 48
0.022811
100
AcDbLine
 10
43.312389
 20
104.734675
 30
0.0
 11
43.962324
 21
105.37508
 31
0.0
  0
LINE
  5
1EB
330
A
100
AcDbEntity
  8
Hawa4
 62
     4
 48
0.021572
100
AcDbLine
 10
43.312389
 20
99.989875
 30
0.0
 11
43.918007
 21
99.37524300000001
 31
0.0
  0
LINE
  5
1EC
330
A
100
AcDbEntity
  8
Hawa4
 62
     4
 48
0.001417
100
AcDbLine
 10
44.018985
 20
105.374661
 30
0.0
 11
43.962324
 21
105.37508
 31
0.0
  0
LINE
  5
1ED
330
A
100
AcDbEntity
  8
Hawa4
 62
     4
 48
0.001417
100
AcDbLine
 10
43.974668
 20
99.37482500000001
 30
0.0
 11
43.918007
 21
99.37524300000001
 31
0.0
  0
LINE
  5
1EE
330
A
100
AcDbEntity
  8
Hawa4
 62
     4
 48
0.014142
100
AcDbLine
 10
50.01955999999999
 20
105.430337
 30
0.0
 11
50.422508
 21
105.827376
 31
0.0
  0
LINE
  5
1EF
330
A
100
AcDbEntity
  8
Hawa4
 62
     4
 48
0.014142
100
AcDbLine
 10
49.97376899999999
 20
99.23051200000001
 30
0.0
 11
50.370813
 21
98.82755899999999
 31
0.0
  0
LINE
  5
1F0
330
A
100
AcDbEntity
  8
Hawa4
 62
     4
 48
0.001417
100
AcDbLine
 10
43.922007
 20
99.91672800000001
 30
0.0
 11
43.97867199999999
 21
99.91630999999999
 31
0.0
  0
LINE
  5
1F1
330
A
100
AcDbEntity
  8
Hawa4
 62
     4
 48
0.001417
100
AcDbLine
 10
43.95832399999999
 20
104.833594
 30
0.0
 11
44.01499
 21
104.833176
 31
0.0
  0
LINE
  5
1F2
330
A
100
AcDbEntity
  8
Hawa4
 62
     4
 48
0.001416
100
AcDbLine
 10
44.018965
 20
105.374661
 30
0.0
 11
43.962324
 21
105.37508
 31
0.0
  0
ARC
  5
1F3
330
A
100
AcDbEntity
  8
Hawa4
 62
     4
100
AcDbCircle
 10
43.313838
 20
96.92348
 30
0.0
 40
1.0
100
AcDbArc
 50
180.0
 51
240.0
  0
LINE
  5
1F4
330
A
100
AcDbEntity
  8
Hawa4
 62
     4
 48
0.108253
100
AcDbLine
 10
42.81383799999999
 20
96.05745400000001
 30
0.0
 11
46.56383799999999
 21
93.89239100000001
 31
0.0
  0
ARC
  5
1F5
330
A
100
AcDbEntity
  8
Hawa4
 62
     4
100
AcDbCircle
 10
46.81383799999999
 20
94.325404
 30
0.0
 40
0.5
100
AcDbArc
 50
240.0
 51
360.0
  0
LINE
  5
1F6
330
A
100
AcDbEntity
  8
Hawa4
 62
     4
 48
0.025
100
AcDbLine
 10
47.31383799999999
 20
94.325404
 30
0.0
 11
47.31383799999999
 21
95.325404
 31
0.0
  0
LINE
  5
1F7
330
A
100
AcDbEntity
  8
Hawa4
 62
     4
 48
0.088604
100
AcDbLine
 10
47.31383799999999
 20
95.325404
 30
0.0
 11
50.857986
 21
95.325404
 31
0.0
  0
ARC
  5
1F8
330
A
100
AcDbEntity
  8
Hawa4
 62
     4
100
AcDbCircle
 10
50.857986
 20
94.325404
 30
0.0
 40
1.0
100
AcDbArc
 50
344.10419
 51
450.0
  0
ARC
  5
1F9
330
A
100
AcDbEntity
  8
Hawa4
 62
     4
100
AcDbCircle
 10
59.513838
 20
91.86040400000001
 30
0.0
 40
8.0
100
AcDbArc
 50
164.10419
 51
176.667805
  0
LINE
  5
1FA
330
A
100
AcDbEntity
  8
Hawa4
 62
     4
 48
0.017838
100
AcDbLine
 10
51.527364
 20
92.32540400000001
 30
0.0
 11
50.813838
 21
92.32540400000001
 31
0.0
  0
ARC
  5
1FB
330
A
100
AcDbEntity
  8
Hawa4
 62
     4
100
AcDbCircle
 10
50.813838
 20
91.825404
 30
0.0
 40
0.5
100
AcDbArc
 50
90.0
 51
180.0
  0
LINE
  5
1FC
330
A
100
AcDbEntity
  8
Hawa4
 62
     4
 48
0.033935
100
AcDbLine
 10
50.313838
 20
91.825404
 30
0.0
 11
50.313838
 21
90.467986
 31
0.0
  0
ARC
  5
1FD
330
A
100
AcDbEntity
  8
Hawa4
 62
     4
100
AcDbCircle
 10
53.513838
 20
92.32540400000001
 30
0.0
 40
3.7
100
AcDbArc
 50
210.132722
 51
261.010701
  0
ARC
  5
1FE
330
A
100
AcDbEntity
  8
Hawa4
 62
     4
100
AcDbCircle
 10
53.01383799999999
 20
89.16470699999999
 30
0.0
 40
0.5
100
AcDbArc
 50
261.010701
 51
360.0
  0
LINE
  5
1FF
330
A
100
AcDbEntity
  8
Hawa4
 62
     4
 48
0.079017
100
AcDbLine
 10
53.513838
 20
89.16470699999999
 30
0.0
 11
53.513838
 21
92.32540400000001
 31
0.0
  0
ARC
  5
200
330
A
100
AcDbEntity
  8
Hawa4
 62
     4
100
AcDbCircle
 10
59.513838
 20
91.86040400000001
 30
0.0
 40
6.017991999999999
100
AcDbArc
 50
156.067191
 51
175.568435
  0
ARC
  5
201
330
A
100
AcDbEntity
  8
Hawa4
 62
     4
100
AcDbCircle
 10
35.934685
 20
102.325404
 30
0.0
 40
19.779154
100
AcDbArc
 50
336.0671910000001
 51
383.932809
  0
ARC
  5
202
330
A
100
AcDbEntity
  8
Hawa4
 62
     4
100
AcDbCircle
 10
59.513838
 20
112.790404
 30
0.0
 40
6.017991999999999
100
AcDbArc
 50
184.431565
 51
203.932809
  0
LINE
  5
203
330
A
100
AcDbEntity
  8
Hawa4
 62
     4
 48
0.079017
100
AcDbLine
 10
53.513838
 20
112.325404
 30
0.0
 11
53.513838
 21
115.4861
 31
0.0
  0
ARC
  5
204
330
A
100
AcDbEntity
  8
Hawa4
 62
     4
100
AcDbCircle
 10
53.01383799999999
 20
115.4861
 30
0.0
 40
0.5
100
AcDbArc
 50
0.0
 51
98.989299
  0
ARC
  5
205
330
A
100
AcDbEntity
  8
Hawa4
 62
     4
100
AcDbCircle
 10
53.513838
 20
112.325404
 30
0.0
 40
3.7
100
AcDbArc
 50
98.989299
 51
149.867278
  0
LINE
  5
206
330
A
100
AcDbEntity
  8
Hawa4
 62
     4
 48
0.033935
100
AcDbLine
 10
50.313838
 20
114.182821
 30
0.0
 11
50.313838
 21
112.825404
 31
0.0
  0
ARC
  5
207
330
A
100
AcDbEntity
  8
Hawa4
 62
     4
100
AcDbCircle
 10
50.813838
 20
112.825404
 30
0.0
 40
0.5
100
AcDbArc
 50
180.0
 51
270.0
  0
LINE
  5
208
330
A
100
AcDbEntity
  8
Hawa4
 62
     4
 48
0.017838
100
AcDbLine
 10
51.527364
 20
112.325404
 30
0.0
 11
50.813838
 21
112.325404
 31
0.0
  0
ARC
  5
209
330
A
100
AcDbEntity
  8
Hawa4
 62
     4
100
AcDbCircle
 10
59.513838
 20
112.790404
 30
0.0
 40
8.0
100
AcDbArc
 50
183.332195
 51
195.89581
  0
ARC
  5
20A
330
A
100
AcDbEntity
  8
Hawa4
 62
     4
100
AcDbCircle
 10
50.857986
 20
110.325404
 30
0.0
 40
1.0
100
AcDbArc
 50
270.0
 51
375.89581
  0
LINE
  5
20B
330
A
100
AcDbEntity
  8
Hawa4
 62
     4
 48
0.088604
100
AcDbLine
 10
47.31383799999999
 20
109.325404
 30
0.0
 11
50.857986
 21
109.325404
 31
0.0
  0
LINE
  5
20C
330
A
100
AcDbEntity
  8
Hawa4
 62
     4
 48
0.025
100
AcDbLine
 10
47.31383799999999
 20
109.325404
 30
0.0
 11
47.31383799999999
 21
110.325404
 31
0.0
  0
ARC
  5
20D
330
A
100
AcDbEntity
  8
Hawa4
 62
     4
100
AcDbCircle
 10
46.81383799999999
 20
110.325404
 30
0.0
 40
0.5
100
AcDbArc
 50
0.0
 51
120.0
  0
LINE
  5
20E
330
A
100
AcDbEntity
  8
Hawa4
 62
     4
 48
0.108253
100
AcDbLine
 10
42.81383799999999
 20
108.593353
 30
0.0
 11
46.56383799999999
 21
110.758416
 31
0.0
  0
ARC
  5
20F
330
A
100
AcDbEntity
  8
Hawa4
 62
     4
100
AcDbCircle
 10
43.313838
 20
107.727327
 30
0.0
 40
1.0
100
AcDbArc
 50
120.0
 51
180.0
  0
LINE
  5
210
330
A
100
AcDbEntity
  8
Hawa4
 62
     4
 48
0.270096
100
AcDbLine
 10
42.31383799999999
 20
96.92348
 30
0.0
 11
42.31383799999999
 21
107.727327
 31
0.0
  0
LINE
  5
211
330
A
100
AcDbEntity
  8
Hawa4
 62
     4
 48
0.185
100
AcDbLine
 10
44.31383799999999
 20
107.325404
 30
0.0
 11
51.713838
 21
107.325404
 31
0.0
  0
ARC
  5
212
330
A
100
AcDbEntity
  8
Hawa4
 62
     4
100
AcDbCircle
 10
51.713838
 20
106.325404
 30
0.0
 40
1.0
100
AcDbArc
 50
360.0
 51
450.0
  0
LINE
  5
213
330
A
100
AcDbEntity
  8
Hawa4
 62
     4
 48
0.2
100
AcDbLine
 10
52.713838
 20
98.325404
 30
0.0
 11
52.713838
 21
106.325404
 31
0.0
  0
ARC
  5
214
330
A
100
AcDbEntity
  8
Hawa4
 62
     4
100
AcDbCircle
 10
51.713838
 20
98.325404
 30
0.0
 40
1.0
100
AcDbArc
 50
270.0
 51
360.0
  0
LINE
  5
215
330
A
100
AcDbEntity
  8
Hawa4
 62
     4
 48
0.185
100
AcDbLine
 10
51.713838
 20
97.32540400000001
 30
0.0
 11
44.31383799999999
 21
97.32540400000001
 31
0.0
  0
ARC
  5
216
330
A
100
AcDbEntity
  8
Hawa4
 62
     4
100
AcDbCircle
 10
44.31383799999999
 20
98.325404
 30
0.0
 40
1.0
100
AcDbArc
 50
180.0
 51
270.0
  0
LINE
  5
217
330
A
100
AcDbEntity
  8
Hawa4
 62
     4
 48
0.2
100
AcDbLine
 10
43.313838
 20
106.325404
 30
0.0
 11
43.313838
 21
98.325404
 31
0.0
  0
ARC
  5
218
330
A
100
AcDbEntity
  8
Hawa4
 62
     4
100
AcDbCircle
 10
44.31383799999999
 20
106.325404
 30
0.0
 40
1.0
100
AcDbArc
 50
90.0
 51
180.0
  0
LINE
  5
219
330
A
100
AcDbEntity
  8
Hawa6
 62
     3
100
AcDbLine
 10
214.370882
 20
60.996166
 30
0.0
 11
245.23868
 21
60.996166
 31
0.0
  0
LINE
  5
21A
330
A
100
AcDbEntity
  8
Hawa4
 62
     4
 48
0.000196
100
AcDbLine
 10
245.23868
 20
60.996166
 30
0.0
 11
245.23868
 21
61.004013
 31
0.0
  0
LINE
  5
21B
330
A
100
AcDbEntity
  8
Hawa6
 62
     3
100
AcDbLine
 10
214.370882
 20
61.453804
 30
0.0
 11
243.977423
 21
61.453804
 31
0.0
  0
LINE
  5
21C
330
A
100
AcDbEntity
  8
Hawa4
 62
     4
 48
0.004012
100
AcDbLine
 10
245.078188
 20
61.453804
 30
0.0
 11
245.23868
 21
61.453804
 31
0.0
  0
LINE
  5
21D
330
A
100
AcDbEntity
  8
Hawa4
 62
     4
 48
0.00242
100
AcDbLine
 10
245.23868
 20
61.28268900000001
 30
0.0
 11
245.23868
 21
61.185874
 31
0.0
  0
LINE
  5
21E
330
A
100
AcDbEntity
  8
Hawa6
 62
     3
100
AcDbLine
 10
214.370882
 20
65.82530600000001
 30
0.0
 11
239.516915
 21
65.82530600000001
 31
0.0
  0
LINE
  5
21F
330
A
100
AcDbEntity
  8
Hawa6
 62
     3
 48
0.095464
100
AcDbLine
 10
241.420124
 20
65.82530600000001
 30
0.0
 11
245.23868
 21
65.82530600000001
 31
0.0
  0
LINE
  5
220
330
A
100
AcDbEntity
  8
Hawa4
 62
     4
 48
0.007499
100
AcDbLine
 10
245.23868
 20
62.775403
 30
0.0
 11
245.23868
 21
63.075383
 31
0.0
  0
LINE
  5
221
330
A
100
AcDbEntity
  8
Hawa4
 62
     4
 48
0.03815
100
AcDbLine
 10
245.23868
 20
64.29929099999999
 30
0.0
 11
245.23868
 21
65.82530600000001
 31
0.0
  0
LINE
  5
222
330
A
100
AcDbEntity
  8
Hawa4
 62
     4
 48
0.005183
100
AcDbLine
 10
245.23868
 20
66.032614
 30
0.0
 11
245.23868
 21
65.82530600000001
 31
0.0
  0
LINE
  5
223
330
A
100
AcDbEntity
  8
Hawa4
 62
     4
 48
0.002735
100
AcDbLine
 10
245.23868
 20
66.325404
 30
0.0
 11
245.23868
 21
66.21601
 31
0.0
  0
LINE
  5
224
330
A
100
AcDbEntity
  8
Hawa6
 62
     3
100
AcDbLine
 10
244.970659
 20
61.015845
 30
0.0
 11
214.370882
 21
61.015845
 31
0.0
  0
LINE
  5
225
330
A
100
AcDbEntity
  8
Hawa6
 62
     3
100
AcDbLine
 10
245.23868
 20
81.65464099999999
 30
0.0
 11
214.370882
 21
81.65464099999999
 31
0.0
  0
LINE
  5
226
330
A
100
AcDbEntity
  8
Hawa4
 62
     4
 48
0.000243
100
AcDbLine
 10
245.23868
 20
81.65464099999999
 30
0.0
 11
245.23868
 21
81.64490500000001
 31
0.0
  0
LINE
  5
227
330
A
100
AcDbEntity
  8
Hawa4
 62
     4
 48
0.002495
100
AcDbLine
 10
245.23868
 20
81.364291
 30
0.0
 11
245.23868
 21
81.46407600000001
 31
0.0
  0
LINE
  5
228
330
A
100
AcDbEntity
  8
Hawa4
 62
     4
 48
0.004013
100
AcDbLine
 10
245.23868
 20
81.19700300000001
 30
0.0
 11
245.078149
 21
81.19700300000001
 31
0.0
  0
LINE
  5
229
330
A
100
AcDbEntity
  8
Hawa6
 62
     3
100
AcDbLine
 10
243.978057
 20
81.19700300000001
 30
0.0
 11
214.370882
 21
81.19700300000001
 31
0.0
  0
LINE
  5
22A
330
A
100
AcDbEntity
  8
Hawa4
 62
     4
 48
0.007507
100
AcDbLine
 10
245.23868
 20
79.57542700000001
 30
0.0
 11
245.23868
 21
79.875709
 31
0.0
  0
LINE
  5
22B
330
A
100
AcDbEntity
  8
Hawa4
 62
     4
 48
0.038104
100
AcDbLine
 10
245.23868
 20
76.825501
 30
0.0
 11
245.23868
 21
78.34966300000001
 31
0.0
  0
LINE
  5
22C
330
A
100
AcDbEntity
  8
Hawa6
 62
     3
 48
0.095485
100
AcDbLine
 10
245.23868
 20
76.825501
 30
0.0
 11
241.419263
 21
76.825501
 31
0.0
  0
LINE
  5
22D
330
A
100
AcDbEntity
  8
Hawa6
 62
     3
100
AcDbLine
 10
239.517841
 20
76.825501
 30
0.0
 11
214.370882
 21
76.825501
 31
0.0
  0
LINE
  5
22E
330
A
100
AcDbEntity
  8
Hawa4
 62
     4
 48
0.005209
100
AcDbLine
 10
245.23868
 20
76.61712900000001
 30
0.0
 11
245.23868
 21
76.825501
 31
0.0
  0
LINE
  5
22F
330
A
100
AcDbEntity
  8
Hawa4
 62
     4
 48
0.002729
100
AcDbLine
 10
245.23868
 20
76.325404
 30
0.0
 11
245.23868
 21
76.434578
 31
0.0
  0
LINE
  5
230
330
A
100
AcDbEntity
  8
Hawa5
 62
     1
 48
0.138771
100
AcDbLine
 10
245.23868
 20
76.325404
 30
0.0
 11
239.687858
 21
76.325404
 31
0.0
  0
LINE
  5
231
330
A
100
AcDbEntity
  8
Hawa5
 62
     1
100
AcDbLine
 10
239.681379
 20
76.325404
 30
0.0
 11
214.370882
 21
76.325404
 31
0.0
  0
LINE
  5
232
330
A
100
AcDbEntity
  8
Hawa6
 62
     3
100
AcDbLine
 10
214.370882
 20
81.634963
 30
0.0
 11
245.118113
 21
81.634963
 31
0.0
  0
ARC
  5
233
330
A
100
AcDbEntity
  8
Hawa4
 62
     4
100
AcDbCircle
 10
132.503658
 20
74.127586
 30
0.0
 40
0.5
100
AcDbArc
 50
222.78281
 51
317.2171900000001
  0
LINE
  5
234
330
A
100
AcDbEntity
  8
Hawa4
 62
     4
 48
0.06551
100
AcDbLine
 10
132.870624
 20
73.787976
 30
0.0
 11
134.650444
 21
75.71116299999999
 31
0.0
  0
ARC
  5
235
330
A
100
AcDbEntity
  8
Hawa4
 62
     4
100
AcDbCircle
 10
134.503658
 20
75.847008
 30
0.0
 40
0.2
100
AcDbArc
 50
317.2171900000001
 51
360.0
  0
LINE
  5
236
330
A
100
AcDbEntity
  8
Hawa4
 62
     4
 48
0.003848
100
AcDbLine
 10
134.703658
 20
75.847008
 30
0.0
 11
134.703658
 21
76.00093000000001
 31
0.0
  0
ARC
  5
237
330
A
100
AcDbEntity
  8
Hawa4
 62
     4
100
AcDbCircle
 10
134.503658
 20
76.00093000000001
 30
0.0
 40
0.2
100
AcDbArc
 50
0.0
 51
123.468299
  0
LINE
  5
238
330
A
100
AcDbEntity
  8
Hawa4
 62
     4
 48
0.022098
100
AcDbLine
 10
134.393363
 20
76.16776800000001
 30
0.0
 11
133.65601
 21
75.680312
 31
0.0
  0
ARC
  5
239
330
A
100
AcDbEntity
  8
Hawa4
 62
     4
100
AcDbCircle
 10
133.545715
 20
75.84715
 30
0.0
 40
0.2
100
AcDbArc
 50
169.975374
 51
303.468299
  0
ARC
  5
23A
330
A
100
AcDbEntity
  8
Hawa4
 62
     4
100
AcDbCircle
 10
135.318235
 20
75.533821
 30
0.0
 40
2.0
100
AcDbArc
 50
127.593845
 51
169.975374
  0
LINE
  5
23B
330
A
100
AcDbEntity
  8
Hawa4
 62
     4
 48
0.016645
100
AcDbLine
 10
134.0981149999999
 20
77.118532
 30
0.0
 11
134.62567
 21
77.524713
 31
0.0
  0
ARC
  5
23C
330
A
100
AcDbEntity
  8
Hawa4
 62
     4
100
AcDbCircle
 10
134.503658
 20
77.683184
 30
0.0
 40
0.2
100
AcDbArc
 50
307.5938450000001
 51
360.0
  0
LINE
  5
23D
330
A
100
AcDbEntity
  8
Hawa4
 62
     4
 48
0.004701
100
AcDbLine
 10
134.703658
 20
77.683184
 30
0.0
 11
134.703658
 21
77.871228
 31
0.0
  0
ARC
  5
23E
330
A
100
AcDbEntity
  8
Hawa4
 62
     4
100
AcDbCircle
 10
134.503658
 20
77.871228
 30
0.0
 40
0.2
100
AcDbArc
 50
0.0
 51
123.468299
  0
LINE
  5
23F
330
A
100
AcDbEntity
  8
Hawa4
 62
     4
 48
0.016411
100
AcDbLine
 10
134.393363
 20
78.038066
 30
0.0
 11
133.84575
 21
77.676045
 31
0.0
  0
ARC
  5
240
330
A
100
AcDbEntity
  8
Hawa4
 62
     4
100
AcDbCircle
 10
133.735455
 20
77.842884
 30
0.0
 40
0.2
100
AcDbArc
 50
172.427312
 51
303.468299
  0
LINE
  5
241
330
A
100
AcDbEntity
  8
Hawa4
 62
     4
 48
0.04835
100
AcDbLine
 10
133.537199
 20
77.86924
 30
0.0
 11
133.792071
 21
79.78638199999998
 31
0.0
  0
ARC
  5
242
330
A
100
AcDbEntity
  8
Hawa4
 62
     4
100
AcDbCircle
 10
133.990326
 20
79.76002499999999
 30
0.0
 40
0.2
100
AcDbArc
 50
61.253804
 51
172.427312
  0
LINE
  5
243
330
A
100
AcDbEntity
  8
Hawa4
 62
     4
 48
0.015318
100
AcDbLine
 10
134.086513
 20
79.935377
 30
0.0
 11
134.62372
 21
79.640701
 31
0.0
  0
ARC
  5
244
330
A
100
AcDbEntity
  8
Hawa4
 62
     4
100
AcDbCircle
 10
134.527534
 20
79.465349
 30
0.0
 40
0.2
100
AcDbArc
 50
31.045561
 51
61.253804
  0
ARC
  5
245
330
A
100
AcDbEntity
  8
Hawa4
 62
     4
100
AcDbCircle
 10
134.870237
 20
79.671637
 30
0.0
 40
0.2
100
AcDbArc
 50
211.045561
 51
373.012652
  0
ARC
  5
246
330
A
100
AcDbEntity
  8
Hawa4
 62
     4
100
AcDbCircle
 10
134.090781
 20
79.491504
 30
0.0
 40
1.0
100
AcDbArc
 50
13.012652
 51
61.253804
  0
LINE
  5
247
330
A
100
AcDbEntity
  8
Hawa4
 62
     4
 48
0.016333
100
AcDbLine
 10
134.571712
 20
80.36826299999999
 30
0.0
 11
133.998924
 21
80.68245500000001
 31
0.0
  0
ARC
  5
248
330
A
100
AcDbEntity
  8
Hawa4
 62
     4
100
AcDbCircle
 10
134.09511
 20
80.85780699999999
 30
0.0
 40
0.2
100
AcDbArc
 50
113.444663
 51
241.253804
  0
ARC
  5
249
330
A
100
AcDbEntity
  8
Hawa4
 62
     4
100
AcDbCircle
 10
132.503658
 20
84.52758600000001
 30
0.0
 40
3.799999999999999
100
AcDbArc
 50
293.444663
 51
321.943492
  0
ARC
  5
24A
330
A
100
AcDbEntity
  8
Hawa4
 62
     4
100
AcDbCircle
 10
135.377679
 20
82.27758599999999
 30
0.0
 40
0.15
100
AcDbArc
 50
141.943488
 51
321.943492
  0
ARC
  5
24B
330
A
100
AcDbEntity
  8
Hawa4
 62
     4
100
AcDbCircle
 10
132.503658
 20
84.52758600000001
 30
0.0
 40
3.5
100
AcDbArc
 50
321.943492
 51
413.2371199999999
  0
ARC
  5
24C
330
A
100
AcDbEntity
  8
Hawa4
 62
     4
100
AcDbCircle
 10
136.57349
 20
89.97519699999999
 30
0.0
 40
3.299999999999999
100
AcDbArc
 50
184.182246
 51
233.23712
  0
LINE
  5
24D
330
A
100
AcDbEntity
  8
Hawa4
 62
     4
 48
0.163796
100
AcDbLine
 10
133.282277
 20
89.734531
 30
0.0
 11
132.804456
 21
96.26893000000002
 31
0.0
  0
ARC
  5
24E
330
A
100
AcDbEntity
  8
Hawa4
 62
     4
100
AcDbCircle
 10
133.901527
 20
96.34915200000001
 30
0.0
 40
1.1
100
AcDbArc
 50
150.887788
 51
184.182246
  0
ARC
  5
24F
330
A
100
AcDbEntity
  8
Hawa4
 62
     4
100
AcDbCircle
 10
132.503658
 20
97.127586
 30
0.0
 40
0.5
100
AcDbArc
 50
330.887793
 51
569.11221
  0
ARC
  5
250
330
A
100
AcDbEntity
  8
Hawa4
 62
     4
100
AcDbCircle
 10
131.105788
 20
96.34915200000001
 30
0.0
 40
1.1
100
AcDbArc
 50
355.817754
 51
389.112212
  0
LINE
  5
251
330
A
100
AcDbEntity
  8
Hawa4
 62
     4
 48
0.163796
100
AcDbLine
 10
131.725038
 20
89.734531
 30
0.0
 11
132.202859
 21
96.26893000000002
 31
0.0
  0
ARC
  5
252
330
A
100
AcDbEntity
  8
Hawa4
 62
     4
100
AcDbCircle
 10
128.433826
 20
89.97519699999999
 30
0.0
 40
3.299999999999999
100
AcDbArc
 50
306.76288
 51
355.817754
  0
ARC
  5
253
330
A
100
AcDbEntity
  8
Hawa4
 62
     4
100
AcDbCircle
 10
132.503658
 20
84.52758600000001
 30
0.0
 40
3.5
100
AcDbArc
 50
126.76288
 51
218.056508
  0
ARC
  5
254
330
A
100
AcDbEntity
  8
Hawa4
 62
     4
100
AcDbCircle
 10
129.629636
 20
82.27758599999999
 30
0.0
 40
0.15
100
AcDbArc
 50
218.056508
 51
398.056512
  0
ARC
  5
255
330
A
100
AcDbEntity
  8
Hawa4
 62
     4
100
AcDbCircle
 10
132.503658
 20
84.52758600000001
 30
0.0
 40
3.799999999999999
100
AcDbArc
 50
218.056508
 51
246.555337
  0
ARC
  5
256
330
A
100
AcDbEntity
  8
Hawa4
 62
     4
100
AcDbCircle
 10
130.912205
 20
80.85780699999999
 30
0.0
 40
0.2
100
AcDbArc
 50
298.746196
 51
426.5553370000001
  0
LINE
  5
257
330
A
100
AcDbEntity
  8
Hawa4
 62
     4
 48
0.016333
100
AcDbLine
 10
130.435604
 20
80.36826299999999
 30
0.0
 11
131.008391
 21
80.68245500000001
 31
0.0
  0
ARC
  5
258
330
A
100
AcDbEntity
  8
Hawa4
 62
     4
100
AcDbCircle
 10
130.916534
 20
79.491504
 30
0.0
 40
1.0
100
AcDbArc
 50
118.746196
 51
166.987348
  0
ARC
  5
259
330
A
100
AcDbEntity
  8
Hawa4
 62
     4
100
AcDbCircle
 10
130.137078
 20
79.671637
 30
0.0
 40
0.2
100
AcDbArc
 50
166.987348
 51
328.954439
  0
ARC
  5
25A
330
A
100
AcDbEntity
  8
Hawa4
 62
     4
100
AcDbCircle
 10
130.479781
 20
79.465349
 30
0.0
 40
0.2
100
AcDbArc
 50
118.746196
 51
148.954439
  0
LINE
  5
25B
330
A
100
AcDbEntity
  8
Hawa4
 62
     4
 48
0.015318
100
AcDbLine
 10
130.920803
 20
79.935377
 30
0.0
 11
130.383595
 21
79.640701
 31
0.0
  0
ARC
  5
25C
330
A
100
AcDbEntity
  8
Hawa4
 62
     4
100
AcDbCircle
 10
131.016989
 20
79.76002499999999
 30
0.0
 40
0.2
100
AcDbArc
 50
7.572688
 51
118.746196
  0
LINE
  5
25D
330
A
100
AcDbEntity
  8
Hawa4
 62
     4
 48
0.04835
100
AcDbLine
 10
131.470116
 20
77.86924
 30
0.0
 11
131.215245
 21
79.78638199999998
 31
0.0
  0
ARC
  5
25E
330
A
100
AcDbEntity
  8
Hawa4
 62
     4
100
AcDbCircle
 10
131.27186
 20
77.842884
 30
0.0
 40
0.2
100
AcDbArc
 50
236.531701
 51
367.572688
  0
LINE
  5
25F
330
A
100
AcDbEntity
  8
Hawa4
 62
     4
 48
0.016411
100
AcDbLine
 10
130.613953
 20
78.038066
 30
0.0
 11
131.161565
 21
77.676045
 31
0.0
  0
ARC
  5
260
330
A
100
AcDbEntity
  8
Hawa4
 62
     4
100
AcDbCircle
 10
130.503658
 20
77.871228
 30
0.0
 40
0.2
100
AcDbArc
 50
56.531701
 51
180.0
  0
LINE
  5
261
330
A
100
AcDbEntity
  8
Hawa4
 62
     4
 48
0.004701
100
AcDbLine
 10
130.303658
 20
77.683184
 30
0.0
 11
130.303658
 21
77.871228
 31
0.0
  0
LINE
  5
262
330
A
100
AcDbEntity
  8
Hawa4
 62
     4
 48
0.016645
100
AcDbLine
 10
130.909201
 20
77.118532
 30
0.0
 11
130.381646
 21
77.524713
 31
0.0
  0
ARC
  5
263
330
A
100
AcDbEntity
  8
Hawa4
 62
     4
100
AcDbCircle
 10
129.689081
 20
75.533821
 30
0.0
 40
2.0
100
AcDbArc
 50
10.024626
 51
52.406155
  0
ARC
  5
264
330
A
100
AcDbEntity
  8
Hawa4
 62
     4
100
AcDbCircle
 10
131.4616
 20
75.84715
 30
0.0
 40
0.2
100
AcDbArc
 50
236.531701
 51
370.024626
  0
LINE
  5
265
330
A
100
AcDbEntity
  8
Hawa4
 62
     4
 48
0.022098
100
AcDbLine
 10
130.613953
 20
76.16776800000001
 30
0.0
 11
131.351305
 21
75.680312
 31
0.0
  0
ARC
  5
266
330
A
100
AcDbEntity
  8
Hawa4
 62
     4
100
AcDbCircle
 10
130.503658
 20
76.00093000000001
 30
0.0
 40
0.2
100
AcDbArc
 50
56.531701
 51
180.0
  0
LINE
  5
267
330
A
100
AcDbEntity
  8
Hawa4
 62
     4
 48
0.003848
100
AcDbLine
 10
130.303658
 20
75.847008
 30
0.0
 11
130.303658
 21
76.00093000000001
 31
0.0
  0
ARC
  5
268
330
A
100
AcDbEntity
  8
Hawa4
 62
     4
100
AcDbCircle
 10
130.503658
 20
75.847008
 30
0.0
 40
0.2
100
AcDbArc
 50
180.0
 51
222.78281
  0
LINE
  5
269
330
A
100
AcDbEntity
  8
Hawa4
 62
     4
 48
0.06551
100
AcDbLine
 10
132.136691
 20
73.787976
 30
0.0
 11
130.356871
 21
75.71116299999999
 31
0.0
  0
CIRCLE
  5
26A
330
A
100
AcDbEntity
  8
Hawa4
 62
     4
100
AcDbCircle
 10
132.503658
 20
84.52758600000001
 30
0.0
 40
3.0
  0
ARC
  5
26B
330
A
100
AcDbEntity
  8
Hawa4
 62
     4
100
AcDbCircle
 10
128.433826
 20
89.97519699999999
 30
0.0
 40
3.0
100
AcDbArc
 50
306.76288
 51
355.817754
  0
ARC
  5
26C
330
A
100
AcDbEntity
  8
Hawa4
 62
     4
100
AcDbCircle
 10
132.503658
 20
84.52758600000001
 30
0.0
 40
3.799999999999999
100
AcDbArc
 50
126.76288
 51
218.056508
  0
ARC
  5
278
330
A
100
AcDbEntity
  8
Hawa4
 62
     4
100
AcDbCircle
 10
132.503658
 20
84.52758600000001
 30
0.0
 40
3.799999999999999
100
AcDbArc
 50
321.943492
 51
413.2371199999999
  0
ARC
  5
279
330
A
100
AcDbEntity
  8
Hawa4
 62
     4
100
AcDbCircle
 10
136.57349
 20
89.97519699999999
 30
0.0
 40
3.0
100
AcDbArc
 50
184.182246
 51
233.23712
  0
LINE
  5
27A
330
A
100
AcDbEntity
  8
Hawa4
 62
     4
 48
0.163796
100
AcDbLine
 10
133.581478
 20
89.75641000000001
 30
0.0
 11
133.103658
 21
96.290808
 31
0.0
  0
ARC
  5
27B
330
A
100
AcDbEntity
  8
Hawa4
 62
     4
100
AcDbCircle
 10
133.901527
 20
96.34915200000001
 30
0.0
 40
0.8
100
AcDbArc
 50
150.88779
 51
184.182246
  0
ARC
  5
27C
330
A
100
AcDbEntity
  8
Hawa4
 62
     4
100
AcDbCircle
 10
132.503658
 20
97.127586
 30
0.0
 40
0.8
100
AcDbArc
 50
330.88779
 51
569.11221
  0
ARC
  5
27D
330
A
100
AcDbEntity
  8
Hawa4
 62
     4
100
AcDbCircle
 10
131.105788
 20
96.34915200000001
 30
0.0
 40
0.8
100
AcDbArc
 50
355.817754
 51
389.11221
  0
LINE
  5
27E
330
A
100
AcDbEntity
  8
Hawa4
 62
     4
 48
0.163796
100
AcDbLine
 10
131.425837
 20
89.75641000000001
 30
0.0
 11
131.903658
 21
96.290808
 31
0.0
  0
LINE
  5
43E
330
A
100
AcDbEntity
  8
Hawa4
  6
DASHDOT
 62
     4
 48
0.039
100
AcDbLine
 10
254.094421
 20
63.67540200000001
 30
0.0
 11
252.534408
 21
63.67540200000001
 31
0.0
  0
LINE
  5
43F
330
A
100
AcDbEntity
  8
Hawa4
  6
DASHDOT
 62
     4
 48
0.039
100
AcDbLine
 10
253.314422
 20
64.45540099999999
 30
0.0
 11
253.314422
 21
62.895403
 31
0.0
  0
LINE
  5
440
330
A
100
AcDbEntity
  8
Hawa4
  6
DASHDOT
 62
     4
 48
0.039
100
AcDbLine
 10
254.094421
 20
78.975398
 30
0.0
 11
252.534408
 21
78.975398
 31
0.0
  0
LINE
  5
441
330
A
100
AcDbEntity
  8
Hawa4
  6
DASHDOT
 62
     4
 48
0.039
100
AcDbLine
 10
253.314422
 20
79.75539599999999
 30
0.0
 11
253.314422
 21
78.19539899999999
 31
0.0
  0
LINE
  5
442
330
A
100
AcDbEntity
  8
Hawa2
 62
     9
 48
0.068375
100
AcDbLine
 10
245.238677
 20
62.75932499999999
 30
0.0
 11
247.172607
 21
60.825404
 31
0.0
  0
LINE
  5
443
330
A
100
AcDbEntity
  8
Hawa2
 62
     9
 48
0.058901
100
AcDbLine
 10
248.335067
 20
62.491366
 30
0.0
 11
250.001022
 21
60.825404
 31
0.0
  0
LINE
  5
444
330
A
100
AcDbEntity
  8
Hawa2
 62
     9
 48
0.07955
100
AcDbLine
 10
250.579452
 20
63.075404
 30
0.0
 11
252.829452
 21
60.825404
 31
0.0
  0
LINE
  5
445
330
A
100
AcDbEntity
  8
Hawa2
 62
     9
 48
0.07955
100
AcDbLine
 10
253.407882
 20
63.075404
 30
0.0
 11
255.657882
 21
60.825404
 31
0.0
  0
LINE
  5
446
330
A
100
AcDbEntity
  8
Hawa2
 62
     9
 48
0.07955
100
AcDbLine
 10
256.236312
 20
63.075404
 30
0.0
 11
258.486312
 21
60.825404
 31
0.0
  0
LINE
  5
447
330
A
100
AcDbEntity
  8
Hawa2
 62
     9
 48
0.088388
100
AcDbLine
 10
256.738677
 20
65.401461
 30
0.0
 11
259.238677
 21
62.901461
 31
0.0
  0
LINE
  5
448
330
A
100
AcDbEntity
  8
Hawa2
 62
     9
 48
0.088388
100
AcDbLine
 10
256.738677
 20
68.229891
 30
0.0
 11
259.238677
 21
65.729891
 31
0.0
  0
LINE
  5
449
330
A
100
AcDbEntity
  8
Hawa2
 62
     9
 48
0.067048
100
AcDbLine
 10
245.971588
 20
81.825404
 30
0.0
 11
247.867996
 21
79.928996
 31
0.0
  0
LINE
  5
44A
330
A
100
AcDbEntity
  8
Hawa2
 62
     9
 48
0.087806
100
AcDbLine
 10
256.755142
 20
71.04185700000002
 30
0.0
 11
259.238677
 21
68.55831399999999
 31
0.0
  0
LINE
  5
44B
330
A
100
AcDbEntity
  8
Hawa2
 62
     9
 48
0.07892
100
AcDbLine
 10
248.800018
 20
81.825404
 30
0.0
 11
251.032211
 21
79.59321100000003
 31
0.0
  0
LINE
  5
44C
330
A
100
AcDbEntity
  8
Hawa2
 62
     9
 48
0.088388
100
AcDbLine
 10
256.738677
 20
73.88674400000002
 30
0.0
 11
259.238677
 21
71.38674400000002
 31
0.0
  0
LINE
  5
44D
330
A
100
AcDbEntity
  8
Hawa2
 62
     9
 48
0.07955
100
AcDbLine
 10
251.628448
 20
81.825404
 30
0.0
 11
253.878448
 21
79.575404
 31
0.0
  0
LINE
  5
44E
330
A
100
AcDbEntity
  8
Hawa2
 62
     9
 48
0.088388
100
AcDbLine
 10
256.738677
 20
76.715174
 30
0.0
 11
259.238677
 21
74.215174
 31
0.0
  0
LINE
  5
44F
330
A
100
AcDbEntity
  8
Hawa2
 62
     9
 48
0.169062
100
AcDbLine
 10
254.456878
 20
81.825404
 30
0.0
 11
259.238677
 21
77.04358900000002
 31
0.0
  0
LINE
  5
450
330
A
100
AcDbEntity
  8
Hawa2
 62
     9
 48
0.069063
100
AcDbLine
 10
257.285293
 20
81.825404
 30
0.0
 11
259.238677
 21
79.87201900000002
 31
0.0
  0
LINE
  5
451
330
A
100
AcDbEntity
  8
Hawa2
 62
     9
 48
0.008622
100
AcDbLine
 10
253.599533
 20
63.147662
 30
0.0
 11
253.843414
 21
63.391535
 31
0.0
  0
LINE
  5
452
330
A
100
AcDbEntity
  8
Hawa2
 62
     9
 48
0.060102
100
AcDbLine
 10
250.698852
 20
63.075404
 30
0.0
 11
252.398803
 21
64.77535500000001
 31
0.0
  0
LINE
  5
453
330
A
100
AcDbEntity
  8
Hawa2
 62
     9
 48
0.04872
100
AcDbLine
 10
247.692413
 20
62.897402
 30
0.0
 11
249.070419
 21
64.275401
 31
0.0
  0
LINE
  5
454
330
A
100
AcDbEntity
  8
Hawa2
 62
     9
 48
0.01177
100
AcDbLine
 10
250.533843
 20
65.73881800000001
 30
0.0
 11
250.866744
 21
66.07171899999999
 31
0.0
  0
LINE
  5
455
330
A
100
AcDbEntity
  8
Hawa2
 62
     9
 48
0.030171
100
AcDbLine
 10
243.727691
 20
61.76109499999999
 30
0.0
 11
244.581039
 21
62.614451
 31
0.0
  0
LINE
  5
456
330
A
100
AcDbEntity
  8
Hawa2
 62
     9
 48
0.043011
100
AcDbLine
 10
245.025451
 20
63.058863
 30
0.0
 11
246.241989
 21
64.275401
 31
0.0
  0
LINE
  5
457
330
A
100
AcDbEntity
  8
Hawa2
 62
     9
 48
0.018197
100
AcDbLine
 10
246.779113
 20
64.81251800000001
 30
0.0
 11
247.293807
 21
65.327219
 31
0.0
  0
LINE
  5
458
330
A
100
AcDbEntity
  8
Hawa2
 62
     9
 48
0.044371
100
AcDbLine
 10
242.396087
 20
63.25792200000001
 30
0.0
 11
243.651092
 21
64.51292600000001
 31
0.0
  0
LINE
  5
459
330
A
100
AcDbEntity
  8
Hawa2
 62
     9
 48
0.008019
100
AcDbLine
 10
245.1968990000001
 20
66.05873299999998
 30
0.0
 11
245.423721
 21
66.285555
 31
0.0
  0
LINE
  5
45A
330
A
100
AcDbEntity
  8
Hawa2
 62
     9
 48
0.032411
100
AcDbLine
 10
240.952438
 20
64.64271
 30
0.0
 11
241.869155
 21
65.55941999999999
 31
0.0
  0
LINE
  5
45B
330
A
100
AcDbEntity
  8
Hawa2
 62
     9
 48
0.01313
100
AcDbLine
 10
239.425262
 20
65.94394900000001
 30
0.0
 11
239.79663
 21
66.315325
 31
0.0
  0
LINE
  5
45C
330
A
100
AcDbEntity
  8
Hawa2
 62
     9
 48
0.071771
100
AcDbLine
 10
251.026718
 20
77.545405
 30
0.0
 11
253.056716
 21
79.575404
 31
0.0
  0
LINE
  5
45D
330
A
100
AcDbEntity
  8
Hawa2
 62
     9
 48
0.042426
100
AcDbLine
 10
249.028289
 20
78.37540700000002
 30
0.0
 11
250.228286
 21
79.575404
 31
0.0
  0
LINE
  5
45E
330
A
100
AcDbEntity
  8
Hawa2
 62
     9
 48
0.042426
100
AcDbLine
 10
246.199859
 20
78.37540700000002
 30
0.0
 11
247.399856
 21
79.575404
 31
0.0
  0
LINE
  5
45F
330
A
100
AcDbEntity
  8
Hawa2
 62
     9
 48
0.079096
100
AcDbLine
 10
242.506591
 20
77.510554
 30
0.0
 11
244.743759
 21
79.747721
 31
0.0
  0
LINE
  5
460
330
A
100
AcDbEntity
  8
Hawa2
 62
     9
 48
0.080676
100
AcDbLine
 10
129.403657
 20
65.457262
 30
0.0
 11
131.685516
 21
63.17540200000001
 31
0.0
  0
LINE
  5
461
330
A
100
AcDbEntity
  8
Hawa2
 62
     9
 48
0.180676
100
AcDbLine
 10
129.403657
 20
68.28569300000001
 30
0.0
 11
134.513942
 21
63.17540200000001
 31
0.0
  0
LINE
  5
462
330
A
100
AcDbEntity
  8
Hawa2
 62
     9
 48
0.280676
100
AcDbLine
 10
129.403657
 20
71.11411499999999
 30
0.0
 11
137.342369
 21
63.17540200000001
 31
0.0
  0
LINE
  5
463
330
A
100
AcDbEntity
  8
Hawa2
 62
     9
 48
0.235233
100
AcDbLine
 10
129.403657
 20
73.94254500000002
 30
0.0
 11
136.057041
 21
67.289164
 31
0.0
  0
LINE
  5
464
330
A
100
AcDbEntity
  8
Hawa2
 62
     9
 48
0.068943
100
AcDbLine
 10
138.220798
 20
65.12540699999999
 30
0.0
 11
140.170799
 21
63.17540200000001
 31
0.0
  0
LINE
  5
465
330
A
100
AcDbEntity
  8
Hawa2
 62
     9
 48
0.041543
100
AcDbLine
 10
129.403657
 20
76.770976
 30
0.0
 11
130.578657
 21
75.595972
 31
0.0
  0
LINE
  5
466
330
A
100
AcDbEntity
  8
Hawa2
 62
     9
 48
0.114522
100
AcDbLine
 10
132.864484
 20
73.31014499999999
 30
0.0
 11
136.103656
 21
70.070971
 31
0.0
  0
LINE
  5
467
330
A
100
AcDbEntity
  8
Hawa2
 62
     9
 48
0.054525
100
AcDbLine
 10
141.449226
 20
64.725405
 30
0.0
 11
142.991428
 21
63.183199
 31
0.0
  0
LINE
  5
468
330
A
100
AcDbEntity
  8
Hawa2
 62
     9
 48
0.033957
100
AcDbLine
 10
129.761447
 20
79.24160200000001
 30
0.0
 11
130.721899
 21
78.281153
 31
0.0
  0
LINE
  5
469
330
A
100
AcDbEntity
  8
Hawa2
 62
     9
 48
0.05922
100
AcDbLine
 10
134.428657
 20
74.57439699999998
 30
0.0
 11
136.103656
 21
72.89940099999999
 31
0.0
  0
LINE
  5
46A
330
A
100
AcDbEntity
  8
Hawa2
 62
     9
 48
0.052149
100
AcDbLine
 10
134.428657
 20
77.40282699999998
 30
0.0
 11
135.903655
 21
75.92782100000002
 31
0.0
  0
LINE
  5
46B
330
A
100
AcDbEntity
  8
Hawa2
 62
     9
 48
0.068943
100
AcDbLine
 10
135.184505
 20
79.475398
 30
0.0
 11
137.134506
 21
77.525401
 31
0.0
  0
LINE
  5
46C
330
A
100
AcDbEntity
  8
Hawa2
 62
     9
 48
0.068943
100
AcDbLine
 10
138.012931
 20
79.475398
 30
0.0
 11
139.962932
 21
77.525401
 31
0.0
  0
LINE
  5
46D
330
A
100
AcDbEntity
  8
Hawa2
 62
     9
 48
0.068943
100
AcDbLine
 10
140.841361
 20
79.475398
 30
0.0
 11
142.791358
 21
77.525401
 31
0.0
  0
LINE
  5
46E
330
A
100
AcDbEntity
  8
Hawa2
 62
     9
 48
0.006588
100
AcDbLine
 10
142.040679
 20
64.725893
 30
0.0
 11
142.227012
 21
64.912226
 31
0.0
  0
LINE
  5
46F
330
A
100
AcDbEntity
  8
Hawa2
 62
     9
 48
0.029823
100
AcDbLine
 10
142.440193
 20
65.12540699999999
 30
0.0
 11
143.283725
 21
65.968935
 31
0.0
  0
LINE
  5
470
330
A
100
AcDbEntity
  8
Hawa2
 62
     9
 48
0.033929
100
AcDbLine
 10
139.611762
 20
65.12540699999999
 30
0.0
 11
140.571418
 21
66.085062
 31
0.0
  0
LINE
  5
471
330
A
100
AcDbEntity
  8
Hawa2
 62
     9
 48
0.024722
100
AcDbLine
 10
136.783336
 20
65.12540699999999
 30
0.0
 11
137.482585
 21
65.824648
 31
0.0
  0
LINE
  5
472
330
A
100
AcDbEntity
  8
Hawa2
 62
     9
 48
0.026517
100
AcDbLine
 10
136.103656
 20
67.27414899999999
 30
0.0
 11
136.853656
 21
68.02414899999999
 31
0.0
  0
LINE
  5
473
330
A
100
AcDbEntity
  8
Hawa2
 62
     9
 48
0.026517
100
AcDbLine
 10
136.103656
 20
70.10258
 30
0.0
 11
136.853656
 21
70.85258
 31
0.0
  0
LINE
  5
474
330
A
100
AcDbEntity
  8
Hawa2
 62
     9
 48
0.035676
100
AcDbLine
 10
142.374176
 20
76.373103
 30
0.0
 11
143.383251
 21
77.382166
 31
0.0
  0
LINE
  5
475
330
A
100
AcDbEntity
  8
Hawa2
 62
     9
 48
0.026517
100
AcDbLine
 10
136.103656
 20
72.93100200000001
 30
0.0
 11
136.853656
 21
73.68101
 31
0.0
  0
LINE
  5
476
330
A
100
AcDbEntity
  8
Hawa2
 62
     9
 48
0.054197
100
AcDbLine
 10
139.565147
 20
76.39249699999999
 30
0.0
 11
141.098056
 21
77.92541000000001
 31
0.0
  0
LINE
  5
477
330
A
100
AcDbEntity
  8
Hawa2
 62
     9
 48
0.023869
100
AcDbLine
 10
135.978538
 20
75.634318
 30
0.0
 11
136.653655
 21
76.30942800000003
 31
0.0
  0
LINE
  5
478
330
A
100
AcDbEntity
  8
Hawa2
 62
     9
 48
0.024722
100
AcDbLine
 10
137.170383
 20
76.82615099999999
 30
0.0
 11
137.869628
 21
77.525401
 31
0.0
  0
LINE
  5
479
330
A
100
AcDbEntity
  8
Hawa2
 62
     9
 48
0.008986
100
AcDbLine
 10
34.713836
 20
83.77955100000001
 30
0.0
 11
34.96798699999999
 21
83.525401
 31
0.0
  0
LINE
  5
47A
330
A
100
AcDbEntity
  8
Hawa2
 62
     9
 48
0.09932
100
AcDbLine
 10
34.98721999999999
 20
86.33458900000002
 30
0.0
 11
37.796409
 21
83.525401
 31
0.0
  0
LINE
  5
47B
330
A
100
AcDbEntity
  8
Hawa2
 62
     9
 48
0.191308
100
AcDbLine
 10
35.213836
 20
88.93639599999998
 30
0.0
 11
40.62483899999999
 21
83.525401
 31
0.0
  0
LINE
  5
47C
330
A
100
AcDbEntity
  8
Hawa2
 62
     9
 48
0.106117
100
AcDbLine
 10
35.213836
 20
91.76482599999999
 30
0.0
 11
38.21527000000001
 21
88.76339200000002
 31
0.0
  0
LINE
  5
47D
330
A
100
AcDbEntity
  8
Hawa2
 62
     9
 48
0.099046
100
AcDbLine
 10
40.65183199999999
 20
86.326838
 30
0.0
 11
43.45326599999999
 21
83.525401
 31
0.0
  0
LINE
  5
47E
330
A
100
AcDbEntity
  8
Hawa2
 62
     9
 48
0.106066
100
AcDbLine
 10
35.213836
 20
94.59325599999999
 30
0.0
 11
38.21383599999999
 21
91.593256
 31
0.0
  0
LINE
  5
47F
330
A
100
AcDbEntity
  8
Hawa2
 62
     9
 48
0.098995
100
AcDbLine
 10
43.48169299999999
 20
86.32540400000001
 30
0.0
 11
46.28169199999999
 21
83.525401
 31
0.0
  0
LINE
  5
480
330
A
100
AcDbEntity
  8
Hawa2
 62
     9
 48
0.106066
100
AcDbLine
 10
35.213836
 20
97.421687
 30
0.0
 11
38.21383599999999
 21
94.42168700000001
 31
0.0
  0
LINE
  5
481
330
A
100
AcDbEntity
  8
Hawa2
 62
     9
 48
0.109717
100
AcDbLine
 10
46.00686599999999
 20
86.62865699999997
 30
0.0
 11
49.11011799999999
 21
83.525401
 31
0.0
  0
LINE
  5
482
330
A
100
AcDbEntity
  8
Hawa2
 62
     9
 48
0.106066
100
AcDbLine
 10
35.213836
 20
100.250117
 30
0.0
 11
38.21383599999999
 21
97.25011700000001
 31
0.0
  0
LINE
  5
483
330
A
100
AcDbEntity
  8
Hawa2
 62
     9
 48
0.166125
100
AcDbLine
 10
47.23982599999999
 20
88.22413100000002
 30
0.0
 11
51.938545
 21
83.525401
 31
0.0
  0
LINE
  5
484
330
A
100
AcDbEntity
  8
Hawa2
 62
     9
 48
0.106066
100
AcDbLine
 10
35.213836
 20
103.078532
 30
0.0
 11
38.21383599999999
 21
100.078532
 31
0.0
  0
LINE
  5
485
330
A
100
AcDbEntity
  8
Hawa2
 62
     9
 48
0.106066
100
AcDbLine
 10
47.31383799999999
 20
90.97854100000001
 30
0.0
 11
50.313838
 21
87.97854099999998
 31
0.0
  0
LINE
  5
486
330
A
100
AcDbEntity
  8
Hawa2
 62
     9
 48
0.092136
100
AcDbLine
 10
51.966972
 20
86.32540400000001
 30
0.0
 11
54.57295600000001
 21
83.71941600000003
 31
0.0
  0
LINE
  5
487
330
A
100
AcDbEntity
  8
Hawa2
 62
     9
 48
0.106066
100
AcDbLine
 10
35.213836
 20
105.906962
 30
0.0
 11
38.21383599999999
 21
102.906962
 31
0.0
  0
LINE
  5
488
330
A
100
AcDbEntity
  8
Hawa2
 62
     9
 48
0.106066
100
AcDbLine
 10
47.31383799999999
 20
93.806971
 30
0.0
 11
50.313838
 21
90.806971
 31
0.0
  0
LINE
  5
489
330
A
100
AcDbEntity
  8
Hawa2
 62
     9
 48
0.077644
100
AcDbLine
 10
53.513839
 20
87.60695899999999
 30
0.0
 11
55.70994899999998
 21
85.41085299999997
 31
0.0
  0
LINE
  5
48A
330
A
100
AcDbEntity
  8
Hawa2
 62
     9
 48
0.106066
100
AcDbLine
 10
35.213836
 20
108.735392
 30
0.0
 11
38.21383599999999
 21
105.735392
 31
0.0
  0
LINE
  5
48B
330
A
100
AcDbEntity
  8
Hawa2
 62
     9
 48
0.059751
100
AcDbLine
 10
48.623828
 20
95.325404
 30
0.0
 11
50.313838
 21
93.635386
 31
0.0
  0
LINE
  5
48C
330
A
100
AcDbEntity
  8
Hawa2
 62
     9
 48
0.060073
100
AcDbLine
 10
53.513839
 20
90.43538899999999
 30
0.0
 11
55.21296299999999
 21
88.73627699999998
 31
0.0
  0
LINE
  5
48D
330
A
100
AcDbEntity
  8
Hawa2
 62
     9
 48
0.106066
100
AcDbLine
 10
35.213836
 20
111.563822
 30
0.0
 11
38.21383599999999
 21
108.563822
 31
0.0
  0
LINE
  5
48E
330
A
100
AcDbEntity
  8
Hawa2
 62
     9
 48
0.106066
100
AcDbLine
 10
35.213836
 20
114.392252
 30
0.0
 11
38.21383599999999
 21
111.392252
 31
0.0
  0
LINE
  5
48F
330
A
100
AcDbEntity
  8
Hawa2
 62
     9
 48
0.106066
100
AcDbLine
 10
35.213836
 20
117.220667
 30
0.0
 11
38.21383599999999
 21
114.220667
 31
0.0
  0
LINE
  5
490
330
A
100
AcDbEntity
  8
Hawa2
 62
     9
 48
0.131291
100
AcDbLine
 10
34.713836
 20
120.549097
 30
0.0
 11
38.42729499999999
 21
116.835642
 31
0.0
  0
LINE
  5
491
330
A
100
AcDbEntity
  8
Hawa2
 62
     9
 48
0.1038
100
AcDbLine
 10
36.965965
 20
121.125407
 30
0.0
 11
39.901874
 21
118.189494
 31
0.0
  0
LINE
  5
492
330
A
100
AcDbEntity
  8
Hawa2
 62
     9
 48
0.05134
100
AcDbLine
 10
47.31383799999999
 20
110.777522
 30
0.0
 11
48.765964
 21
109.325404
 31
0.0
  0
LINE
  5
493
330
A
100
AcDbEntity
  8
Hawa2
 62
     9
 48
0.098995
100
AcDbLine
 10
39.794391
 20
121.125407
 30
0.0
 11
42.59439
 21
118.325404
 31
0.0
  0
LINE
  5
494
330
A
100
AcDbEntity
  8
Hawa2
 62
     9
 48
0.106066
100
AcDbLine
 10
47.31383799999999
 20
113.605952
 30
0.0
 11
50.313838
 21
110.605952
 31
0.0
  0
LINE
  5
495
330
A
100
AcDbEntity
  8
Hawa2
 62
     9
 48
0.102696
100
AcDbLine
 10
42.62281699999999
 20
121.125407
 30
0.0
 11
45.527492
 21
118.220728
 31
0.0
  0
LINE
  5
496
330
A
100
AcDbEntity
  8
Hawa2
 62
     9
 48
0.109767
100
AcDbLine
 10
47.209163
 20
116.539057
 30
0.0
 11
50.313838
 21
113.434382
 31
0.0
  0
LINE
  5
497
330
A
100
AcDbEntity
  8
Hawa2
 62
     9
 48
0.171919
100
AcDbLine
 10
45.451244
 20
121.125407
 30
0.0
 11
50.313838
 21
116.262812
 31
0.0
  0
LINE
  5
498
330
A
100
AcDbEntity
  8
Hawa2
 62
     9
 48
0.098995
100
AcDbLine
 10
48.27967000000001
 20
121.125407
 30
0.0
 11
51.07967299999999
 21
118.325404
 31
0.0
  0
LINE
  5
499
330
A
100
AcDbEntity
  8
Hawa2
 62
     9
 48
0.05124
100
AcDbLine
 10
53.513839
 20
115.89123
 30
0.0
 11
54.96311899999999
 21
114.44195
 31
0.0
  0
LINE
  5
49A
330
A
100
AcDbEntity
  8
Hawa2
 62
     9
 48
0.150648
100
AcDbLine
 10
51.10809999999999
 20
121.125407
 30
0.0
 11
55.369075
 21
116.86442
 31
0.0
  0
LINE
  5
49B
330
A
100
AcDbEntity
  8
Hawa2
 62
     9
 48
0.061798
100
AcDbLine
 10
53.951263
 20
121.110667
 30
0.0
 11
55.69917599999999
 21
119.362757
 31
0.0
  0
LINE
  5
49C
330
A
100
AcDbEntity
  8
Hawa2
 62
     9
 48
0.023043
100
AcDbLine
 10
52.86207099999999
 20
88.68436700000001
 30
0.0
 11
53.513839
 21
89.33613100000002
 31
0.0
  0
LINE
  5
49D
330
A
100
AcDbEntity
  8
Hawa2
 62
     9
 48
0.089601
100
AcDbLine
 10
50.97953
 20
89.63025900000003
 30
0.0
 11
53.513839
 21
92.164561
 31
0.0
  0
LINE
  5
49E
330
A
100
AcDbEntity
  8
Hawa2
 62
     9
 48
0.018824
100
AcDbLine
 10
50.313838
 20
91.79299399999999
 30
0.0
 11
50.84625199999999
 21
92.32540400000001
 31
0.0
  0
LINE
  5
49F
330
A
100
AcDbEntity
  8
Hawa2
 62
     9
 48
0.111034
100
AcDbLine
 10
51.60880999999999
 20
93.08796200000001
 30
0.0
 11
54.74931299999999
 21
96.22846500000001
 31
0.0
  0
LINE
  5
4A0
330
A
100
AcDbEntity
  8
Hawa2
 62
     9
 48
0.160965
100
AcDbLine
 10
51.006526
 20
95.31411199999999
 30
0.0
 11
55.559307
 21
99.866892
 31
0.0
  0
LINE
  5
4A1
330
A
100
AcDbEntity
  8
Hawa2
 62
     9
 48
0.021623
100
AcDbLine
 10
46.70225499999999
 20
93.838267
 30
0.0
 11
47.31383799999999
 21
94.449839
 31
0.0
  0
LINE
  5
4A2
330
A
100
AcDbEntity
  8
Hawa2
 62
     9
 48
0.070711
100
AcDbLine
 10
48.18939899999999
 20
95.325404
 30
0.0
 11
50.18939899999999
 21
97.32540400000001
 31
0.0
  0
LINE
  5
4A3
330
A
100
AcDbEntity
  8
Hawa2
 62
     9
 48
0.10578
100
AcDbLine
 10
52.713836
 20
99.84984799999999
 30
0.0
 11
55.705738
 21
102.841746
 31
0.0
  0
LINE
  5
4A4
330
A
100
AcDbEntity
  8
Hawa2
 62
     9
 48
0.087265
100
AcDbLine
 10
44.892757
 20
94.85718799999999
 30
0.0
 11
47.36096899999999
 21
97.32540400000001
 31
0.0
  0
LINE
  5
4A5
330
A
100
AcDbEntity
  8
Hawa2
 62
     9
 48
0.097366
100
AcDbLine
 10
52.713836
 20
102.678278
 30
0.0
 11
55.46776499999999
 21
105.4322
 31
0.0
  0
LINE
  5
4A6
330
A
100
AcDbEntity
  8
Hawa2
 62
     9
 48
0.050662
100
AcDbLine
 10
43.09960499999999
 20
95.892466
 30
0.0
 11
44.532543
 21
97.32540400000001
 31
0.0
  0
LINE
  5
4A7
330
A
100
AcDbEntity
  8
Hawa2
 62
     9
 48
0.079247
100
AcDbLine
 10
52.713836
 20
105.506693
 30
0.0
 11
54.95527199999999
 21
107.748133
 31
0.0
  0
LINE
  5
4A8
330
A
100
AcDbEntity
  8
Hawa2
 62
     9
 48
0.035355
100
AcDbLine
 10
42.31383799999999
 20
97.93513
 30
0.0
 11
43.313838
 21
98.93513
 31
0.0
  0
LINE
  5
4A9
330
A
100
AcDbEntity
  8
Hawa2
 62
     9
 48
0.089186
100
AcDbLine
 10
51.704116
 20
107.325404
 30
0.0
 11
54.226676
 21
109.847971
 31
0.0
  0
LINE
  5
4AA
330
A
100
AcDbEntity
  8
Hawa2
 62
     9
 48
0.035355
100
AcDbLine
 10
42.31383799999999
 20
100.76356
 30
0.0
 11
43.313838
 21
101.76356
 31
0.0
  0
LINE
  5
4AB
330
A
100
AcDbEntity
  8
Hawa2
 62
     9
 48
0.07073
100
AcDbLine
 10
48.87569
 20
107.325404
 30
0.0
 11
50.87623199999999
 21
109.325953
 31
0.0
  0
LINE
  5
4AC
330
A
100
AcDbEntity
  8
Hawa2
 62
     9
 48
0.059793
100
AcDbLine
 10
51.857746
 20
110.307459
 30
0.0
 11
53.54893399999999
 21
111.998652
 31
0.0
  0
LINE
  5
4AD
330
A
100
AcDbEntity
  8
Hawa2
 62
     9
 48
0.035355
100
AcDbLine
 10
42.31383799999999
 20
103.591975
 30
0.0
 11
43.313838
 21
104.591975
 31
0.0
  0
LINE
  5
4AE
330
A
100
AcDbEntity
  8
Hawa2
 62
     9
 48
0.070711
100
AcDbLine
 10
46.04726399999999
 20
107.325404
 30
0.0
 11
48.04726399999999
 21
109.325404
 31
0.0
  0
LINE
  5
4AF
330
A
100
AcDbEntity
  8
Hawa2
 62
     9
 48
0.087207
100
AcDbLine
 10
51.047264
 20
112.325404
 30
0.0
 11
53.513839
 21
114.791987
 31
0.0
  0
LINE
  5
4B0
330
A
100
AcDbEntity
  8
Hawa2
 62
     9
 48
0.155329
100
AcDbLine
 10
42.31383799999999
 20
106.420405
 30
0.0
 11
46.70720999999999
 21
110.813776
 31
0.0
  0
LINE
  5
4B1
330
A
100
AcDbEntity
  8
Hawa2
 62
     9
 48
0.056936
100
AcDbLine
 10
131.736356
 20
74.22055999999997
 30
0.0
 11
133.346761
 21
75.83095799999999
 31
0.0
  0
LINE
  5
4B2
330
A
100
AcDbEntity
  8
Hawa2
 62
     9
 48
0.006381
100
AcDbLine
 10
130.578657
 20
75.89129100000002
 30
0.0
 11
130.759149
 21
76.07177199999999
 31
0.0
  0
LINE
  5
4B3
330
A
100
AcDbEntity
  8
Hawa2
 62
     9
 48
0.082859
100
AcDbLine
 10
131.343948
 20
76.65658
 30
0.0
 11
133.687551
 21
79.00017799999997
 31
0.0
  0
LINE
  5
4B4
330
A
100
AcDbEntity
  8
Hawa2
 62
     9
 48
0.014408
100
AcDbLine
 10
134.4328
 20
79.74543200000002
 30
0.0
 11
134.84032
 21
80.15294899999998
 31
0.0
  0
LINE
  5
4B5
330
A
100
AcDbEntity
  8
Hawa2
 62
     9
 48
0.082253
100
AcDbLine
 10
131.265712
 20
79.40676299999999
 30
0.0
 11
133.592182
 21
81.733241
 31
0.0
  0
LINE
  5
4B6
330
A
100
AcDbEntity
  8
Hawa2
 62
     9
 48
0.024511
100
AcDbLine
 10
135.28173
 20
83.42278499999997
 30
0.0
 11
135.975017
 21
84.11606799999999
 31
0.0
  0
LINE
  5
4B7
330
A
100
AcDbEntity
  8
Hawa2
 62
     9
 48
0.020778
100
AcDbLine
 10
130.396165
 20
81.36564099999999
 30
0.0
 11
130.983867
 21
81.95334899999997
 31
0.0
  0
LINE
  5
4B8
330
A
100
AcDbEntity
  8
Hawa2
 62
     9
 48
0.012888
100
AcDbLine
 10
135.081401
 20
86.05088300000002
 30
0.0
 11
135.445934
 21
86.41541500000002
 31
0.0
  0
LINE
  5
4B9
330
A
100
AcDbEntity
  8
Hawa2
 62
     9
 48
0.013729
100
AcDbLine
 10
129.309474
 20
83.107386
 30
0.0
 11
129.697788
 21
83.49569200000001
 31
0.0
  0
LINE
  5
4BA
330
A
100
AcDbEntity
  8
Hawa2
 62
     9
 48
0.018044
100
AcDbLine
 10
133.540655
 20
87.338572
 30
0.0
 11
134.051029
 21
87.848933
 31
0.0
  0
LINE
  5
4BB
330
A
100
AcDbEntity
  8
Hawa2
 62
     9
 48
0.140474
100
AcDbLine
 10
129.297199
 20
85.92353299999999
 30
0.0
 11
133.270414
 21
89.89675400000001
 31
0.0
  0
LINE
  5
4BC
330
A
100
AcDbEntity
  8
Hawa2
 62
     9
 48
0.043792
100
AcDbLine
 10
131.839059
 20
91.293818
 30
0.0
 11
133.077682
 21
92.53244999999999
 31
0.0
  0
LINE
  5
4BD
330
A
100
AcDbEntity
  8
Hawa2
 62
     9
 48
0.029089
100
AcDbLine
 10
132.062202
 20
94.345393
 30
0.0
 11
132.88495
 21
95.16814700000001
 31
0.0
  0
LINE
  5
4BE
330
A
100
AcDbEntity
  8
Hawa2
 62
     9
 48
0.017994
100
AcDbLine
 10
132.0056129999999
 20
97.117228
 30
0.0
 11
132.514545
 21
97.62617
 31
0.0
  0
LINE
  5
4BF
330
A
100
AcDbEntity
  8
Hawa2
 62
     9
 48
0.011419
100
AcDbLine
 10
135.975017
 20
84.11606799999999
 30
0.0
 11
136.297992
 21
84.43905099999998
 31
0.0
  0
LINE
  5
4C0
330
A
100
AcDbEntity
  8
Hawa2
 62
     9
 48
0.007651
100
AcDbLine
 10
135.445934
 20
86.41541500000002
 30
0.0
 11
135.662326
 21
86.631815
 31
0.0
  0
LINE
  5
4C1
330
A
100
AcDbEntity
  8
Hawa2
 62
     9
 48
0.008035
100
AcDbLine
 10
129.082214
 20
82.88012200000002
 30
0.0
 11
129.309474
 21
83.107386
 31
0.0
  0
LINE
  5
4C2
330
A
100
AcDbEntity
  8
Hawa2
 62
     9
 48
0.007533
100
AcDbLine
 10
134.051029
 20
87.848933
 30
0.0
 11
134.264087
 21
88.06199099999998
 31
0.0
  0
LINE
  5
4C3
330
A
100
AcDbEntity
  8
Hawa2
 62
     9
 48
0.016946
100
AcDbLine
 10
128.817882
 20
85.444224
 30
0.0
 11
129.297199
 21
85.92353299999999
 31
0.0
  0
LINE
  5
4C4
330
A
100
AcDbEntity
  8
Hawa2
 62
     9
 48
0.00991
100
AcDbLine
 10
133.270414
 20
89.89675400000001
 30
0.0
 11
133.550718
 21
90.17705799999999
 31
0.0
  0
LINE
  5
4C5
330
A
100
AcDbEntity
  8
Hawa2
 62
     9
 48
0.011474
100
AcDbLine
 10
131.514528
 20
90.96929399999998
 30
0.0
 11
131.839059
 21
91.293818
 31
0.0
  0
LINE
  5
4C6
330
A
100
AcDbEntity
  8
Hawa2
 62
     9
 48
0.00991
100
AcDbLine
 10
133.077682
 20
92.53244999999999
 30
0.0
 11
133.357986
 21
92.812754
 31
0.0
  0
LINE
  5
4C7
330
A
100
AcDbEntity
  8
Hawa2
 62
     9
 48
0.011474
100
AcDbLine
 10
131.73767
 20
94.020869
 30
0.0
 11
132.062202
 21
94.345393
 31
0.0
  0
LINE
  5
4C8
330
A
100
AcDbEntity
  8
Hawa2
 62
     9
 48
0.00991
100
AcDbLine
 10
132.88495
 20
95.16814700000001
 30
0.0
 11
133.165254
 21
95.44845
 31
0.0
  0
LINE
  5
4C9
330
A
100
AcDbEntity
  8
Hawa2
 62
     9
 48
0.008892
100
AcDbLine
 10
131.754119
 20
96.865733
 30
0.0
 11
132.0056129999999
 21
97.117228
 31
0.0
  0
LINE
  5
4CA
330
A
100
AcDbEntity
  8
Hawa2
 62
     9
 48
0.008885
100
AcDbLine
 10
132.514545
 20
97.62617
 30
0.0
 11
132.765844
 21
97.87746699999999
 31
0.0
  0
VIEWPORT
  5
27F
102
{ACAD_XDICTIONARY
360
7BE
102
}
330
B
100
AcDbEntity
 67
     1
  8
0
 62
     0
100
AcDbViewport
 10
0.0
 20
0.0
 30
0.0
 40
1000.0
 41
1000.0
 68
     1
 69
     1
 12
0.0
 22
0.0
 13
0.0
 23
0.0
 14
1.0
 24
1.0
 15
1.0
 25
1.0
 16
0.0
 26
0.0
 36
1.0
 17
0.0
 27
0.0
 37
0.0
 42
50.0
 43
0.0
 44
0.0
 45
1000.0
 50
0.0
 51
0.0
 72
   100
 90
   557216
  1

281
     0
 71
     1
 74
     0
110
0.0
120
0.0
130
0.0
111
1.0
121
0.0
131
0.0
112
0.0
122
1.0
132
0.0
 79
     0
146
0.0
  0
ENDSEC
  0
SECTION
  2
OBJECTS
  0
DICTIONARY
  5
19
330
0
100
AcDbDictionary
281
     1
  3
ACAD_COLOR
350
4F0
  3
ACAD_GROUP
350
1A
  3
ACAD_LAYOUT
350
419
  3
ACAD_MATERIAL
350
4DB
  3
ACAD_MLEADERSTYLE
350
4D2
  3
ACAD_MLINESTYLE
350
1B
  3
ACAD_PLOTSETTINGS
350
4F3
  3
ACAD_PLOTSTYLENAME
350
4D9
  3
ACAD_SCALELIST
350
41C
  3
ACAD_TABLESTYLE
350
4F1
  3
ACAD_VISUALSTYLE
350
4DF
  3
AcDbVariableDictionary
350
4D0
  3
DWGPROPS
350
7BD
  0
DICTIONARY
  5
7BE
330
27F
100
AcDbDictionary
280
     1
281
     1
  3
ACAD_XREC_ROUNDTRIP
360
7BF
  0
DICTIONARY
  5
4F0
102
{ACAD_REACTORS
330
19
102
}
330
19
100
AcDbDictionary
281
     1
  0
DICTIONARY
  5
1A
102
{ACAD_REACTORS
330
19
102
}
330
19
100
AcDbDictionary
281
     1
  0
DICTIONARY
  5
419
102
{ACAD_REACTORS
330
19
102
}
330
19
100
AcDbDictionary
281
     1
  3
Layout1
350
41B
  3
Model
350
41A
  0
DICTIONARY
  5
4DB
102
{ACAD_REACTORS
330
19
102
}
330
19
100
AcDbDictionary
281
     1
  3
ByBlock
350
4DD
  3
ByLayer
350
4DC
  3
Global
350
4DE
  0
DICTIONARY
  5
4D2
102
{ACAD_REACTORS
330
19
102
}
330
19
100
AcDbDictionary
281
     1
  0
DICTIONARY
  5
1B
102
{ACAD_REACTORS
330
19
102
}
330
19
100
AcDbDictionary
281
     1
  3
STANDARD
350
1C
  0
DICTIONARY
  5
4F3
102
{ACAD_REACTORS
330
19
102
}
330
19
100
AcDbDictionary
281
     1
  0
ACDBDICTIONARYWDFLT
  5
4D9
102
{ACAD_REACTORS
330
19
102
}
330
19
100
AcDbDictionary
281
     1
  3
Normal
350
4DA
100
AcDbDictionaryWithDefault
340
4DA
  0
DICTIONARY
  5
41C
102
{ACAD_REACTORS
330
19
102
}
330
19
100
AcDbDictionary
281
     1
  3
A0
350
41D
  3
A1
350
41E
  3
A2
350
41F
  3
A3
350
420
  3
A4
350
421
  3
A5
350
422
  3
A6
350
423
  3
A7
350
424
  3
A8
350
425
  3
A9
350
426
  3
B0
350
427
  3
B1
350
428
  3
B2
350
429
  3
B3
350
42A
  3
B4
350
42B
  3
B5
350
42C
  3
B6
350
42D
  3
B7
350
42E
  3
B8
350
42F
  3
B9
350
430
  3
C0
350
431
  3
C1
350
432
  3
C2
350
433
  3
C3
350
434
  3
C4
350
435
  3
C5
350
436
  3
C6
350
437
  3
C7
350
438
  3
C8
350
439
  3
C9
350
43A
  3
D0
350
43B
  3
D1
350
43C
  3
D2
350
43D
  0
DICTIONARY
  5
4F1
102
{ACAD_REACTORS
330
19
102
}
330
19
100
AcDbDictionary
281
     1
  3
Standard
350
4F2
  0
DICTIONARY
  5
4DF
102
{ACAD_REACTORS
330
19
102
}
330
19
100
AcDbDictionary
281
     1
  3
2dWireframe
350
4E5
  3
3D Hidden
350
4E7
  3
3dWireframe
350
4E6
  3
Basic
350
4E4
  3
Brighten
350
4EB
  3
ColorChange
350
4EF
  3
Conceptual
350
4E8
  3
Dim
350
4EA
  3
Facepattern
350
4EE
  3
Flat
350
4E0
  3
FlatWithEdges
350
4E1
  3
Gouraud
350
4E2
  3
GouraudWithEdges
350
4E3
  3
Linepattern
350
4ED
  3
Realistic
350
4E9
  3
Thicken
350
4EC
  0
DICTIONARY
  5
4D0
102
{ACAD_REACTORS
330
19
102
}
330
19
100
AcDbDictionary
281
     1
  3
CANNOSCALE
350
4D3
  3
CTABLESTYLE
350
66C
  3
DIMASSOC
350
66F
  3
INDEXCTL
350
66E
  3
SORTENTS
350
66D
  0
XRECORD
  5
7BD
102
{ACAD_REACTORS
330
19
102
}
330
19
100
AcDbXrecord
280
     1
  1
DWGPROPS COOKIE
  2

  3

  4

  6

  7

  8
rhu
  9

300
=
301
=
302
=
303
=
304
=
305
=
306
=
307
=
308
=
309
=
 40
0.0616197916666667
 41
2447893.0
 42
2455790.548865521
  1

 90
        0
  0
XRECORD
  5
7BF
102
{ACAD_REACTORS
330
7BE
102
}
330
7BE
100
AcDbXrecord
280
     1
102
SHADEPLOT
 70
     0
  0
LAYOUT
  5
41B
102
{ACAD_XDICTIONARY
360
7C2
102
}
102
{ACAD_REACTORS
330
419
102
}
330
419
100
AcDbPlotSettings
  1

  2
none_device
  4

  6

 40
0.0
 41
0.0
 42
0.0
 43
0.0
 44
0.0
 45
0.0
 46
0.0
 47
0.0
 48
0.0
 49
0.0
140
0.0
141
0.0
142
1.0
143
1.0
 70
   688
 72
     0
 73
     0
 74
     5
  7

 75
    16
147
1.0
148
0.0
149
0.0
100
AcDbLayout
  1
Layout1
 70
     1
 71
     1
 10
0.0
 20
0.0
 11
420.0
 21
297.0
 12
0.0
 22
0.0
 32
0.0
 14
0.0
 24
0.0
 34
0.0
 15
168.075607
 25
203.970047
 35
2.0
146
0.0
 13
0.0
 23
0.0
 33
0.0
 16
1.0
 26
0.0
 36
0.0
 17
0.0
 27
1.0
 37
0.0
 76
     0
330
B
331
27F
  0
LAYOUT
  5
41A
102
{ACAD_XDICTIONARY
360
7C0
102
}
102
{ACAD_REACTORS
330
419
102
}
330
419
100
AcDbPlotSettings
  1

  2
none_device
  4

  6

 40
0.0
 41
0.0
 42
0.0
 43
0.0
 44
0.0
 45
0.0
 46
0.0
 47
0.0
 48
0.0
 49
0.0
140
0.0
141
0.0
142
1.0
143
1.0
 70
   688
 72
     0
 73
     0
 74
     5
  7

 75
    16
147
1.0
148
0.0
149
0.0
100
AcDbLayout
  1
Model
 70
     1
 71
     0
 10
0.0
 20
0.0
 11
0.0
 21
0.0
 12
0.0
 22
0.0
 32
0.0
 14
0.0
 24
0.0
 34
0.0
 15
0.0
 25
0.0
 35
0.0
146
0.0
 13
0.0
 23
0.0
 33
0.0
 16
1.0
 26
0.0
 36
0.0
 17
0.0
 27
1.0
 37
0.0
 76
     0
330
A
331
15
  0
MATERIAL
  5
4DD
102
{ACAD_XDICTIONARY
360
7C6
102
}
102
{ACAD_REACTORS
330
4DB
102
}
330
4DB
100
AcDbMaterial
  1
ByBlock
  0
MATERIAL
  5
4DC
102
{ACAD_XDICTIONARY
360
7C4
102
}
102
{ACAD_REACTORS
330
4DB
102
}
330
4DB
100
AcDbMaterial
  1
ByLayer
  0
MATERIAL
  5
4DE
102
{ACAD_XDICTIONARY
360
7C8
102
}
102
{ACAD_REACTORS
330
4DB
102
}
330
4DB
100
AcDbMaterial
  1
Global
  0
MLINESTYLE
  5
1C
102
{ACAD_REACTORS
330
1B
102
}
330
1B
100
AcDbMlineStyle
  2
STANDARD
 70
     0
  3

 62
     0
 51
90.0
 52
90.0
 71
     2
 49
0.5
 62
   256
  6
BYLAYER
 49
-0.5
 62
   256
  6
BYLAYER
  0
ACDBPLACEHOLDER
  5
4DA
102
{ACAD_REACTORS
330
4D9
102
}
330
4D9
  0
SCALE
  5
41D
102
{ACAD_REACTORS
330
41C
102
}
330
41C
100
AcDbScale
 70
     0
300
1:1
140
1.0
141
1.0
290
     1
1001
ACAD
1000
AcRTDxfName
1000
SCALE
  0
SCALE
  5
41E
102
{ACAD_REACTORS
330
41C
102
}
330
41C
100
AcDbScale
 70
     0
300
1:2
140
1.0
141
2.0
290
     0
1001
ACAD
1000
AcRTDxfName
1000
SCALE
  0
SCALE
  5
41F
102
{ACAD_REACTORS
330
41C
102
}
330
41C
100
AcDbScale
 70
     0
300
1:4
140
1.0
141
4.0
290
     0
1001
ACAD
1000
AcRTDxfName
1000
SCALE
  0
SCALE
  5
420
102
{ACAD_REACTORS
330
41C
102
}
330
41C
100
AcDbScale
 70
     0
300
1:5
140
1.0
141
5.0
290
     0
1001
ACAD
1000
AcRTDxfName
1000
SCALE
  0
SCALE
  5
421
102
{ACAD_REACTORS
330
41C
102
}
330
41C
100
AcDbScale
 70
     0
300
1:8
140
1.0
141
8.0
290
     0
1001
ACAD
1000
AcRTDxfName
1000
SCALE
  0
SCALE
  5
422
102
{ACAD_REACTORS
330
41C
102
}
330
41C
100
AcDbScale
 70
     0
300
1:10
140
1.0
141
10.0
290
     0
1001
ACAD
1000
AcRTDxfName
1000
SCALE
  0
SCALE
  5
423
102
{ACAD_REACTORS
330
41C
102
}
330
41C
100
AcDbScale
 70
     0
300
1:16
140
1.0
141
16.0
290
     0
1001
ACAD
1000
AcRTDxfName
1000
SCALE
  0
SCALE
  5
424
102
{ACAD_REACTORS
330
41C
102
}
330
41C
100
AcDbScale
 70
     0
300
1:20
140
1.0
141
20.0
290
     0
1001
ACAD
1000
AcRTDxfName
1000
SCALE
  0
SCALE
  5
425
102
{ACAD_REACTORS
330
41C
102
}
330
41C
100
AcDbScale
 70
     0
300
1:30
140
1.0
141
30.0
290
     0
1001
ACAD
1000
AcRTDxfName
1000
SCALE
  0
SCALE
  5
426
102
{ACAD_REACTORS
330
41C
102
}
330
41C
100
AcDbScale
 70
     0
300
1:40
140
1.0
141
40.0
290
     0
1001
ACAD
1000
AcRTDxfName
1000
SCALE
  0
SCALE
  5
427
102
{ACAD_REACTORS
330
41C
102
}
330
41C
100
AcDbScale
 70
     0
300
1:50
140
1.0
141
50.0
290
     0
1001
ACAD
1000
AcRTDxfName
1000
SCALE
  0
SCALE
  5
428
102
{ACAD_REACTORS
330
41C
102
}
330
41C
100
AcDbScale
 70
     0
300
1:100
140
1.0
141
100.0
290
     0
1001
ACAD
1000
AcRTDxfName
1000
SCALE
  0
SCALE
  5
429
102
{ACAD_REACTORS
330
41C
102
}
330
41C
100
AcDbScale
 70
     0
300
2:1
140
2.0
141
1.0
290
     0
1001
ACAD
1000
AcRTDxfName
1000
SCALE
  0
SCALE
  5
42A
102
{ACAD_REACTORS
330
41C
102
}
330
41C
100
AcDbScale
 70
     0
300
4:1
140
4.0
141
1.0
290
     0
1001
ACAD
1000
AcRTDxfName
1000
SCALE
  0
SCALE
  5
42B
102
{ACAD_REACTORS
330
41C
102
}
330
41C
100
AcDbScale
 70
     0
300
8:1
140
8.0
141
1.0
290
     0
1001
ACAD
1000
AcRTDxfName
1000
SCALE
  0
SCALE
  5
42C
102
{ACAD_REACTORS
330
41C
102
}
330
41C
100
AcDbScale
 70
     0
300
10:1
140
10.0
141
1.0
290
     0
1001
ACAD
1000
AcRTDxfName
1000
SCALE
  0
SCALE
  5
42D
102
{ACAD_REACTORS
330
41C
102
}
330
41C
100
AcDbScale
 70
     0
300
100:1
140
100.0
141
1.0
290
     0
1001
ACAD
1000
AcRTDxfName
1000
SCALE
  0
SCALE
  5
42E
102
{ACAD_REACTORS
330
41C
102
}
330
41C
100
AcDbScale
 70
     0
300
1/128" = 1'-0"
140
0.0078125
141
12.0
290
     0
1001
ACAD
1000
AcRTDxfName
1000
SCALE
  0
SCALE
  5
42F
102
{ACAD_REACTORS
330
41C
102
}
330
41C
100
AcDbScale
 70
     0
300
1/64" = 1'-0"
140
0.015625
141
12.0
290
     0
1001
ACAD
1000
AcRTDxfName
1000
SCALE
  0
SCALE
  5
430
102
{ACAD_REACTORS
330
41C
102
}
330
41C
100
AcDbScale
 70
     0
300
1/32" = 1'-0"
140
0.03125
141
12.0
290
     0
1001
ACAD
1000
AcRTDxfName
1000
SCALE
  0
SCALE
  5
431
102
{ACAD_REACTORS
330
41C
102
}
330
41C
100
AcDbScale
 70
     0
300
1/16" = 1'-0"
140
0.0625
141
12.0
290
     0
1001
ACAD
1000
AcRTDxfName
1000
SCALE
  0
SCALE
  5
432
102
{ACAD_REACTORS
330
41C
102
}
330
41C
100
AcDbScale
 70
     0
300
3/32" = 1'-0"
140
0.09375
141
12.0
290
     0
1001
ACAD
1000
AcRTDxfName
1000
SCALE
  0
SCALE
  5
433
102
{ACAD_REACTORS
330
41C
102
}
330
41C
100
AcDbScale
 70
     0
300
1/8" = 1'-0"
140
0.125
141
12.0
290
     0
1001
ACAD
1000
AcRTDxfName
1000
SCALE
  0
SCALE
  5
434
102
{ACAD_REACTORS
330
41C
102
}
330
41C
100
AcDbScale
 70
     0
300
3/16" = 1'-0"
140
0.1875
141
12.0
290
     0
1001
ACAD
1000
AcRTDxfName
1000
SCALE
  0
SCALE
  5
435
102
{ACAD_REACTORS
330
41C
102
}
330
41C
100
AcDbScale
 70
     0
300
1/4" = 1'-0"
140
0.25
141
12.0
290
     0
1001
ACAD
1000
AcRTDxfName
1000
SCALE
  0
SCALE
  5
436
102
{ACAD_REACTORS
330
41C
102
}
330
41C
100
AcDbScale
 70
     0
300
3/8" = 1'-0"
140
0.375
141
12.0
290
     0
1001
ACAD
1000
AcRTDxfName
1000
SCALE
  0
SCALE
  5
437
102
{ACAD_REACTORS
330
41C
102
}
330
41C
100
AcDbScale
 70
     0
300
1/2" = 1'-0"
140
0.5
141
12.0
290
     0
1001
ACAD
1000
AcRTDxfName
1000
SCALE
  0
SCALE
  5
438
102
{ACAD_REACTORS
330
41C
102
}
330
41C
100
AcDbScale
 70
     0
300
3/4" = 1'-0"
140
0.75
141
12.0
290
     0
1001
ACAD
1000
AcRTDxfName
1000
SCALE
  0
SCALE
  5
439
102
{ACAD_REACTORS
330
41C
102
}
330
41C
100
AcDbScale
 70
     0
300
1" = 1'-0"
140
1.0
141
12.0
290
     0
1001
ACAD
1000
AcRTDxfName
1000
SCALE
  0
SCALE
  5
43A
102
{ACAD_REACTORS
330
41C
102
}
330
41C
100
AcDbScale
 70
     0
300
1-1/2" = 1'-0"
140
1.5
141
12.0
290
     0
1001
ACAD
1000
AcRTDxfName
1000
SCALE
  0
SCALE
  5
43B
102
{ACAD_REACTORS
330
41C
102
}
330
41C
100
AcDbScale
 70
     0
300
3" = 1'-0"
140
3.0
141
12.0
290
     0
1001
ACAD
1000
AcRTDxfName
1000
SCALE
  0
SCALE
  5
43C
102
{ACAD_REACTORS
330
41C
102
}
330
41C
100
AcDbScale
 70
     0
300
6" = 1'-0"
140
6.0
141
12.0
290
     0
1001
ACAD
1000
AcRTDxfName
1000
SCALE
  0
SCALE
  5
43D
102
{ACAD_REACTORS
330
41C
102
}
330
41C
100
AcDbScale
 70
     0
300
1'-0" = 1'-0"
140
12.0
141
12.0
290
     0
1001
ACAD
1000
AcRTDxfName
1000
SCALE
  0
TABLESTYLE
  5
4F2
102
{ACAD_XDICTIONARY
360
7CA
102
}
102
{ACAD_REACTORS
330
4F1
102
}
330
4F1
100
AcDbTableStyle
  3
Standard
 70
     0
 71
     0
 40
1.5
 41
1.5
280
     0
281
     0
  7
STANDARD
140
4.5
170
     2
 62
     0
 63
     7
283
     0
274
    -2
284
     1
 64
     0
275
    -2
285
     1
 65
     0
276
    -2
286
     1
 66
     0
277
    -2
287
     1
 67
     0
278
    -2
288
     1
 68
     0
279
    -2
289
     1
 69
     0
  7
STANDARD
140
6.0
170
     5
 62
     0
 63
     7
283
     0
274
    -2
284
     1
 64
     0
275
    -2
285
     1
 65
     0
276
    -2
286
     1
 66
     0
277
    -2
287
     1
 67
     0
278
    -2
288
     1
 68
     0
279
    -2
289
     1
 69
     0
  7
STANDARD
140
4.5
170
     5
 62
     0
 63
     7
283
     0
274
    -2
284
     1
 64
     0
275
    -2
285
     1
 65
     0
276
    -2
286
     1
 66
     0
277
    -2
287
     1
 67
     0
278
    -2
288
     1
 68
     0
279
    -2
289
     1
 69
     0
  0
VISUALSTYLE
  5
4E5
102
{ACAD_REACTORS
330
4DF
102
}
330
4DF
100
AcDbVisualStyle
  2
2dWireframe
 70
     4
 71
     0
 72
     2
 73
     0
 90
        0
 40
-0.6
 41
-30.0
 62
     5
 63
     7
 74
     1
 91
        4
 64
     7
 65
   257
 75
     1
175
     1
 42
1.0
 92
        0
 66
   257
 43
1.0
 76
     1
 77
     6
 78
     2
 67
     7
 79
     5
170
     0
171
     0
290
     0
174
     0
 93
        1
 44
0.0
173
     0
291
     0
 45
0.0
1001
ACAD
1000
AcDbSavedByObjectVersion
1070
     0
  0
VISUALSTYLE
  5
4E7
102
{ACAD_REACTORS
330
4DF
102
}
330
4DF
100
AcDbVisualStyle
  2
3D Hidden
 70
     6
 71
     1
 72
     2
 73
     2
 90
        0
 40
-0.6
 41
-30.0
 62
     5
 63
     7
 74
     2
 91
        2
 64
     7
 65
   257
 75
     2
175
     1
 42
40.0
 92
        0
 66
   257
 43
1.0
 76
     1
 77
     6
 78
     2
 67
     7
 79
     3
170
     0
171
     0
290
     0
174
     0
 93
        1
 44
0.0
173
     0
291
     0
 45
0.0
1001
ACAD
1000
AcDbSavedByObjectVersion
1070
     0
  0
VISUALSTYLE
  5
4E6
102
{ACAD_REACTORS
330
4DF
102
}
330
4DF
100
AcDbVisualStyle
  2
3dWireframe
 70
     5
 71
     0
 72
     2
 73
     0
 90
        0
 40
-0.6
 41
-30.0
 62
     5
 63
     7
 74
     1
 91
        4
 64
     7
 65
   257
 75
     1
175
     1
 42
1.0
 92
        0
 66
   257
 43
1.0
 76
     1
 77
     6
 78
     2
 67
     7
 79
     5
170
     0
171
     0
290
     0
174
     0
 93
        1
 44
0.0
173
     0
291
     0
 45
0.0
1001
ACAD
1000
AcDbSavedByObjectVersion
1070
     0
  0
VISUALSTYLE
  5
4E4
102
{ACAD_REACTORS
330
4DF
102
}
330
4DF
100
AcDbVisualStyle
  2
Basic
 70
     7
 71
     1
 72
     0
 73
     1
 90
        0
 40
-0.6
 41
-30.0
 62
     5
 63
     7
 74
     0
 91
        4
 64
     7
 65
   257
 75
     1
175
     1
 42
1.0
 92
        8
 66
     7
 43
1.0
 76
     1
 77
     6
 78
     2
 67
     7
 79
     5
170
     0
171
     0
290
     0
174
     0
 93
        1
 44
0.0
173
     0
291
     1
 45
0.0
1001
ACAD
1000
AcDbSavedByObjectVersion
1070
     0
  0
VISUALSTYLE
  5
4EB
102
{ACAD_REACTORS
330
4DF
102
}
330
4DF
100
AcDbVisualStyle
  2
Brighten
 70
    12
 71
     2
 72
     2
 73
     0
 90
        0
 40
-0.6
 41
-30.0
 62
     5
 63
     7
 74
     1
 91
        4
 64
     7
 65
   257
 75
     1
175
     1
 42
1.0
 92
        8
 66
     7
 43
1.0
 76
     1
 77
     6
 78
     2
 67
     7
 79
     5
170
     0
171
     0
290
     0
174
     0
 93
        1
 44
50.0
173
     0
291
     1
 45
0.0
1001
ACAD
1000
AcDbSavedByObjectVersion
1070
     0
  0
VISUALSTYLE
  5
4EF
102
{ACAD_REACTORS
330
4DF
102
}
330
4DF
100
AcDbVisualStyle
  2
ColorChange
 70
    16
 71
     2
 72
     2
 73
     3
 90
        0
 40
-0.6
 41
-30.0
 62
     5
 63
     8
 74
     1
 91
        4
 64
     7
 65
   257
 75
     1
175
     1
 42
1.0
 92
        8
 66
     8
 43
1.0
 76
     1
 77
     6
 78
     2
 67
     7
 79
     5
170
     0
171
     0
290
     0
174
     0
 93
        1
 44
0.0
173
     0
291
     1
 45
0.0
1001
ACAD
1000
AcDbSavedByObjectVersion
1070
     0
  0
VISUALSTYLE
  5
4E8
102
{ACAD_REACTORS
330
4DF
102
}
330
4DF
100
AcDbVisualStyle
  2
Conceptual
 70
     9
 71
     3
 72
     2
 73
     0
 90
        0
 40
-0.6
 41
-30.0
 62
     5
 63
     7
 74
     2
 91
        2
 64
     7
 65
   257
 75
     1
175
     1
 42
40.0
 92
        8
 66
     7
 43
1.0
 76
     1
 77
     6
 78
     2
 67
     7
 79
     3
170
     0
171
     0
290
     0
174
     0
 93
        1
 44
0.0
173
     0
291
     0
 45
0.0
1001
ACAD
1000
AcDbSavedByObjectVersion
1070
     0
  0
VISUALSTYLE
  5
4EA
102
{ACAD_REACTORS
330
4DF
102
}
330
4DF
100
AcDbVisualStyle
  2
Dim
 70
    11
 71
     2
 72
     2
 73
     0
 90
        0
 40
-0.6
 41
-30.0
 62
     5
 63
     7
 74
     1
 91
        4
 64
     7
 65
   257
 75
     1
175
     1
 42
1.0
 92
        8
 66
     7
 43
1.0
 76
     1
 77
     6
 78
     2
 67
     7
 79
     5
170
     0
171
     0
290
     0
174
     0
 93
        1
 44
-50.0
173
     0
291
     1
 45
0.0
1001
ACAD
1000
AcDbSavedByObjectVersion
1070
     0
  0
VISUALSTYLE
  5
4EE
102
{ACAD_REACTORS
330
4DF
102
}
330
4DF
100
AcDbVisualStyle
  2
Facepattern
 70
    15
 71
     2
 72
     2
 73
     0
 90
        0
 40
-0.6
 41
-30.0
 62
     5
 63
     7
 74
     1
 91
        4
 64
     7
 65
   257
 75
     1
175
     1
 42
1.0
 92
        8
 66
     7
 43
1.0
 76
     1
 77
     6
 78
     2
 67
     7
 79
     5
170
     0
171
     0
290
     0
174
     0
 93
        1
 44
0.0
173
     0
291
     1
 45
0.0
1001
ACAD
1000
AcDbSavedByObjectVersion
1070
     0
  0
VISUALSTYLE
  5
4E0
102
{ACAD_REACTORS
330
4DF
102
}
330
4DF
100
AcDbVisualStyle
  2
Flat
 70
     0
 71
     2
 72
     1
 73
     1
 90
        2
 40
-0.6
 41
30.0
 62
     5
 63
     7
 74
     0
 91
        4
 64
     7
 65
   257
 75
     1
175
     1
 42
1.0
 92
        8
 66
     7
 43
1.0
 76
     1
 77
     6
 78
     2
 67
     7
 79
     5
170
     0
171
     0
290
     0
174
     0
 93
       13
 44
0.0
173
     0
291
     1
 45
0.0
1001
ACAD
1000
AcDbSavedByObjectVersion
1070
     0
  0
VISUALSTYLE
  5
4E1
102
{ACAD_REACTORS
330
4DF
102
}
330
4DF
100
AcDbVisualStyle
  2
FlatWithEdges
 70
     1
 71
     2
 72
     1
 73
     1
 90
        2
 40
-0.6
 41
30.0
 62
     5
 63
     7
 74
     1
 91
        4
 64
     7
 65
   257
 75
     1
175
     1
 42
1.0
 92
        0
 66
   257
 43
1.0
 76
     1
 77
     6
 78
     2
 67
     7
 79
     5
170
     0
171
     0
290
     0
174
     0
 93
       13
 44
0.0
173
     0
291
     1
 45
0.0
1001
ACAD
1000
AcDbSavedByObjectVersion
1070
     0
  0
VISUALSTYLE
  5
4E2
102
{ACAD_REACTORS
330
4DF
102
}
330
4DF
100
AcDbVisualStyle
  2
Gouraud
 70
     2
 71
     2
 72
     2
 73
     1
 90
        2
 40
-0.6
 41
30.0
 62
     5
 63
     7
 74
     0
 91
        4
 64
     7
 65
   257
 75
     1
175
     1
 42
1.0
 92
        0
 66
     7
 43
1.0
 76
     1
 77
     6
 78
     2
 67
     7
 79
     5
170
     0
171
     0
290
     0
174
     0
 93
       13
 44
0.0
173
     0
291
     1
 45
0.0
1001
ACAD
1000
AcDbSavedByObjectVersion
1070
     0
  0
VISUALSTYLE
  5
4E3
102
{ACAD_REACTORS
330
4DF
102
}
330
4DF
100
AcDbVisualStyle
  2
GouraudWithEdges
 70
     3
 71
     2
 72
     2
 73
     1
 90
        2
 40
-0.6
 41
30.0
 62
     5
 63
     7
 74
     1
 91
        4
 64
     7
 65
   257
 75
     1
175
     1
 42
1.0
 92
        0
 66
   257
 43
1.0
 76
     1
 77
     6
 78
     2
 67
     7
 79
     5
170
     0
171
     0
290
     0
174
     0
 93
       13
 44
0.0
173
     0
291
     1
 45
0.0
1001
ACAD
1000
AcDbSavedByObjectVersion
1070
     0
  0
VISUALSTYLE
  5
4ED
102
{ACAD_REACTORS
330
4DF
102
}
330
4DF
100
AcDbVisualStyle
  2
Linepattern
 70
    14
 71
     2
 72
     2
 73
     0
 90
        0
 40
-0.6
 41
-30.0
 62
     5
 63
     7
 74
     1
 91
        4
 64
     7
 65
   257
 75
     7
175
     7
 42
1.0
 92
        8
 66
     7
 43
1.0
 76
     1
 77
     6
 78
     2
 67
     7
 79
     5
170
     0
171
     0
290
     0
174
     0
 93
        1
 44
0.0
173
     0
291
     1
 45
0.0
1001
ACAD
1000
AcDbSavedByObjectVersion
1070
     0
  0
VISUALSTYLE
  5
4E9
102
{ACAD_REACTORS
330
4DF
102
}
330
4DF
100
AcDbVisualStyle
  2
Realistic
 70
     8
 71
     2
 72
     2
 73
     0
 90
        0
 40
-0.6
 41
-30.0
 62
     5
 63
     7
 74
     1
 91
        0
 64
     7
 65
   257
 75
     1
175
     1
 42
1.0
 92
        8
 66
     8
 43
1.0
 76
     1
 77
     6
 78
     2
 67
     7
 79
     5
170
     0
171
     0
290
     0
174
     0
 93
       13
 44
0.0
173
     0
291
     0
 45
0.0
1001
ACAD
1000
AcDbSavedByObjectVersion
1070
     0
  0
VISUALSTYLE
  5
4EC
102
{ACAD_REACTORS
330
4DF
102
}
330
4DF
100
AcDbVisualStyle
  2
Thicken
 70
    13
 71
     2
 72
     2
 73
     0
 90
        0
 40
-0.6
 41
-30.0
 62
     5
 63
     7
 74
     1
 91
        4
 64
     7
 65
   257
 75
     1
175
     1
 42
1.0
 92
       12
 66
     7
 43
1.0
 76
     1
 77
     6
 78
     2
 67
     7
 79
     5
170
     0
171
     0
290
     0
174
     0
 93
        1
 44
0.0
173
     0
291
     1
 45
0.0
1001
ACAD
1000
AcDbSavedByObjectVersion
1070
     0
  0
DICTIONARYVAR
  5
4D3
102
{ACAD_REACTORS
330
4D0
102
}
330
4D0
100
DictionaryVariables
280
     0
  1
1:1
  0
DICTIONARYVAR
  5
66C
102
{ACAD_REACTORS
330
4D0
102
}
330
4D0
100
DictionaryVariables
280
     0
  1
STANDARD
  0
DICTIONARYVAR
  5
66F
102
{ACAD_REACTORS
330
4D0
102
}
330
4D0
100
DictionaryVariables
280
     0
  1
1
  0
DICTIONARYVAR
  5
66E
102
{ACAD_REACTORS
330
4D0
102
}
330
4D0
100
DictionaryVariables
280
     0
  1
0
  0
DICTIONARYVAR
  5
66D
102
{ACAD_REACTORS
330
4D0
102
}
330
4D0
100
DictionaryVariables
280
     0
  1
127
  0
DICTIONARY
  5
7C2
330
41B
100
AcDbDictionary
280
     1
281
     1
  3
ACAD_XREC_ROUNDTRIP
360
7C3
  0
DICTIONARY
  5
7C0
330
41A
100
AcDbDictionary
280
     1
281
     1
  3
ACAD_XREC_ROUNDTRIP
360
7C1
  0
DICTIONARY
  5
7C6
330
4DD
100
AcDbDictionary
280
     1
281
     1
  3
ACAD_XREC_ROUNDTRIP
360
7C7
  0
DICTIONARY
  5
7C4
330
4DC
100
AcDbDictionary
280
     1
281
     1
  3
ACAD_XREC_ROUNDTRIP
360
7C5
  0
DICTIONARY
  5
7C8
330
4DE
100
AcDbDictionary
280
     1
281
     1
  3
ACAD_XREC_ROUNDTRIP
360
7C9
  0
DICTIONARY
  5
7CA
330
4F2
100
AcDbDictionary
280
     1
281
     1
  3
ACAD_XREC_ROUNDTRIP
360
7CB
  0
XRECORD
  5
7C3
102
{ACAD_REACTORS
330
7C2
102
}
330
7C2
100
AcDbXrecord
280
     1
102
SHADEPLOT
 70
     0
102
SHADEPLOTRESLEVEL
 70
     2
102
SHADEPLOTCUSTOMDPI
 70
   300
  0
XRECORD
  5
7C1
102
{ACAD_REACTORS
330
7C0
102
}
330
7C0
100
AcDbXrecord
280
     1
102
SHADEPLOT
 70
     0
102
SHADEPLOTRESLEVEL
 70
     2
102
SHADEPLOTCUSTOMDPI
 70
   300
  0
XRECORD
  5
7C7
102
{ACAD_REACTORS
330
7C6
102
}
330
7C6
100
AcDbXrecord
280
     1
102
MATERIAL
148
0.0
149
0.0
149
0.0
 93
        0
 94
       63
282
     0
 72
     1
 77
     1
171
     1
175
     1
179
     1
273
     0
  0
XRECORD
  5
7C5
102
{ACAD_REACTORS
330
7C4
102
}
330
7C4
100
AcDbXrecord
280
     1
102
MATERIAL
148
0.0
149
0.0
149
0.0
 93
        0
 94
       63
282
     0
 72
     1
 77
     1
171
     1
175
     1
179
     1
273
     0
  0
XRECORD
  5
7C9
102
{ACAD_REACTORS
330
7C8
102
}
330
7C8
100
AcDbXrecord
280
     1
102
MATERIAL
148
0.0
149
0.0
149
0.0
 93
        0
 94
       63
282
     0
 72
     1
 77
     1
171
     1
175
     1
179
     1
273
     0
  0
XRECORD
  5
7CB
102
{ACAD_REACTORS
330
7CA
102
}
330
7CA
100
AcDbXrecord
280
     1
102
ACAD_ROUNDTRIP_PRE2007_TABLESTYLE
 90
      512
 91
        0
  1

 92
      512
 93
        0
  2

 94
      512
 95
        0
  3

  0
ENDSEC
  0
EOF
