  0
SECTION
  2
HEADER
  9
$ACADVER
  1
AC1015
  9
$ACADMAINTVER
 70
    20
  9
$DWGCODEPAGE
  3
ANSI_1252
  9
$INSBASE
 10
0.0
 20
0.0
 30
0.0
  9
$EXTMIN
 10
-235.1402147133062
 20
-942.012992275886
 30
-0.0015258207003583
  9
$EXTMAX
 10
667.2774639159006
 20
1123.85245065809
 30
0.0000000349246037
  9
$LIMMIN
 10
0.0
 20
0.0
  9
$LIMMAX
 10
420.0
 20
297.0
  9
$ORTHOMODE
 70
     0
  9
$REGENMODE
 70
     1
  9
$FILLMODE
 70
     1
  9
$QTEXTMODE
 70
     0
  9
$MIRRTEXT
 70
     1
  9
$LTSCALE
 40
1.0
  9
$ATTMODE
 70
     1
  9
$TEXTSIZE
 40
2.5
  9
$TRACEWID
 40
1.0
  9
$TEXTSTYLE
  7
STANDARD
  9
$CLAYER
  8
0
  9
$CELTYPE
  6
BYLAYER
  9
$CECOLOR
 62
   256
  9
$CELTSCALE
 40
1.0
  9
$DISPSILH
 70
     0
  9
$DIMSCALE
 40
1.0
  9
$DIMASZ
 40
2.0
  9
$DIMEXO
 40
2.0
  9
$DIMDLI
 40
0.0
  9
$DIMRND
 40
0.0
  9
$DIMDLE
 40
1.0
  9
$DIMEXE
 40
1.0
  9
$DIMTP
 40
0.0
  9
$DIMTM
 40
0.0
  9
$DIMTXT
 40
3.5
  9
$DIMCEN
 40
0.0
  9
$DIMTSZ
 40
0.0
  9
$DIMTOL
 70
     0
  9
$DIMLIM
 70
     0
  9
$DIMTIH
 70
     0
  9
$DIMTOH
 70
     0
  9
$DIMSE1
 70
     0
  9
$DIMSE2
 70
     0
  9
$DIMTAD
 70
     1
  9
$DIMZIN
 70
     8
  9
$DIMBLK
  1

  9
$DIMASO
 70
     1
  9
$DIMSHO
 70
     1
  9
$DIMPOST
  1

  9
$DIMAPOST
  1

  9
$DIMALT
 70
     1
  9
$DIMALTD
 70
     5
  9
$DIMALTF
 40
0.039370078740157
  9
$DIMLFAC
 40
1.0
  9
$DIMTOFL
 70
     1
  9
$DIMTVP
 40
0.0
  9
$DIMTIX
 70
     0
  9
$DIMSOXD
 70
     0
  9
$DIMSAH
 70
     1
  9
$DIMBLK1
  1
Oblique
  9
$DIMBLK2
  1
Oblique
  9
$DIMSTYLE
  2
HAWA-Strich
  9
$DIMCLRD
 70
   256
  9
$DIMCLRE
 70
   256
  9
$DIMCLRT
 70
   256
  9
$DIMTFAC
 40
0.7114285714285719
  9
$DIMGAP
 40
1.0
  9
$DIMJUST
 70
     0
  9
$DIMSD1
 70
     0
  9
$DIMSD2
 70
     0
  9
$DIMTOLJ
 70
     1
  9
$DIMTZIN
 70
     8
  9
$DIMALTZ
 70
     8
  9
$DIMALTTZ
 70
     8
  9
$DIMUPT
 70
     0
  9
$DIMDEC
 70
     1
  9
$DIMTDEC
 70
     1
  9
$DIMALTU
 70
     4
  9
$DIMALTTD
 70
     5
  9
$DIMTXSTY
  7
Beschlag
  9
$DIMAUNIT
 70
     0
  9
$DIMADEC
 70
     1
  9
$DIMALTRND
 40
0.0
  9
$DIMAZIN
 70
     2
  9
$DIMDSEP
 70
    46
  9
$DIMATFIT
 70
     3
  9
$DIMFRAC
 70
     0
  9
$DIMLDRBLK
  1
Oblique
  9
$DIMLUNIT
 70
     2
  9
$DIMLWD
 70
    -2
  9
$DIMLWE
 70
    -2
  9
$DIMTMOVE
 70
     0
  9
$LUNITS
 70
     2
  9
$LUPREC
 70
     4
  9
$SKETCHINC
 40
1.0
  9
$FILLETRAD
 40
2.5
  9
$AUNITS
 70
     0
  9
$AUPREC
 70
     0
  9
$MENU
  1
.
  9
$ELEVATION
 40
0.0
  9
$PELEVATION
 40
0.0
  9
$THICKNESS
 40
0.0
  9
$LIMCHECK
 70
     0
  9
$CHAMFERA
 40
2.5
  9
$CHAMFERB
 40
2.5
  9
$CHAMFERC
 40
0.0
  9
$CHAMFERD
 40
0.0
  9
$SKPOLY
 70
     0
  9
$TDCREATE
 40
2447893.000000000
  9
$TDUCREATE
 40
2447892.958333333
  9
$TDUPDATE
 40
2456721.406804329
  9
$TDUUPDATE
 40
2456721.365137662
  9
$TDINDWG
 40
0.0170440741
  9
$TDUSRTIMER
 40
0.0170439005
  9
$USRTIMER
 70
     1
  9
$ANGBASE
 50
0.0
  9
$ANGDIR
 70
     0
  9
$PDMODE
 70
     0
  9
$PDSIZE
 40
0.0
  9
$PLINEWID
 40
0.0
  9
$SPLFRAME
 70
     0
  9
$SPLINETYPE
 70
     6
  9
$SPLINESEGS
 70
     8
  9
$HANDSEED
  5
3AB
  9
$SURFTAB1
 70
     6
  9
$SURFTAB2
 70
     6
  9
$SURFTYPE
 70
     6
  9
$SURFU
 70
     6
  9
$SURFV
 70
     6
  9
$UCSBASE
  2

  9
$UCSNAME
  2

  9
$UCSORG
 10
0.0
 20
0.0
 30
0.0
  9
$UCSXDIR
 10
1.0
 20
0.0
 30
0.0
  9
$UCSYDIR
 10
0.0
 20
1.0
 30
0.0
  9
$UCSORTHOREF
  2

  9
$UCSORTHOVIEW
 70
     0
  9
$UCSORGTOP
 10
0.0
 20
0.0
 30
0.0
  9
$UCSORGBOTTOM
 10
0.0
 20
0.0
 30
0.0
  9
$UCSORGLEFT
 10
0.0
 20
0.0
 30
0.0
  9
$UCSORGRIGHT
 10
0.0
 20
0.0
 30
0.0
  9
$UCSORGFRONT
 10
0.0
 20
0.0
 30
0.0
  9
$UCSORGBACK
 10
0.0
 20
0.0
 30
0.0
  9
$PUCSBASE
  2

  9
$PUCSNAME
  2

  9
$PUCSORG
 10
0.0
 20
0.0
 30
0.0
  9
$PUCSXDIR
 10
1.0
 20
0.0
 30
0.0
  9
$PUCSYDIR
 10
0.0
 20
1.0
 30
0.0
  9
$PUCSORTHOREF
  2

  9
$PUCSORTHOVIEW
 70
     0
  9
$PUCSORGTOP
 10
0.0
 20
0.0
 30
0.0
  9
$PUCSORGBOTTOM
 10
0.0
 20
0.0
 30
0.0
  9
$PUCSORGLEFT
 10
0.0
 20
0.0
 30
0.0
  9
$PUCSORGRIGHT
 10
0.0
 20
0.0
 30
0.0
  9
$PUCSORGFRONT
 10
0.0
 20
0.0
 30
0.0
  9
$PUCSORGBACK
 10
0.0
 20
0.0
 30
0.0
  9
$USERI1
 70
     0
  9
$USERI2
 70
     0
  9
$USERI3
 70
     0
  9
$USERI4
 70
     0
  9
$USERI5
 70
     0
  9
$USERR1
 40
0.0
  9
$USERR2
 40
0.0
  9
$USERR3
 40
0.0
  9
$USERR4
 40
0.0
  9
$USERR5
 40
0.0
  9
$WORLDVIEW
 70
     1
  9
$SHADEDGE
 70
     3
  9
$SHADEDIF
 70
    70
  9
$TILEMODE
 70
     1
  9
$MAXACTVP
 70
    48
  9
$PINSBASE
 10
0.0
 20
0.0
 30
0.0
  9
$PLIMCHECK
 70
     0
  9
$PEXTMIN
 10
0.0
 20
0.0
 30
0.0
  9
$PEXTMAX
 10
205.054657
 20
283.060669
 30
2.0
  9
$PLIMMIN
 10
0.0
 20
0.0
  9
$PLIMMAX
 10
420.0
 20
297.0
  9
$UNITMODE
 70
     0
  9
$VISRETAIN
 70
     0
  9
$PLINEGEN
 70
     0
  9
$PSLTSCALE
 70
     1
  9
$TREEDEPTH
 70
  3020
  9
$CMLSTYLE
  2
STANDARD
  9
$CMLJUST
 70
     0
  9
$CMLSCALE
 40
20.0
  9
$PROXYGRAPHICS
 70
     1
  9
$MEASUREMENT
 70
     1
  9
$CELWEIGHT
370
    -1
  9
$ENDCAPS
280
     0
  9
$JOINSTYLE
280
     0
  9
$LWDISPLAY
290
     0
  9
$INSUNITS
 70
     0
  9
$HYPERLINKBASE
  1

  9
$STYLESHEET
  1

  9
$XEDIT
290
     1
  9
$CEPSNTYPE
380
     0
  9
$PSTYLEMODE
290
     1
  9
$FINGERPRINTGUID
  2
{27DE8909-0FE5-4398-92CE-BA9521044828}
  9
$VERSIONGUID
  2
{4F44AD01-627D-495B-8D77-2AF358FDCA1F}
  9
$EXTNAMES
290
     1
  9
$PSVPSCALE
 40
0.0
  9
$OLESTARTUP
290
     0
  0
ENDSEC
  0
SECTION
  2
CLASSES
  0
CLASS
  1
LWPOLYLINE
  2
AcDbPolyline
  3
ObjectDBX Classes
 90
        0
280
     0
281
     1
  0
CLASS
  1
IMAGE
  2
AcDbRasterImage
  3
ISM
 90
    34943
280
     0
281
     1
  0
CLASS
  1
OLE2FRAME
  2
AcDbOle2Frame
  3
ObjectDBX Classes
 90
    32768
280
     0
281
     1
  0
CLASS
  1
HATCH
  2
AcDbHatch
  3
ObjectDBX Classes
 90
    32768
280
     0
281
     1
  0
CLASS
  1
DICTIONARYVAR
  2
AcDbDictionaryVar
  3
ObjectDBX Classes
 90
        0
280
     0
281
     0
  0
CLASS
  1
RASTERVARIABLES
  2
AcDbRasterVariables
  3
ISM
 90
    32768
280
     0
281
     0
  0
CLASS
  1
IMAGEDEF
  2
AcDbRasterImageDef
  3
ISM
 90
    32768
280
     0
281
     0
  0
CLASS
  1
IMAGEDEF_REACTOR
  2
AcDbRasterImageDefReactor
  3
ISM
 90
    32769
280
     0
281
     0
  0
CLASS
  1
IDBUFFER
  2
AcDbIdBuffer
  3
ObjectDBX Classes
 90
    32768
280
     0
281
     0
  0
CLASS
  1
SPATIAL_FILTER
  2
AcDbSpatialFilter
  3
ObjectDBX Classes
 90
    32768
280
     0
281
     0
  0
CLASS
  1
XRECORD
  2
AcDbXrecord
  3
ObjectDBX Classes
 90
        0
280
     0
281
     0
  0
CLASS
  1
SORTENTSTABLE
  2
AcDbSortentsTable
  3
ObjectDBX Classes
 90
    32768
280
     0
281
     0
  0
CLASS
  1
LAYER_INDEX
  2
AcDbLayerIndex
  3
ObjectDBX Classes
 90
    32768
280
     0
281
     0
  0
CLASS
  1
SPATIAL_INDEX
  2
AcDbSpatialIndex
  3
ObjectDBX Classes
 90
    32768
280
     0
281
     0
  0
CLASS
  1
OBJECT_PTR
  2
CAseDLPNTableRecord
  3
ASE-LPNTableRecord
 90
    32769
280
     0
281
     0
  0
CLASS
  1
LAYOUT
  2
AcDbLayout
  3
ObjectDBX Classes
 90
        0
280
     0
281
     0
  0
CLASS
  1
PLOTSETTINGS
  2
AcDbPlotSettings
  3
ObjectDBX Classes
 90
    32768
280
     0
281
     0
  0
CLASS
  1
ACDBDICTIONARYWDFLT
  2
AcDbDictionaryWithDefault
  3
ObjectDBX Classes
 90
        0
280
     0
281
     0
  0
CLASS
  1
ACDBPLACEHOLDER
  2
AcDbPlaceHolder
  3
ObjectDBX Classes
 90
        0
280
     0
281
     0
  0
CLASS
  1
VBA_PROJECT
  2
AcDbVbaProject
  3
acad
 90
    32768
280
     0
281
     0
  0
CLASS
  1
WIPEOUT
  2
AcDbWipeout
  3
"WipeOut|Product Desc: Object Enabler for WipeOut entity                        |Company: Autodesk, Inc.                        |WEB Address: www.autodesk.com"
 90
    34943
280
     0
281
     1
  0
CLASS
  1
WIPEOUTVARIABLES
  2
AcDbWipeoutVariables
  3
"WipeOut|Product Desc:     WipeOut Dbx Application|Company:          Autodesk, Inc.|WEB Address:      www.autodesk.com"
 90
    32768
280
     0
281
     0
  0
CLASS
  1
RTEXT
  2
RText
  3
RText|AutoCAD Express Tool|expresstools@autodesk.com
 90
    32768
280
     0
281
     1
  0
CLASS
  1
ARCALIGNEDTEXT
  2
AcDbArcAlignedText
  3
ATEXT|AutoCAD Express Tool|expresstools@autodesk.com
 90
    32768
280
     0
281
     1
  0
CLASS
  1
SCALE
  2
AcDbScale
  3
ObjectDBX Classes
 90
     1153
280
     0
281
     0
  0
CLASS
  1
MATERIAL
  2
AcDbMaterial
  3
ObjectDBX Classes
 90
     1024
280
     0
281
     0
  0
CLASS
  1
VISUALSTYLE
  2
AcDbVisualStyle
  3
ObjectDBX Classes
 90
     4095
280
     0
281
     0
  0
CLASS
  1
TABLESTYLE
  2
AcDbTableStyle
  3
ObjectDBX Classes
 90
     4095
280
     0
281
     0
  0
ENDSEC
  0
SECTION
  2
TABLES
  0
TABLE
  2
VPORT
  5
7
330
0
100
AcDbSymbolTable
 70
     1
  0
VPORT
  5
15
330
7
100
AcDbSymbolTableRecord
100
AcDbViewportTableRecord
  2
*ACTIVE
 70
     0
 10
0.0
 20
0.0
 11
1.0
 21
1.0
 12
189.8250355309751
 22
-932.4673720607316
 13
0.0
 23
0.0
 14
1.0
 24
1.0
 15
0.0
 25
0.0
 16
0.0
 26
0.0
 36
1.0
 17
0.0
 27
0.0
 37
0.0
 40
49.36095260221373
 41
2.090832632464255
 42
50.0
 43
0.0
 44
0.0
 50
0.0
 51
0.0
 71
     0
 72
   100
 73
     1
 74
     1
 75
     0
 76
     0
 77
     0
 78
     0
281
     0
 65
     1
110
0.0
120
0.0
130
0.0
111
1.0
121
0.0
131
0.0
112
0.0
122
1.0
132
0.0
 79
     0
146
0.0
  0
ENDTAB
  0
TABLE
  2
LTYPE
  5
4
330
0
100
AcDbSymbolTable
 70
     2
  0
LTYPE
  5
11
330
4
100
AcDbSymbolTableRecord
100
AcDbLinetypeTableRecord
  2
BYBLOCK
 70
     0
  3

 72
    65
 73
     0
 40
0.0
  0
LTYPE
  5
12
330
4
100
AcDbSymbolTableRecord
100
AcDbLinetypeTableRecord
  2
BYLAYER
 70
     0
  3

 72
    65
 73
     0
 40
0.0
  0
LTYPE
  5
13
330
4
100
AcDbSymbolTableRecord
100
AcDbLinetypeTableRecord
  2
CONTINUOUS
 70
     0
  3
Solid line
 72
    65
 73
     0
 40
0.0
  0
LTYPE
  5
1D
330
4
100
AcDbSymbolTableRecord
100
AcDbLinetypeTableRecord
  2
DASHDOT
 70
     0
  3
 __ . __ . __ . __ . __ . __ . __ . 
 72
    65
 73
     4
 40
18.5
 49
12.0
 74
     0
 49
-3.0
 74
     0
 49
0.5
 74
     0
 49
-3.0
 74
     0
  0
ENDTAB
  0
TABLE
  2
LAYER
  5
2
330
0
100
AcDbSymbolTable
 70
     4
  0
LAYER
  5
14
330
2
100
AcDbSymbolTableRecord
100
AcDbLayerTableRecord
  2
0
 70
     0
 62
     7
  6
CONTINUOUS
370
    -3
390
14C
  0
LAYER
  5
13D
330
2
100
AcDbSymbolTableRecord
100
AcDbLayerTableRecord
  2
Hawa1
 70
     0
 62
     2
  6
CONTINUOUS
370
     0
390
14C
  0
LAYER
  5
140
330
2
100
AcDbSymbolTableRecord
100
AcDbLayerTableRecord
  2
Hawa5
 70
     0
 62
     1
  6
CONTINUOUS
370
    -3
390
14C
  0
LAYER
  5
168
330
2
100
AcDbSymbolTableRecord
100
AcDbLayerTableRecord
  2
Defpoints
 70
     0
 62
     7
  6
CONTINUOUS
290
     0
370
    -3
390
14C
  0
ENDTAB
  0
TABLE
  2
STYLE
  5
3
330
0
100
AcDbSymbolTable
 70
     3
  0
STYLE
  5
17
330
3
100
AcDbSymbolTableRecord
100
AcDbTextStyleTableRecord
  2
STANDARD
 70
     0
 40
0.0
 41
1.0
 50
0.0
 71
     0
 42
2.5
  3
isocp.shx
  4

  0
STYLE
  5
1E
330
3
100
AcDbSymbolTableRecord
100
AcDbTextStyleTableRecord
  2
GDT
 70
     0
 40
0.0
 41
1.0
 50
0.0
 71
     0
 42
2.5
  3
gdt.shx
  4

  0
STYLE
  5
16A
330
3
100
AcDbSymbolTableRecord
100
AcDbTextStyleTableRecord
  2
Beschlag
 70
     0
 40
0.0
 41
0.9
 50
0.0
 71
     0
 42
3.5
  3
arial.ttf
  4

1001
ACAD
1000
Arial
1071
       34
  0
ENDTAB
  0
TABLE
  2
VIEW
  5
5
330
0
100
AcDbSymbolTable
 70
     0
  0
ENDTAB
  0
TABLE
  2
UCS
  5
6
330
0
100
AcDbSymbolTable
 70
     0
  0
ENDTAB
  0
TABLE
  2
APPID
  5
8
330
0
100
AcDbSymbolTable
 70
     1
  0
APPID
  5
16
330
8
100
AcDbSymbolTableRecord
100
AcDbRegAppTableRecord
  2
ACAD
 70
     0
  0
ENDTAB
  0
TABLE
  2
DIMSTYLE
  5
9
330
0
100
AcDbSymbolTable
 70
     3
100
AcDbDimStyleTable
 71
     2
340
16F
340
169
  0
DIMSTYLE
105
18
330
9
100
AcDbSymbolTableRecord
100
AcDbDimStyleTableRecord
  2
STANDARD
 70
     0
 41
2.5
 42
0.625
 43
3.75
 44
1.25
 73
     0
 74
     0
 77
     1
 78
     8
140
2.5
141
2.5
143
0.03937
147
0.625
171
     3
172
     1
271
     2
272
     2
274
     3
283
     0
284
     8
289
     0
340
17
  0
DIMSTYLE
105
169
102
{ACAD_REACTORS
330
26
330
24
330
22
330
20
102
}
330
9
100
AcDbSymbolTableRecord
100
AcDbDimStyleTableRecord
  2
HAWA-Strich
 70
     0
 41
2.0
 42
2.0
 43
0.0
 44
1.0
 46
1.0
 73
     0
 74
     0
 77
     1
 78
     8
 79
     2
140
3.5
141
0.0
143
0.039370078740157
146
0.7114285714285719
147
1.0
170
     1
171
     5
172
     1
173
     1
176
   256
177
   256
178
   256
179
     1
271
     1
272
     1
273
     4
274
     5
284
     8
285
     8
286
     8
340
16A
341
16B
343
16B
344
16B
  0
DIMSTYLE
105
16F
102
{ACAD_REACTORS
330
2C
330
2E
330
2A
330
28
102
}
330
9
100
AcDbSymbolTableRecord
100
AcDbDimStyleTableRecord
  2
HAWA-Strich ohne Inch
 70
     0
 41
2.0
 42
2.0
 43
0.0
 44
1.0
 46
1.0
 73
     0
 74
     0
 77
     1
 78
     8
 79
     2
140
3.5
141
0.0
143
0.039370078740157
146
0.7114285714285719
147
1.0
171
     5
172
     1
173
     1
176
   256
177
   256
178
   256
179
     1
271
     1
272
     1
273
     4
274
     5
284
     8
285
     8
286
     8
340
16A
341
16B
343
16B
344
16B
  0
ENDTAB
  0
TABLE
  2
BLOCK_RECORD
  5
1
330
0
100
AcDbSymbolTable
 70
    14
  0
BLOCK_RECORD
  5
A
330
1
100
AcDbSymbolTableRecord
100
AcDbBlockTableRecord
  2
*MODEL_SPACE
340
E5
  0
BLOCK_RECORD
  5
B
330
1
100
AcDbSymbolTableRecord
100
AcDbBlockTableRecord
  2
*PAPER_SPACE
340
E6
  0
BLOCK_RECORD
  5
30
330
1
100
AcDbSymbolTableRecord
100
AcDbBlockTableRecord
  2
BLOCK1
340
0
  0
BLOCK_RECORD
  5
1F
330
1
100
AcDbSymbolTableRecord
100
AcDbBlockTableRecord
  2
*D1
340
0
  0
BLOCK_RECORD
  5
21
330
1
100
AcDbSymbolTableRecord
100
AcDbBlockTableRecord
  2
*D2
340
0
  0
BLOCK_RECORD
  5
23
330
1
100
AcDbSymbolTableRecord
100
AcDbBlockTableRecord
  2
*D3
340
0
  0
BLOCK_RECORD
  5
25
330
1
100
AcDbSymbolTableRecord
100
AcDbBlockTableRecord
  2
*D4
340
0
  0
BLOCK_RECORD
  5
27
330
1
100
AcDbSymbolTableRecord
100
AcDbBlockTableRecord
  2
*D5
340
0
  0
BLOCK_RECORD
  5
29
330
1
100
AcDbSymbolTableRecord
100
AcDbBlockTableRecord
  2
*D6
340
0
  0
BLOCK_RECORD
  5
2B
330
1
100
AcDbSymbolTableRecord
100
AcDbBlockTableRecord
  2
*D7
340
0
  0
BLOCK_RECORD
  5
2D
330
1
100
AcDbSymbolTableRecord
100
AcDbBlockTableRecord
  2
*D8
340
0
  0
BLOCK_RECORD
  5
31
330
1
100
AcDbSymbolTableRecord
100
AcDbBlockTableRecord
  2
BLOCK2
340
0
  0
BLOCK_RECORD
  5
32
330
1
100
AcDbSymbolTableRecord
100
AcDbBlockTableRecord
  2
BLOCK3
340
0
  0
BLOCK_RECORD
  5
33
330
1
100
AcDbSymbolTableRecord
100
AcDbBlockTableRecord
  2
BLOCK4
340
0
  0
BLOCK_RECORD
  5
34
330
1
100
AcDbSymbolTableRecord
100
AcDbBlockTableRecord
  2
BLOCK5
340
0
  0
BLOCK_RECORD
  5
16B
330
1
100
AcDbSymbolTableRecord
100
AcDbBlockTableRecord
  2
_Oblique
340
0
102
{BLKREFS
331
2FC
331
2FD
331
305
331
306
331
317
331
318
331
333
331
334
331
351
331
352
331
365
331
366
331
381
331
382
331
393
331
394
102
}
  0
ENDTAB
  0
ENDSEC
  0
SECTION
  2
BLOCKS
  0
BLOCK
  5
D
330
A
100
AcDbEntity
  8
0
100
AcDbBlockBegin
  2
*MODEL_SPACE
 70
     0
 10
0.0
 20
0.0
 30
0.0
  3
*MODEL_SPACE
  1

  0
ENDBLK
  5
E
330
A
100
AcDbEntity
  8
0
100
AcDbBlockEnd
  0
BLOCK
  5
F
330
B
100
AcDbEntity
 67
     1
  8
0
100
AcDbBlockBegin
  2
*PAPER_SPACE
 70
     0
 10
0.0
 20
0.0
 30
0.0
  3
*PAPER_SPACE
  1

  0
ENDBLK
  5
10
330
B
100
AcDbEntity
 67
     1
  8
0
100
AcDbBlockEnd
  0
BLOCK
  5
35
330
30
100
AcDbEntity
  8
0
100
AcDbBlockBegin
  2
BLOCK1
 70
     0
 10
0.0
 20
0.0
 30
0.0
  3
BLOCK1
  1

  0
LWPOLYLINE
  5
36
330
30
100
AcDbEntity
  8
0
 62
     7
100
AcDbPolyline
 90
        3
 70
     0
 43
0.0
 10
-433.443451
 20
-2025.239258
 10
-431.9434509999999
 20
-2025.906006
 10
-433.443451
 20
-2026.572632
  0
LWPOLYLINE
  5
3B
330
30
100
AcDbEntity
  8
0
 62
     7
100
AcDbPolyline
 90
        2
 70
     0
 43
0.0
 10
-433.443451
 20
-2027.072632
 10
-431.9434509999999
 20
-2027.072632
  0
ENDBLK
  5
3F
330
30
100
AcDbEntity
  8
0
100
AcDbBlockEnd
  0
BLOCK
  5
40
330
1F
100
AcDbEntity
  8
Hawa1
100
AcDbBlockBegin
  2
*D1
 70
     1
 10
0.0
 20
0.0
 30
0.0
  3
*D1
  1

  0
LINE
  5
314
330
1F
100
AcDbEntity
  8
Hawa1
370
    -2
100
AcDbLine
 10
616.8791389999999
 20
1085.065678
 30
0.0
 11
667.2581140000001
 21
1085.065678
 31
0.0
  0
LINE
  5
315
330
1F
100
AcDbEntity
  8
Hawa1
370
    -2
100
AcDbLine
 10
616.8791389999999
 20
-914.934322
 30
0.0
 11
667.2581139999997
 21
-914.934322
 31
0.0
  0
LINE
  5
316
330
1F
100
AcDbEntity
  8
Hawa1
370
    -2
100
AcDbLine
 10
666.2581140000002
 20
1086.065678
 30
0.0
 11
666.2581139999997
 21
-915.934322
 31
0.0
  0
INSERT
  5
317
330
1F
100
AcDbEntity
  8
Hawa1
370
    -2
100
AcDbBlockReference
  2
_Oblique
 10
666.2581140000002
 20
1085.065678
 30
0.0
 41
2.0
 42
2.0
 43
2.0
 50
90.0
  0
INSERT
  5
318
330
1F
100
AcDbEntity
  8
Hawa1
370
    -2
100
AcDbBlockReference
  2
_Oblique
 10
666.2581139999997
 20
-914.934322
 30
0.0
 41
2.0
 42
2.0
 43
2.0
 50
270.0
  0
MTEXT
  5
319
330
1F
100
AcDbEntity
  8
Hawa1
100
AcDbMText
 10
663.4484277789904
 20
85.06567800000006
 30
0.0
 40
3.5
 41
0.0
 71
     5
 72
     1
  1
\A1;GH
  7
Beschlag
 11
0.0000000000000001
 21
1.0
 31
0.0
 73
     1
 44
1.0
1001
ACAD
1000
MTEXTBEGIN
1070
    73
1070
     1
1070
    44
1040
1.0
1070
    74
1070
     0
1000
MTEXTEND
  0
POINT
  5
31A
330
1F
100
AcDbEntity
  8
Defpoints
 62
     0
100
AcDbPoint
 10
614.879139
 20
1085.065678
 30
0.0
  0
POINT
  5
31B
330
1F
100
AcDbEntity
  8
Defpoints
 62
     0
100
AcDbPoint
 10
614.879139
 20
-914.934322
 30
0.0
  0
POINT
  5
31C
330
1F
100
AcDbEntity
  8
Defpoints
 62
     0
100
AcDbPoint
 10
666.2581139999997
 20
-914.934322
 30
0.0
  0
ENDBLK
  5
47
330
1F
100
AcDbEntity
  8
Hawa1
100
AcDbBlockEnd
  0
BLOCK
  5
48
330
21
100
AcDbEntity
  8
Hawa1
100
AcDbBlockBegin
  2
*D2
 70
     1
 10
0.0
 20
0.0
 30
0.0
  3
*D2
  1

  0
LINE
  5
390
330
21
100
AcDbEntity
  8
Hawa1
370
    -2
100
AcDbLine
 10
615.879139
 20
-915.934322
 30
0.0
 11
615.879139
 21
-938.9862630000001
 31
0.0
  0
LINE
  5
391
330
21
100
AcDbEntity
  8
Hawa1
370
    -2
100
AcDbLine
 10
-234.120861
 20
-915.934322
 30
0.0
 11
-234.120861
 21
-938.9862630000001
 31
0.0
  0
LINE
  5
392
330
21
100
AcDbEntity
  8
Hawa1
370
    -2
100
AcDbLine
 10
616.8791389999999
 20
-937.9862630000001
 30
0.0
 11
-235.120861
 21
-937.9862630000001
 31
0.0
  0
INSERT
  5
393
330
21
100
AcDbEntity
  8
Hawa1
370
    -2
100
AcDbBlockReference
  2
_Oblique
 10
615.879139
 20
-937.9862630000001
 30
0.0
 41
2.0
 42
2.0
 43
2.0
  0
INSERT
  5
394
330
21
100
AcDbEntity
  8
Hawa1
370
    -2
100
AcDbBlockReference
  2
_Oblique
 10
-234.120861
 20
-937.9862630000001
 30
0.0
 41
2.0
 42
2.0
 43
2.0
 50
180.0
  0
MTEXT
  5
395
330
21
100
AcDbEntity
  8
Hawa1
100
AcDbMText
 10
190.879139
 20
-933.5833525861756
 30
0.0
 40
3.5
 41
0.0
 71
     5
 72
     1
  1
\A1;GB(=>600 / [=>1' 11 {\H0.7x;\S5/8;}"])
  7
Beschlag
 73
     1
 44
1.0
1001
ACAD
1000
MTEXTBEGIN
1070
    73
1070
     1
1070
    44
1040
1.0
1070
    74
1070
     0
1000
MTEXTEND
  0
POINT
  5
396
330
21
100
AcDbEntity
  8
Defpoints
 62
     0
100
AcDbPoint
 10
615.879139
 20
-913.934322
 30
0.0
  0
POINT
  5
397
330
21
100
AcDbEntity
  8
Defpoints
 62
     0
100
AcDbPoint
 10
-234.120861
 20
-913.934322
 30
0.0
  0
POINT
  5
398
330
21
100
AcDbEntity
  8
Defpoints
 62
     0
100
AcDbPoint
 10
-234.120861
 20
-937.9862630000001
 30
0.0
  0
ENDBLK
  5
63
330
21
100
AcDbEntity
  8
Hawa1
100
AcDbBlockEnd
  0
BLOCK
  5
64
330
23
100
AcDbEntity
  8
Hawa1
100
AcDbBlockBegin
  2
*D3
 70
     1
 10
0.0
 20
0.0
 30
0.0
  3
*D3
  1

  0
LINE
  5
302
330
23
100
AcDbEntity
  8
Hawa1
370
    -2
100
AcDbLine
 10
-104.1208276991179
 20
1088.665677999722
 30
0.0
 11
-104.1203683162509
 21
1116.255509713266
 31
0.0
  0
LINE
  5
303
330
23
100
AcDbEntity
  8
Hawa1
370
    -2
100
AcDbLine
 10
-234.1208276991179
 20
1086.065677999722
 30
0.0
 11
-234.1203249890633
 21
1116.257674269883
 31
0.0
  0
LINE
  5
304
330
23
100
AcDbEntity
  8
Hawa1
370
    -2
100
AcDbLine
 10
-103.1203849668306
 20
1115.255493062963
 30
0.0
 11
-235.1203416393658
 21
1115.257690920463
 31
0.0
  0
INSERT
  5
305
330
23
100
AcDbEntity
  8
Hawa1
370
    -2
100
AcDbBlockReference
  2
_Oblique
 10
-104.120384966692
 20
1115.255509713404
 30
0.0
 41
2.0
 42
2.0
 43
2.0
 50
359.999046
  0
INSERT
  5
306
330
23
100
AcDbEntity
  8
Hawa1
370
    -2
100
AcDbBlockReference
  2
_Oblique
 10
-234.1203416395044
 20
1115.257674270021
 30
0.0
 41
2.0
 42
2.0
 43
2.0
 50
179.999046
  0
MTEXT
  5
307
330
23
100
AcDbEntity
  8
Hawa1
100
AcDbMText
 10
-169.1202896703547
 20
1119.678861836427
 30
0.0
 40
3.5
 41
0.0
 71
     5
 72
     1
  1
\A1;130 [5{\H0.711429x;\S1/8;}"]
  7
Beschlag
 11
0.9999999998613814
 21
-0.0000166504410634
 31
0.0
 73
     1
 44
1.0
1001
ACAD
1000
MTEXTBEGIN
1070
    73
1070
     1
1070
    44
1040
1.0
1070
    74
1070
     0
1000
MTEXTEND
  0
POINT
  5
308
330
23
100
AcDbEntity
  8
Defpoints
 62
     0
100
AcDbPoint
 10
-104.120861
 20
1086.665677999999
 30
0.0
  0
POINT
  5
309
330
23
100
AcDbEntity
  8
Defpoints
 62
     0
100
AcDbPoint
 10
-234.120861
 20
1084.065678
 30
0.0
  0
POINT
  5
30A
330
23
100
AcDbEntity
  8
Defpoints
 62
     0
100
AcDbPoint
 10
-234.1203416395044
 20
1115.257674270021
 30
0.0
  0
ENDBLK
  5
72
330
23
100
AcDbEntity
  8
Hawa1
100
AcDbBlockEnd
  0
BLOCK
  5
73
330
25
100
AcDbEntity
  8
Hawa1
100
AcDbBlockBegin
  2
*D4
 70
     1
 10
0.0
 20
0.0
 30
0.0
  3
*D4
  1

  0
LINE
  5
2F9
330
25
100
AcDbEntity
  8
Hawa1
370
    -2
100
AcDbLine
 10
485.8792056017642
 20
1088.665677998891
 30
0.0
 11
485.880124470551
 21
1116.258604305245
 31
0.0
  0
LINE
  5
2FA
330
25
100
AcDbEntity
  8
Hawa1
370
    -2
100
AcDbLine
 10
615.8792056017643
 20
1086.065677998891
 30
0.0
 11
615.8802109086812
 21
1116.254275187688
 31
0.0
  0
LINE
  5
2FB
330
25
100
AcDbEntity
  8
Hawa1
370
    -2
100
AcDbLine
 10
484.8800911702234
 20
1115.258637606681
 30
0.0
 11
616.8801776072446
 21
1115.25424188736
 31
0.0
  0
INSERT
  5
2FC
330
25
100
AcDbEntity
  8
Hawa1
370
    -2
100
AcDbBlockReference
  2
_Oblique
 10
485.8800911696689
 20
1115.258604305799
 30
0.0
 41
2.0
 42
2.0
 43
2.0
 50
179.998092
  0
INSERT
  5
2FD
330
25
100
AcDbEntity
  8
Hawa1
370
    -2
100
AcDbBlockReference
  2
_Oblique
 10
615.880177607799
 20
1115.254275188243
 30
0.0
 41
2.0
 42
2.0
 43
2.0
 50
359.998092
  0
MTEXT
  5
2FE
330
25
100
AcDbEntity
  8
Hawa1
100
AcDbMText
 10
550.8802816542209
 20
1119.678709589897
 30
0.0
 40
3.5
 41
0.0
 71
     5
 72
     1
  1
\A1;130 [5{\H0.711429x;\S1/8;}"]
  7
Beschlag
 11
0.9999999994455256
 21
-0.0000333008821221
 31
0.0
 73
     1
 44
1.0
1001
ACAD
1000
MTEXTBEGIN
1070
    73
1070
     1
1070
    44
1040
1.0
1070
    74
1070
     0
1000
MTEXTEND
  0
POINT
  5
2FF
330
25
100
AcDbEntity
  8
Defpoints
 62
     0
100
AcDbPoint
 10
485.879139
 20
1086.665678
 30
0.0
  0
POINT
  5
300
330
25
100
AcDbEntity
  8
Defpoints
 62
     0
100
AcDbPoint
 10
615.879139
 20
1084.065678
 30
0.0
  0
POINT
  5
301
330
25
100
AcDbEntity
  8
Defpoints
 62
     0
100
AcDbPoint
 10
615.880177607799
 20
1115.254275188243
 30
0.0
  0
ENDBLK
  5
7F
330
25
100
AcDbEntity
  8
Hawa1
100
AcDbBlockEnd
  0
BLOCK
  5
80
330
27
100
AcDbEntity
  8
Hawa1
100
AcDbBlockBegin
  2
*D5
 70
     1
 10
0.0
 20
0.0
 30
0.0
  3
*D5
  1

  0
LINE
  5
37D
330
27
100
AcDbEntity
  8
Hawa1
370
    -2
100
AcDbLine
 10
-96.62082769911791
 20
1087.065677999722
 30
0.0
 11
-96.62051946643781
 21
1105.577660887426
 31
0.0
  0
LINE
  5
37E
330
27
100
AcDbEntity
  8
Hawa1
370
    -2
100
AcDbLine
 10
-111.6208276991179
 20
1087.065677999722
 30
0.0
 11
-111.6205194622792
 21
1105.577910644042
 31
0.0
  0
LINE
  5
37F
330
27
100
AcDbEntity
  8
Hawa1
370
    -2
100
AcDbLine
 10
-95.62053611701747
 20
1104.577644237124
 30
0.0
 11
-111.6205361127203
 21
1104.57791064418
 31
0.0
  0
LINE
  5
380
330
27
100
AcDbEntity
  8
Hawa1
370
    -2
100
AcDbLine
 10
-111.6205361127203
 20
1104.57791064418
 30
0.0
 11
-128.3924324269029
 21
1104.578189903651
 31
0.0
  0
INSERT
  5
381
330
27
100
AcDbEntity
  8
Hawa1
370
    -2
100
AcDbBlockReference
  2
_Oblique
 10
-96.62053611687888
 20
1104.577660887565
 30
0.0
 41
2.0
 42
2.0
 43
2.0
 50
359.999046
  0
INSERT
  5
382
330
27
100
AcDbEntity
  8
Hawa1
370
    -2
100
AcDbBlockReference
  2
_Oblique
 10
-111.6205361127203
 20
1104.57791064418
 30
0.0
 41
2.0
 42
2.0
 43
2.0
 50
179.999046
  0
MTEXT
  5
383
330
27
100
AcDbEntity
  8
Hawa1
100
AcDbMText
 10
-121.0064378648029
 20
1107.365072380997
 30
0.0
 40
3.5
 41
0.0
 71
     5
 72
     1
  1
\A1;15{}{%%p0.5}
  7
Beschlag
 11
0.9999999998613814
 21
-0.0000166504410634
 31
0.0
 73
     1
 44
1.0
1001
ACAD
1000
MTEXTBEGIN
1070
    73
1070
     1
1070
    44
1040
1.0
1070
    74
1070
     0
1000
MTEXTEND
  0
POINT
  5
384
330
27
100
AcDbEntity
  8
Defpoints
 62
     0
100
AcDbPoint
 10
-96.62086100000003
 20
1085.065678
 30
0.0
  0
POINT
  5
385
330
27
100
AcDbEntity
  8
Defpoints
 62
     0
100
AcDbPoint
 10
-111.620861
 20
1085.065678
 30
0.0
  0
POINT
  5
386
330
27
100
AcDbEntity
  8
Defpoints
 62
     0
100
AcDbPoint
 10
-111.6205361127203
 20
1104.57791064418
 30
0.0
  0
ENDBLK
  5
89
330
27
100
AcDbEntity
  8
Hawa1
100
AcDbBlockEnd
  0
BLOCK
  5
8A
330
29
100
AcDbEntity
  8
Hawa1
100
AcDbBlockBegin
  2
*D6
 70
     1
 10
0.0
 20
0.0
 30
0.0
  3
*D6
  1

  0
LINE
  5
361
330
29
100
AcDbEntity
  8
Hawa1
370
    -2
100
AcDbLine
 10
-98.37082769911788
 20
1082.443177999723
 30
0.0
 11
-98.37060825847476
 21
1095.622447080643
 31
0.0
  0
LINE
  5
362
330
29
100
AcDbEntity
  8
Hawa1
370
    -2
100
AcDbLine
 10
-109.8708276991179
 20
1082.443177999723
 30
0.0
 11
-109.8706082552865
 21
1095.622638560715
 31
0.0
  0
LINE
  5
363
330
29
100
AcDbEntity
  8
Hawa1
370
    -2
100
AcDbLine
 10
-97.37062490905444
 20
1094.62243043034
 30
0.0
 11
-109.8706249057276
 21
1094.622638560853
 31
0.0
  0
LINE
  5
364
330
29
100
AcDbEntity
  8
Hawa1
370
    -2
100
AcDbLine
 10
-109.8706249057276
 20
1094.622638560853
 30
0.0
 11
-130.3125075768367
 21
1094.622978927216
 31
0.0
  0
INSERT
  5
365
330
29
100
AcDbEntity
  8
Hawa1
370
    -2
100
AcDbBlockReference
  2
_Oblique
 10
-98.37062490891582
 20
1094.622447080781
 30
0.0
 41
2.0
 42
2.0
 43
2.0
 50
359.999046
  0
INSERT
  5
366
330
29
100
AcDbEntity
  8
Hawa1
370
    -2
100
AcDbBlockReference
  2
_Oblique
 10
-109.8706249057276
 20
1094.622638560853
 30
0.0
 41
2.0
 42
2.0
 43
2.0
 50
179.999046
  0
MTEXT
  5
367
330
29
100
AcDbEntity
  8
Hawa1
100
AcDbMText
 10
-121.0915198362734
 20
1097.409830851115
 30
0.0
 40
3.5
 41
0.0
 71
     5
 72
     1
  1
\A1;11.5{}{%%p0.5}
  7
Beschlag
 11
0.9999999998613814
 21
-0.0000166504410634
 31
0.0
 73
     1
 44
1.0
1001
ACAD
1000
MTEXTBEGIN
1070
    73
1070
     1
1070
    44
1040
1.0
1070
    74
1070
     0
1000
MTEXTEND
  0
POINT
  5
368
330
29
100
AcDbEntity
  8
Defpoints
 62
     0
100
AcDbPoint
 10
-98.370861
 20
1080.443178
 30
0.0
  0
POINT
  5
369
330
29
100
AcDbEntity
  8
Defpoints
 62
     0
100
AcDbPoint
 10
-109.870861
 20
1080.443178
 30
0.0
  0
POINT
  5
36A
330
29
100
AcDbEntity
  8
Defpoints
 62
     0
100
AcDbPoint
 10
-109.8706249057276
 20
1094.622638560853
 30
0.0
  0
ENDBLK
  5
92
330
29
100
AcDbEntity
  8
Hawa1
100
AcDbBlockEnd
  0
BLOCK
  5
93
330
2B
100
AcDbEntity
  8
Hawa1
100
AcDbBlockBegin
  2
*D7
 70
     1
 10
0.0
 20
0.0
 30
0.0
  3
*D7
  1

  0
LINE
  5
330
330
2B
100
AcDbEntity
  8
Hawa1
370
    -2
100
AcDbLine
 10
-93.120861
 20
1069.065678
 30
0.0
 11
-93.120861
 21
1047.317559823549
 31
0.0
  0
LINE
  5
331
330
2B
100
AcDbEntity
  8
Hawa1
370
    -2
100
AcDbLine
 10
-115.120861
 20
1069.065678
 30
0.0
 11
-115.120861
 21
1047.317559823549
 31
0.0
  0
LINE
  5
332
330
2B
100
AcDbEntity
  8
Hawa1
370
    -2
100
AcDbLine
 10
-92.120861
 20
1048.317559823549
 30
0.0
 11
-116.120861
 21
1048.317559823549
 31
0.0
  0
INSERT
  5
333
330
2B
100
AcDbEntity
  8
Hawa1
370
    -2
100
AcDbBlockReference
  2
_Oblique
 10
-93.120861
 20
1048.317559823549
 30
0.0
 41
2.0
 42
2.0
 43
2.0
  0
INSERT
  5
334
330
2B
100
AcDbEntity
  8
Hawa1
370
    -2
100
AcDbBlockReference
  2
_Oblique
 10
-115.120861
 20
1048.317559823549
 30
0.0
 41
2.0
 42
2.0
 43
2.0
 50
180.0
  0
MTEXT
  5
335
330
2B
100
AcDbEntity
  8
Hawa1
100
AcDbMText
 10
-104.120861
 20
1051.202450683031
 30
0.0
 40
3.5
 41
0.0
 71
     5
 72
     1
  1
\A1;%%c22{}{%%p0.2}
  7
Beschlag
 73
     1
 44
1.0
1001
ACAD
1000
MTEXTBEGIN
1070
    73
1070
     1
1070
    44
1040
1.0
1070
    74
1070
     0
1000
MTEXTEND
  0
POINT
  5
336
330
2B
100
AcDbEntity
  8
Defpoints
 62
     0
100
AcDbPoint
 10
-93.120861
 20
1071.065678
 30
0.0
  0
POINT
  5
337
330
2B
100
AcDbEntity
  8
Defpoints
 62
     0
100
AcDbPoint
 10
-115.120861
 20
1071.065678
 30
0.0
  0
POINT
  5
338
330
2B
100
AcDbEntity
  8
Defpoints
 62
     0
100
AcDbPoint
 10
-115.120861
 20
1048.317559823549
 30
0.0
  0
ENDBLK
  5
9C
330
2B
100
AcDbEntity
  8
Hawa1
100
AcDbBlockEnd
  0
BLOCK
  5
9D
330
2D
100
AcDbEntity
  8
Hawa1
100
AcDbBlockBegin
  2
*D8
 70
     1
 10
0.0
 20
0.0
 30
0.0
  3
*D8
  1

  0
LINE
  5
34D
330
2D
100
AcDbEntity
  8
Hawa1
370
    -2
100
AcDbLine
 10
-121.7208609999307
 20
1071.065694650441
 30
0.0
 11
-132.1743304419799
 21
1071.065781677879
 31
0.0
  0
LINE
  5
34E
330
2D
100
AcDbEntity
  8
Hawa1
370
    -2
100
AcDbLine
 10
-117.6241569999307
 20
1085.065694650441
 30
0.0
 11
-132.1742138886085
 21
1085.065815782873
 31
0.0
  0
LINE
  5
34F
330
2D
100
AcDbEntity
  8
Hawa1
370
    -2
100
AcDbLine
 10
-131.1742138886432
 20
1085.065807457652
 30
0.0
 11
-131.1743387672351
 21
1070.065773352693
 31
0.0
  0
LINE
  5
350
330
2D
100
AcDbEntity
  8
Hawa1
370
    -2
100
AcDbLine
 10
-131.1743304420146
 20
1071.065773352659
 30
0.0
 11
-131.1744750528488
 21
1053.695562722462
 31
0.0
  0
INSERT
  5
351
330
2D
100
AcDbEntity
  8
Hawa1
370
    -2
100
AcDbBlockReference
  2
_Oblique
 10
-131.1742138886432
 20
1085.065807457652
 30
0.0
 41
2.0
 42
2.0
 43
2.0
 50
89.999523
  0
INSERT
  5
352
330
2D
100
AcDbEntity
  8
Hawa1
370
    -2
100
AcDbBlockReference
  2
_Oblique
 10
-131.1743304420146
 20
1071.065773352659
 30
0.0
 41
2.0
 42
2.0
 43
2.0
 50
269.9995229999999
  0
MTEXT
  5
353
330
2D
100
AcDbEntity
  8
Hawa1
100
AcDbMText
 10
-133.9614190201309
 20
1061.081534082895
 30
0.0
 40
3.5
 41
0.0
 71
     5
 72
     1
  1
\A1;14{}{%%p0.5}
  7
Beschlag
 11
0.000008325220532
 21
0.9999999999653454
 31
0.0
 73
     1
 44
1.0
1001
ACAD
1000
MTEXTBEGIN
1070
    73
1070
     1
1070
    44
1040
1.0
1070
    74
1070
     0
1000
MTEXTEND
  0
POINT
  5
354
330
2D
100
AcDbEntity
  8
Defpoints
 62
     0
100
AcDbPoint
 10
-119.720861
 20
1071.065678
 30
0.0
  0
POINT
  5
355
330
2D
100
AcDbEntity
  8
Defpoints
 62
     0
100
AcDbPoint
 10
-115.624157
 20
1085.065678
 30
0.0
  0
POINT
  5
356
330
2D
100
AcDbEntity
  8
Defpoints
 62
     0
100
AcDbPoint
 10
-131.1742138886432
 20
1085.065807457652
 30
0.0
  0
ENDBLK
  5
A4
330
2D
100
AcDbEntity
  8
Hawa1
100
AcDbBlockEnd
  0
BLOCK
  5
A5
330
31
100
AcDbEntity
  8
0
100
AcDbBlockBegin
  2
BLOCK2
 70
     0
 10
0.0
 20
0.0
 30
0.0
  3
BLOCK2
  1

  0
LINE
  5
A6
330
31
100
AcDbEntity
  8
Hawa5
  6
DASHDOT
 62
     1
100
AcDbLine
 10
-704.400024
 20
-14.0
 30
0.0
 11
-735.5999759999999
 21
-14.0
 31
0.0
  0
LINE
  5
A7
330
31
100
AcDbEntity
  8
Hawa5
  6
DASHDOT
 62
     1
100
AcDbLine
 10
-720.0
 20
1.6
 30
0.0
 11
-720.0
 21
-29.6
 31
0.0
  0
ENDBLK
  5
A8
330
31
100
AcDbEntity
  8
0
100
AcDbBlockEnd
  0
BLOCK
  5
A9
330
32
100
AcDbEntity
  8
0
100
AcDbBlockBegin
  2
BLOCK3
 70
     0
 10
0.0
 20
0.0
 30
0.0
  3
BLOCK3
  1

  0
LINE
  5
AA
330
32
100
AcDbEntity
  8
Hawa1
100
AcDbLine
 10
-704.400024
 20
-14.0
 30
0.0
 11
-735.5999759999999
 21
-14.0
 31
0.0
  0
LINE
  5
AB
330
32
100
AcDbEntity
  8
Hawa1
100
AcDbLine
 10
-720.0
 20
1.6
 30
0.0
 11
-720.0
 21
-29.6
 31
0.0
  0
ENDBLK
  5
AC
330
32
100
AcDbEntity
  8
0
100
AcDbBlockEnd
  0
BLOCK
  5
AD
330
33
100
AcDbEntity
  8
0
100
AcDbBlockBegin
  2
BLOCK4
 70
     0
 10
0.0
 20
0.0
 30
0.0
  3
BLOCK4
  1

  0
LINE
  5
AE
330
33
100
AcDbEntity
  8
Hawa1
100
AcDbLine
 10
-114.400002
 20
-14.0
 30
0.0
 11
-145.600006
 21
-14.0
 31
0.0
  0
LINE
  5
AF
330
33
100
AcDbEntity
  8
Hawa1
100
AcDbLine
 10
-130.0
 20
1.6
 30
0.0
 11
-130.0
 21
-29.6
 31
0.0
  0
ENDBLK
  5
B0
330
33
100
AcDbEntity
  8
0
100
AcDbBlockEnd
  0
BLOCK
  5
B1
330
34
100
AcDbEntity
  8
0
100
AcDbBlockBegin
  2
BLOCK5
 70
     0
 10
0.0
 20
0.0
 30
0.0
  3
BLOCK5
  1

  0
LINE
  5
B2
330
34
100
AcDbEntity
  8
Hawa5
 62
     1
100
AcDbLine
 10
-138.190681
 20
-1.0
 30
0.0
 11
-711.809319
 21
-1.0
 31
0.0
  0
LINE
  5
B3
330
34
100
AcDbEntity
  8
Hawa5
 62
     1
 48
0.086347
100
AcDbLine
 10
-138.190681
 20
-1.0
 30
0.0
 11
-136.967798
 21
-4.230158999999999
 31
0.0
  0
ARC
  5
B4
330
34
100
AcDbEntity
  8
Hawa5
 62
     1
100
AcDbCircle
 10
-130.0
 20
-14.0
 30
0.0
 40
12.0
100
AcDbArc
 50
125.496259
 51
414.5037409999999
  0
LINE
  5
B5
330
34
100
AcDbEntity
  8
Hawa5
 62
     1
 48
0.086347
100
AcDbLine
 10
-121.809319
 20
-1.0
 30
0.0
 11
-123.032202
 21
-4.230158999999999
 31
0.0
  0
LINE
  5
B6
330
34
100
AcDbEntity
  8
Hawa5
 62
     1
100
AcDbLine
 10
-1.0
 20
-1.0
 30
0.0
 11
-121.809319
 21
-1.0
 31
0.0
  0
LINE
  5
B7
330
34
100
AcDbEntity
  8
Hawa5
 62
     1
100
AcDbLine
 10
-1.0
 20
-1.0
 30
0.0
 11
-1.0
 21
-1999.0
 31
0.0
  0
LINE
  5
B8
330
34
100
AcDbEntity
  8
Hawa5
 62
     1
100
AcDbLine
 10
-849.0
 20
-1999.0
 30
0.0
 11
-1.0
 21
-1999.0
 31
0.0
  0
LINE
  5
B9
330
34
100
AcDbEntity
  8
Hawa5
 62
     1
100
AcDbLine
 10
-849.0
 20
-1999.0
 30
0.0
 11
-849.0
 21
-1.0
 31
0.0
  0
LINE
  5
BA
330
34
100
AcDbEntity
  8
Hawa5
 62
     1
100
AcDbLine
 10
-728.1906809999999
 20
-1.0
 30
0.0
 11
-849.0
 21
-1.0
 31
0.0
  0
LINE
  5
BB
330
34
100
AcDbEntity
  8
Hawa5
 62
     1
 48
0.086347
100
AcDbLine
 10
-726.9677979999999
 20
-4.230158999999999
 30
0.0
 11
-728.1906809999999
 21
-1.0
 31
0.0
  0
ARC
  5
BC
330
34
100
AcDbEntity
  8
Hawa5
 62
     1
100
AcDbCircle
 10
-720.0
 20
-14.0
 30
0.0
 40
12.0
100
AcDbArc
 50
125.496259
 51
414.5037409999999
  0
LINE
  5
BD
330
34
100
AcDbEntity
  8
Hawa5
 62
     1
 48
0.086347
100
AcDbLine
 10
-711.809319
 20
-1.0
 30
0.0
 11
-713.032202
 21
-4.230158999999999
 31
0.0
  0
ARC
  5
BE
330
34
100
AcDbEntity
  8
Hawa5
 62
     1
100
AcDbCircle
 10
-720.0
 20
-14.0
 30
0.0
 40
11.0
100
AcDbArc
 50
121.51537
 51
418.48463
  0
ARC
  5
BF
330
34
100
AcDbEntity
  8
Hawa5
 62
     1
100
AcDbCircle
 10
-130.0
 20
-14.0
 30
0.0
 40
11.0
100
AcDbArc
 50
121.51537
 51
418.48463
  0
LINE
  5
C0
330
34
100
AcDbEntity
  8
Hawa5
 62
     1
 48
0.123567
100
AcDbLine
 10
-712.5
 20
0.0
 30
0.0
 11
-714.25
 21
-4.622499999999999
 31
0.0
  0
LINE
  5
C1
330
34
100
AcDbEntity
  8
Hawa5
 62
     1
 48
0.031986
100
AcDbLine
 10
-713.032202
 20
-4.230158999999999
 30
0.0
 11
-714.25
 21
-4.622499999999999
 31
0.0
  0
LINE
  5
C2
330
34
100
AcDbEntity
  8
Hawa5
 62
     1
 48
0.030383
100
AcDbLine
 10
-711.809319
 20
-1.0
 30
0.0
 11
-712.5
 21
0.0
 31
0.0
  0
LINE
  5
C3
330
34
100
AcDbEntity
  8
Hawa5
 62
     1
100
AcDbLine
 10
-137.5
 20
0.0
 30
0.0
 11
-712.5
 21
0.0
 31
0.0
  0
LINE
  5
C4
330
34
100
AcDbEntity
  8
Hawa5
 62
     1
 48
0.030383
100
AcDbLine
 10
-138.190681
 20
-1.0
 30
0.0
 11
-137.5
 21
0.0
 31
0.0
  0
LINE
  5
C5
330
34
100
AcDbEntity
  8
Hawa5
 62
     1
 48
0.031986
100
AcDbLine
 10
-136.967798
 20
-4.230158999999999
 30
0.0
 11
-135.75
 21
-4.622499999999999
 31
0.0
  0
LINE
  5
C6
330
34
100
AcDbEntity
  8
Hawa5
 62
     1
 48
0.123567
100
AcDbLine
 10
-137.5
 20
0.0
 30
0.0
 11
-135.75
 21
-4.622499999999999
 31
0.0
  0
LINE
  5
C7
330
34
100
AcDbEntity
  8
Hawa5
 62
     1
 48
0.031986
100
AcDbLine
 10
-123.032202
 20
-4.230158999999999
 30
0.0
 11
-124.25
 21
-4.622499999999999
 31
0.0
  0
LINE
  5
C8
330
34
100
AcDbEntity
  8
Hawa5
 62
     1
 48
0.123567
100
AcDbLine
 10
-122.5
 20
0.0
 30
0.0
 11
-124.25
 21
-4.622499999999999
 31
0.0
  0
LINE
  5
C9
330
34
100
AcDbEntity
  8
Hawa5
 62
     1
 48
0.030383
100
AcDbLine
 10
-121.809319
 20
-1.0
 30
0.0
 11
-122.5
 21
0.0
 31
0.0
  0
LINE
  5
CA
330
34
100
AcDbEntity
  8
Hawa5
 62
     1
 48
0.123567
100
AcDbLine
 10
-725.75
 20
-4.622499999999999
 30
0.0
 11
-727.5
 21
0.0
 31
0.0
  0
LINE
  5
CB
330
34
100
AcDbEntity
  8
Hawa5
 62
     1
 48
0.030383
100
AcDbLine
 10
-728.1906809999999
 20
-1.0
 30
0.0
 11
-727.5
 21
0.0
 31
0.0
  0
LINE
  5
CC
330
34
100
AcDbEntity
  8
Hawa5
 62
     1
 48
0.031986
100
AcDbLine
 10
-726.9677979999999
 20
-4.230158999999999
 30
0.0
 11
-725.75
 21
-4.622499999999999
 31
0.0
  0
LINE
  5
CD
330
34
100
AcDbEntity
  8
Hawa5
 62
     1
 48
0.017678
100
AcDbLine
 10
-0.5
 20
-0.5
 30
0.0
 11
-1.0
 21
0.0
 31
0.0
  0
LINE
  5
CE
330
34
100
AcDbEntity
  8
Hawa5
 62
     1
100
AcDbLine
 10
-1.0
 20
0.0
 30
0.0
 11
-122.5
 21
0.0
 31
0.0
  0
LINE
  5
CF
330
34
100
AcDbEntity
  8
Hawa5
 62
     1
 48
0.017678
100
AcDbLine
 10
-1.0
 20
-1.0
 30
0.0
 11
-0.5
 21
-0.5
 31
0.0
  0
LINE
  5
D0
330
34
100
AcDbEntity
  8
Hawa5
 62
     1
 48
0.017678
100
AcDbLine
 10
-0.5
 20
-0.5
 30
0.0
 11
0.0
 21
-1.0
 31
0.0
  0
LINE
  5
D1
330
34
100
AcDbEntity
  8
Hawa5
 62
     1
100
AcDbLine
 10
0.0
 20
-1.0
 30
0.0
 11
0.0
 21
-1999.0
 31
0.0
  0
LINE
  5
D2
330
34
100
AcDbEntity
  8
Hawa5
 62
     1
 48
0.017678
100
AcDbLine
 10
-1.0
 20
-1999.0
 30
0.0
 11
-0.5
 21
-1999.5
 31
0.0
  0
LINE
  5
D3
330
34
100
AcDbEntity
  8
Hawa5
 62
     1
 48
0.017678
100
AcDbLine
 10
-0.5
 20
-1999.5
 30
0.0
 11
0.0
 21
-1999.0
 31
0.0
  0
LINE
  5
D4
330
34
100
AcDbEntity
  8
Hawa5
 62
     1
 48
0.017678
100
AcDbLine
 10
-0.5
 20
-1999.5
 30
0.0
 11
-1.0
 21
-2000.0
 31
0.0
  0
LINE
  5
D5
330
34
100
AcDbEntity
  8
Hawa5
 62
     1
 48
0.017678
100
AcDbLine
 10
-849.5
 20
-1999.5
 30
0.0
 11
-849.0
 21
-2000.0
 31
0.0
  0
LINE
  5
D6
330
34
100
AcDbEntity
  8
Hawa5
 62
     1
100
AcDbLine
 10
-849.0
 20
-2000.0
 30
0.0
 11
-1.0
 21
-2000.0
 31
0.0
  0
LINE
  5
D7
330
34
100
AcDbEntity
  8
Hawa5
 62
     1
 48
0.017678
100
AcDbLine
 10
-849.0
 20
-1999.0
 30
0.0
 11
-849.5
 21
-1999.5
 31
0.0
  0
LINE
  5
D8
330
34
100
AcDbEntity
  8
Hawa5
 62
     1
 48
0.017678
100
AcDbLine
 10
-849.5
 20
-1999.5
 30
0.0
 11
-850.0
 21
-1999.0
 31
0.0
  0
LINE
  5
D9
330
34
100
AcDbEntity
  8
Hawa5
 62
     1
 48
0.017678
100
AcDbLine
 10
-849.5
 20
-0.5
 30
0.0
 11
-849.0
 21
0.0
 31
0.0
  0
LINE
  5
DA
330
34
100
AcDbEntity
  8
Hawa5
 62
     1
 48
0.017678
100
AcDbLine
 10
-849.0
 20
-1.0
 30
0.0
 11
-849.5
 21
-0.5
 31
0.0
  0
LINE
  5
DB
330
34
100
AcDbEntity
  8
Hawa5
 62
     1
100
AcDbLine
 10
-727.5
 20
0.0
 30
0.0
 11
-849.0
 21
0.0
 31
0.0
  0
LINE
  5
DC
330
34
100
AcDbEntity
  8
Hawa5
 62
     1
100
AcDbLine
 10
-850.0
 20
-1999.0
 30
0.0
 11
-850.0
 21
-1.0
 31
0.0
  0
LINE
  5
DD
330
34
100
AcDbEntity
  8
Hawa5
 62
     1
 48
0.017678
100
AcDbLine
 10
-849.5
 20
-0.5
 30
0.0
 11
-850.0
 21
-1.0
 31
0.0
  0
ENDBLK
  5
DE
330
34
100
AcDbEntity
  8
0
100
AcDbBlockEnd
  0
BLOCK
  5
16C
330
16B
100
AcDbEntity
  8
0
100
AcDbBlockBegin
  2
_Oblique
 70
     0
 10
0.0
 20
0.0
 30
0.0
  3
_Oblique
  1

  0
LINE
  5
16D
330
16B
100
AcDbEntity
  8
0
 62
     0
370
    -2
100
AcDbLine
 10
-0.5
 20
-0.5
 30
0.0
 11
0.5
 21
0.5
 31
0.0
  0
ENDBLK
  5
16E
330
16B
100
AcDbEntity
  8
0
100
AcDbBlockEnd
  0
ENDSEC
  0
SECTION
  2
ENTITIES
  0
DIMENSION
  5
20
330
A
100
AcDbEntity
  8
Hawa1
 62
     0
100
AcDbDimension
  2
*D1
 10
666.2581139999997
 20
-914.934322
 30
0.0
 11
663.4484277789904
 21
85.06567800000006
 31
0.0
 70
    33
  1
GH
 71
     5
 42
2000.0
 52
89.999523
  3
HAWA-Strich
100
AcDbAlignedDimension
 13
614.879139
 23
1085.065678
 33
0.0
 14
614.879139
 24
-914.934322
 34
0.0
  0
DIMENSION
  5
22
330
A
100
AcDbEntity
  8
Hawa1
 62
     0
100
AcDbDimension
  2
*D2
 10
-234.120861
 20
-937.9862630000001
 30
0.0
 11
190.879139
 21
-933.5833525861756
 31
0.0
 70
    33
  1
GB(=>600 / [=>1' 11 {\H0.7x;\S5/8;}"])
 71
     5
 42
850.0
 52
89.999523
  3
HAWA-Strich
100
AcDbAlignedDimension
 13
615.879139
 23
-913.934322
 33
0.0
 14
-234.120861
 24
-913.934322
 34
0.0
  0
DIMENSION
  5
24
330
A
100
AcDbEntity
  8
Hawa1
 62
     0
100
AcDbDimension
  2
*D3
 10
-234.1203416395044
 20
1115.257674270021
 30
0.0
 11
-169.1202896703547
 21
1119.678861836427
 31
0.0
 70
    32
 71
     5
 42
129.9999566908328
 52
89.999523
  3
HAWA-Strich
100
AcDbAlignedDimension
 13
-104.120861
 23
1086.665678
 33
0.0
 14
-234.120861
 24
1084.065678
 34
0.0
 50
179.999046
100
AcDbRotatedDimension
  0
DIMENSION
  5
26
330
A
100
AcDbEntity
  8
Hawa1
 62
     0
100
AcDbDimension
  2
*D4
 10
615.880177607799
 20
1115.254275188243
 30
0.0
 11
550.8802816542209
 21
1119.678709589897
 31
0.0
 70
    32
 71
     5
 42
130.0000865102119
 52
89.999523
  3
HAWA-Strich
100
AcDbAlignedDimension
 13
485.8791389999999
 23
1086.665678
 33
0.0
 14
615.879139
 24
1084.065678
 34
0.0
 50
359.998092
100
AcDbRotatedDimension
  0
DIMENSION
  5
28
330
A
100
AcDbEntity
  8
Hawa1
 62
     0
100
AcDbDimension
  2
*D5
 10
-111.6205361127203
 20
1104.57791064418
 30
0.0
 11
-121.006484269673
 21
1104.578066924357
 31
0.0
 70
   160
  1
<>{}{%%p0.5}
 71
     5
 42
14.99999999792072
 52
89.999523
  3
HAWA-Strich ohne Inch
100
AcDbAlignedDimension
 13
-96.62086100000001
 23
1085.065678
 33
0.0
 14
-111.620861
 24
1085.065678
 34
0.0
 50
179.999046
100
AcDbRotatedDimension
  0
DIMENSION
  5
2A
330
A
100
AcDbEntity
  8
Hawa1
 62
     0
100
AcDbDimension
  2
*D6
 10
-109.8706249057276
 20
1094.622638560853
 30
0.0
 11
-121.0915198362734
 21
1097.409830851115
 31
0.0
 70
    32
  1
<>{}{%%p0.5}
 71
     5
 42
11.49999999840588
 52
89.999523
  3
HAWA-Strich ohne Inch
100
AcDbAlignedDimension
 13
-98.370861
 23
1080.443178
 33
0.0
 14
-109.870861
 24
1080.443178
 34
0.0
 50
179.999046
100
AcDbRotatedDimension
  0
DIMENSION
  5
2C
330
A
100
AcDbEntity
  8
Hawa1
 62
     0
100
AcDbDimension
  2
*D7
 10
-115.120861
 20
1048.317559823549
 30
0.0
 11
-104.120861
 21
1048.317559823549
 31
0.0
 70
   161
  1
%%c<>{}{%%p0.2}
 71
     5
 42
22.0
 52
89.999523
  3
HAWA-Strich ohne Inch
100
AcDbAlignedDimension
 13
-93.120861
 23
1071.065678
 33
0.0
 14
-115.120861
 24
1071.065678
 34
0.0
  0
DIMENSION
  5
2E
330
A
100
AcDbEntity
  8
Hawa1
 62
     0
100
AcDbDimension
  2
*D8
 10
-131.1742138886432
 20
1085.065807457652
 30
0.0
 11
-131.1744135632016
 21
1061.08151088046
 31
0.0
 70
   160
  1
<>{}{%%p0.5}
 71
     5
 42
14.00003410547902
 52
89.999523
  3
HAWA-Strich ohne Inch
100
AcDbAlignedDimension
 13
-119.720861
 23
1071.065678
 33
0.0
 14
-115.624157
 24
1085.065678
 34
0.0
 50
89.999523
100
AcDbRotatedDimension
  0
LINE
  5
10B
330
A
100
AcDbEntity
  8
Hawa5
  6
DASHDOT
 62
     1
100
AcDbLine
 10
-88.52088500000002
 20
1071.065678
 30
0.0
 11
-119.720837
 21
1071.065678
 31
0.0
  0
LINE
  5
10C
330
A
100
AcDbEntity
  8
Hawa5
  6
DASHDOT
 62
     1
100
AcDbLine
 10
-104.120861
 20
1086.665678
 30
0.0
 11
-104.120861
 21
1055.465678
 31
0.0
  0
LINE
  5
10D
330
A
100
AcDbEntity
  8
Hawa1
100
AcDbLine
 10
-88.52088500000002
 20
1071.065678
 30
0.0
 11
-119.720837
 21
1071.065678
 31
0.0
  0
LINE
  5
10E
330
A
100
AcDbEntity
  8
Hawa1
100
AcDbLine
 10
-104.120861
 20
1086.665678
 30
0.0
 11
-104.120861
 21
1055.465678
 31
0.0
  0
LINE
  5
10F
330
A
100
AcDbEntity
  8
Hawa1
100
AcDbLine
 10
501.479137
 20
1071.065678
 30
0.0
 11
470.279133
 21
1071.065678
 31
0.0
  0
LINE
  5
110
330
A
100
AcDbEntity
  8
Hawa1
100
AcDbLine
 10
485.8791389999999
 20
1086.665678
 30
0.0
 11
485.8791389999999
 21
1055.465678
 31
0.0
  0
LINE
  5
111
330
A
100
AcDbEntity
  8
Hawa5
 62
     1
100
AcDbLine
 10
477.6884579999999
 20
1084.065678
 30
0.0
 11
-95.93017999999997
 21
1084.065678
 31
0.0
  0
LINE
  5
112
330
A
100
AcDbEntity
  8
Hawa5
 62
     1
 48
0.086347
100
AcDbLine
 10
477.6884579999999
 20
1084.065678
 30
0.0
 11
478.9113409999999
 21
1080.835519
 31
0.0
  0
ARC
  5
113
330
A
100
AcDbEntity
  8
Hawa5
 62
     1
100
AcDbCircle
 10
485.8791389999999
 20
1071.065678
 30
0.0
 40
12.0
100
AcDbArc
 50
125.4962590000001
 51
54.50374099999965
  0
LINE
  5
114
330
A
100
AcDbEntity
  8
Hawa5
 62
     1
 48
0.086347
100
AcDbLine
 10
494.0698199999999
 20
1084.065678
 30
0.0
 11
492.846937
 21
1080.835519
 31
0.0
  0
LINE
  5
115
330
A
100
AcDbEntity
  8
Hawa5
 62
     1
100
AcDbLine
 10
614.879139
 20
1084.065678
 30
0.0
 11
494.0698199999999
 21
1084.065678
 31
0.0
  0
LINE
  5
116
330
A
100
AcDbEntity
  8
Hawa5
 62
     1
100
AcDbLine
 10
614.879139
 20
1084.065678
 30
0.0
 11
614.879139
 21
-913.9343219999998
 31
0.0
  0
LINE
  5
117
330
A
100
AcDbEntity
  8
Hawa5
 62
     1
100
AcDbLine
 10
-233.120861
 20
-913.9343219999998
 30
0.0
 11
614.879139
 21
-913.9343219999998
 31
0.0
  0
LINE
  5
118
330
A
100
AcDbEntity
  8
Hawa5
 62
     1
100
AcDbLine
 10
-233.120861
 20
-913.9343219999998
 30
0.0
 11
-233.120861
 21
1084.065678
 31
0.0
  0
LINE
  5
119
330
A
100
AcDbEntity
  8
Hawa5
 62
     1
100
AcDbLine
 10
-112.311542
 20
1084.065678
 30
0.0
 11
-233.120861
 21
1084.065678
 31
0.0
  0
LINE
  5
11A
330
A
100
AcDbEntity
  8
Hawa5
 62
     1
 48
0.086347
100
AcDbLine
 10
-111.088659
 20
1080.835519
 30
0.0
 11
-112.311542
 21
1084.065678
 31
0.0
  0
ARC
  5
11B
330
A
100
AcDbEntity
  8
Hawa5
 62
     1
100
AcDbCircle
 10
-104.120861
 20
1071.065678
 30
0.0
 40
12.0
100
AcDbArc
 50
125.4962590000001
 51
54.5037409999999
  0
LINE
  5
11C
330
A
100
AcDbEntity
  8
Hawa5
 62
     1
 48
0.086347
100
AcDbLine
 10
-95.93017999999997
 20
1084.065678
 30
0.0
 11
-97.15306299999996
 21
1080.835519
 31
0.0
  0
ARC
  5
11D
330
A
100
AcDbEntity
  8
Hawa5
 62
     1
100
AcDbCircle
 10
-104.120861
 20
1071.065678
 30
0.0
 40
11.0
100
AcDbArc
 50
121.5153700000001
 51
58.48462999999992
  0
ARC
  5
11E
330
A
100
AcDbEntity
  8
Hawa5
 62
     1
100
AcDbCircle
 10
485.8791389999999
 20
1071.065678
 30
0.0
 40
11.0
100
AcDbArc
 50
121.5153700000001
 51
58.48462999999992
  0
LINE
  5
11F
330
A
100
AcDbEntity
  8
Hawa5
 62
     1
 48
0.123567
100
AcDbLine
 10
-96.62086100000001
 20
1085.065678
 30
0.0
 11
-98.370861
 21
1080.443178
 31
0.0
  0
LINE
  5
120
330
A
100
AcDbEntity
  8
Hawa5
 62
     1
 48
0.031986
100
AcDbLine
 10
-97.15306299999996
 20
1080.835519
 30
0.0
 11
-98.370861
 21
1080.443178
 31
0.0
  0
LINE
  5
121
330
A
100
AcDbEntity
  8
Hawa5
 62
     1
 48
0.030383
100
AcDbLine
 10
-95.93017999999997
 20
1084.065678
 30
0.0
 11
-96.62086100000001
 21
1085.065678
 31
0.0
  0
LINE
  5
122
330
A
100
AcDbEntity
  8
Hawa5
 62
     1
100
AcDbLine
 10
478.3791389999999
 20
1085.065678
 30
0.0
 11
-96.62086100000001
 21
1085.065678
 31
0.0
  0
LINE
  5
123
330
A
100
AcDbEntity
  8
Hawa5
 62
     1
 48
0.030383
100
AcDbLine
 10
477.6884579999999
 20
1084.065678
 30
0.0
 11
478.3791389999999
 21
1085.065678
 31
0.0
  0
LINE
  5
124
330
A
100
AcDbEntity
  8
Hawa5
 62
     1
 48
0.031986
100
AcDbLine
 10
478.9113409999999
 20
1080.835519
 30
0.0
 11
480.1291389999999
 21
1080.443178
 31
0.0
  0
LINE
  5
125
330
A
100
AcDbEntity
  8
Hawa5
 62
     1
 48
0.123567
100
AcDbLine
 10
478.3791389999999
 20
1085.065678
 30
0.0
 11
480.1291389999999
 21
1080.443178
 31
0.0
  0
LINE
  5
126
330
A
100
AcDbEntity
  8
Hawa5
 62
     1
 48
0.031986
100
AcDbLine
 10
492.846937
 20
1080.835519
 30
0.0
 11
491.6291389999999
 21
1080.443178
 31
0.0
  0
LINE
  5
127
330
A
100
AcDbEntity
  8
Hawa5
 62
     1
 48
0.123567
100
AcDbLine
 10
493.3791389999999
 20
1085.065678
 30
0.0
 11
491.6291389999999
 21
1080.443178
 31
0.0
  0
LINE
  5
128
330
A
100
AcDbEntity
  8
Hawa5
 62
     1
 48
0.030383
100
AcDbLine
 10
494.0698199999999
 20
1084.065678
 30
0.0
 11
493.3791389999999
 21
1085.065678
 31
0.0
  0
LINE
  5
129
330
A
100
AcDbEntity
  8
Hawa5
 62
     1
 48
0.123567
100
AcDbLine
 10
-109.870861
 20
1080.443178
 30
0.0
 11
-111.620861
 21
1085.065678
 31
0.0
  0
LINE
  5
12A
330
A
100
AcDbEntity
  8
Hawa5
 62
     1
 48
0.030383
100
AcDbLine
 10
-112.311542
 20
1084.065678
 30
0.0
 11
-111.620861
 21
1085.065678
 31
0.0
  0
LINE
  5
12B
330
A
100
AcDbEntity
  8
Hawa5
 62
     1
 48
0.031986
100
AcDbLine
 10
-111.088659
 20
1080.835519
 30
0.0
 11
-109.870861
 21
1080.443178
 31
0.0
  0
LINE
  5
12C
330
A
100
AcDbEntity
  8
Hawa5
 62
     1
 48
0.017678
100
AcDbLine
 10
615.379139
 20
1084.565678
 30
0.0
 11
614.879139
 21
1085.065678
 31
0.0
  0
LINE
  5
12D
330
A
100
AcDbEntity
  8
Hawa5
 62
     1
100
AcDbLine
 10
614.879139
 20
1085.065678
 30
0.0
 11
493.3791389999999
 21
1085.065678
 31
0.0
  0
LINE
  5
12E
330
A
100
AcDbEntity
  8
Hawa5
 62
     1
 48
0.017678
100
AcDbLine
 10
614.879139
 20
1084.065678
 30
0.0
 11
615.379139
 21
1084.565678
 31
0.0
  0
LINE
  5
12F
330
A
100
AcDbEntity
  8
Hawa5
 62
     1
 48
0.017678
100
AcDbLine
 10
615.379139
 20
1084.565678
 30
0.0
 11
615.879139
 21
1084.065678
 31
0.0
  0
LINE
  5
130
330
A
100
AcDbEntity
  8
Hawa5
 62
     1
100
AcDbLine
 10
615.879139
 20
1084.065678
 30
0.0
 11
615.879139
 21
-913.9343219999998
 31
0.0
  0
LINE
  5
131
330
A
100
AcDbEntity
  8
Hawa5
 62
     1
 48
0.017678
100
AcDbLine
 10
614.879139
 20
-913.9343219999998
 30
0.0
 11
615.379139
 21
-914.4343219999999
 31
0.0
  0
LINE
  5
132
330
A
100
AcDbEntity
  8
Hawa5
 62
     1
 48
0.017678
100
AcDbLine
 10
615.379139
 20
-914.4343219999999
 30
0.0
 11
615.879139
 21
-913.9343219999998
 31
0.0
  0
LINE
  5
133
330
A
100
AcDbEntity
  8
Hawa5
 62
     1
 48
0.017678
100
AcDbLine
 10
615.379139
 20
-914.4343219999999
 30
0.0
 11
614.879139
 21
-914.934322
 31
0.0
  0
LINE
  5
134
330
A
100
AcDbEntity
  8
Hawa5
 62
     1
 48
0.017678
100
AcDbLine
 10
-233.620861
 20
-914.4343219999999
 30
0.0
 11
-233.120861
 21
-914.934322
 31
0.0
  0
LINE
  5
135
330
A
100
AcDbEntity
  8
Hawa5
 62
     1
100
AcDbLine
 10
-233.120861
 20
-914.934322
 30
0.0
 11
614.879139
 21
-914.934322
 31
0.0
  0
LINE
  5
136
330
A
100
AcDbEntity
  8
Hawa5
 62
     1
 48
0.017678
100
AcDbLine
 10
-233.120861
 20
-913.9343219999998
 30
0.0
 11
-233.620861
 21
-914.4343219999999
 31
0.0
  0
LINE
  5
137
330
A
100
AcDbEntity
  8
Hawa5
 62
     1
 48
0.017678
100
AcDbLine
 10
-233.620861
 20
-914.4343219999999
 30
0.0
 11
-234.120861
 21
-913.9343219999998
 31
0.0
  0
LINE
  5
138
330
A
100
AcDbEntity
  8
Hawa5
 62
     1
 48
0.017678
100
AcDbLine
 10
-233.620861
 20
1084.565678
 30
0.0
 11
-233.120861
 21
1085.065678
 31
0.0
  0
LINE
  5
139
330
A
100
AcDbEntity
  8
Hawa5
 62
     1
 48
0.017678
100
AcDbLine
 10
-233.120861
 20
1084.065678
 30
0.0
 11
-233.620861
 21
1084.565678
 31
0.0
  0
LINE
  5
13A
330
A
100
AcDbEntity
  8
Hawa5
 62
     1
100
AcDbLine
 10
-111.620861
 20
1085.065678
 30
0.0
 11
-233.120861
 21
1085.065678
 31
0.0
  0
LINE
  5
13B
330
A
100
AcDbEntity
  8
Hawa5
 62
     1
100
AcDbLine
 10
-234.120861
 20
-913.9343219999998
 30
0.0
 11
-234.120861
 21
1084.065678
 31
0.0
  0
LINE
  5
13C
330
A
100
AcDbEntity
  8
Hawa5
 62
     1
 48
0.017678
100
AcDbLine
 10
-233.620861
 20
1084.565678
 30
0.0
 11
-234.120861
 21
1084.065678
 31
0.0
  0
VIEWPORT
  5
2F
102
{ACAD_XDICTIONARY
360
39D
102
}
330
B
100
AcDbEntity
 67
     1
  8
0
 62
     0
100
AcDbViewport
 10
0.0
 20
0.0
 30
0.0
 40
1000.0
 41
1000.0
 68
     1
 69
     1
 12
0.0
 22
0.0
 13
0.0
 23
0.0
 14
1.0
 24
1.0
 15
1.0
 25
1.0
 16
0.0
 26
0.0
 36
1.0
 17
0.0
 27
0.0
 37
0.0
 42
50.0
 43
0.0
 44
0.0
 45
1000.0
 50
0.0
 51
0.0
 72
   100
 90
   557216
  1

281
     0
 71
     1
 74
     0
110
0.0
120
0.0
130
0.0
111
1.0
121
0.0
131
0.0
112
0.0
122
1.0
132
0.0
 79
     0
146
0.0
  0
ENDSEC
  0
SECTION
  2
OBJECTS
  0
DICTIONARY
  5
19
330
0
100
AcDbDictionary
281
     1
  3
ACAD_COLOR
350
162
  3
ACAD_GROUP
350
1A
  3
ACAD_LAYOUT
350
E4
  3
ACAD_MATERIAL
350
14D
  3
ACAD_MLEADERSTYLE
350
144
  3
ACAD_MLINESTYLE
350
1B
  3
ACAD_PLOTSETTINGS
350
165
  3
ACAD_PLOTSTYLENAME
350
14B
  3
ACAD_SCALELIST
350
E7
  3
ACAD_TABLESTYLE
350
163
  3
ACAD_VISUALSTYLE
350
151
  3
AcDbVariableDictionary
350
142
  3
DWGPROPS
350
39C
  0
DICTIONARY
  5
39D
330
2F
100
AcDbDictionary
280
     1
281
     1
  3
ACAD_XREC_ROUNDTRIP
360
39E
  0
DICTIONARY
  5
162
102
{ACAD_REACTORS
330
19
102
}
330
19
100
AcDbDictionary
281
     1
  0
DICTIONARY
  5
1A
102
{ACAD_REACTORS
330
19
102
}
330
19
100
AcDbDictionary
281
     1
  0
DICTIONARY
  5
E4
102
{ACAD_REACTORS
330
19
102
}
330
19
100
AcDbDictionary
281
     1
  3
Layout1
350
E6
  3
Model
350
E5
  0
DICTIONARY
  5
14D
102
{ACAD_REACTORS
330
19
102
}
330
19
100
AcDbDictionary
281
     1
  3
ByBlock
350
14F
  3
ByLayer
350
14E
  3
Global
350
150
  0
DICTIONARY
  5
144
102
{ACAD_REACTORS
330
19
102
}
330
19
100
AcDbDictionary
281
     1
  0
DICTIONARY
  5
1B
102
{ACAD_REACTORS
330
19
102
}
330
19
100
AcDbDictionary
281
     1
  3
STANDARD
350
1C
  0
DICTIONARY
  5
165
102
{ACAD_REACTORS
330
19
102
}
330
19
100
AcDbDictionary
281
     1
  0
ACDBDICTIONARYWDFLT
  5
14B
102
{ACAD_REACTORS
330
19
102
}
330
19
100
AcDbDictionary
281
     1
  3
Normal
350
14C
100
AcDbDictionaryWithDefault
340
14C
  0
DICTIONARY
  5
E7
102
{ACAD_REACTORS
330
19
102
}
330
19
100
AcDbDictionary
281
     1
  3
A0
350
E8
  3
A1
350
E9
  3
A2
350
EA
  3
A3
350
EB
  3
A4
350
EC
  3
A5
350
ED
  3
A6
350
EE
  3
A7
350
EF
  3
A8
350
F0
  3
A9
350
F1
  3
B0
350
F2
  3
B1
350
F3
  3
B2
350
F4
  3
B3
350
F5
  3
B4
350
F6
  3
B5
350
F7
  3
B6
350
F8
  3
B7
350
F9
  3
B8
350
FA
  3
B9
350
FB
  3
C0
350
FC
  3
C1
350
FD
  3
C2
350
FE
  3
C3
350
FF
  3
C4
350
100
  3
C5
350
101
  3
C6
350
102
  3
C7
350
103
  3
C8
350
104
  3
C9
350
105
  3
D0
350
106
  3
D1
350
107
  3
D2
350
108
  0
DICTIONARY
  5
163
102
{ACAD_REACTORS
330
19
102
}
330
19
100
AcDbDictionary
281
     1
  3
Standard
350
164
  0
DICTIONARY
  5
151
102
{ACAD_REACTORS
330
19
102
}
330
19
100
AcDbDictionary
281
     1
  3
2dWireframe
350
157
  3
3D Hidden
350
159
  3
3dWireframe
350
158
  3
Basic
350
156
  3
Brighten
350
15D
  3
ColorChange
350
161
  3
Conceptual
350
15A
  3
Dim
350
15C
  3
Facepattern
350
160
  3
Flat
350
152
  3
FlatWithEdges
350
153
  3
Gouraud
350
154
  3
GouraudWithEdges
350
155
  3
Linepattern
350
15F
  3
Realistic
350
15B
  3
Thicken
350
15E
  0
DICTIONARY
  5
142
102
{ACAD_REACTORS
330
19
102
}
330
19
100
AcDbDictionary
281
     1
  3
CANNOSCALE
350
145
  3
CTABLESTYLE
350
31D
  3
DIMASSOC
350
39B
  3
INDEXCTL
350
39A
  3
SORTENTS
350
399
  0
XRECORD
  5
39C
102
{ACAD_REACTORS
330
19
102
}
330
19
100
AcDbXrecord
280
     1
  1
DWGPROPS COOKIE
  2

  3

  4

  6

  7

  8
buet
  9

300
=
301
=
302
=
303
=
304
=
305
=
306
=
307
=
308
=
309
=
 40
0.0170440740740741
 41
2447893.0
 42
2456721.406804329
  1

 90
        0
  0
XRECORD
  5
39E
102
{ACAD_REACTORS
330
39D
102
}
330
39D
100
AcDbXrecord
280
     1
102
SHADEPLOT
 70
     0
  0
LAYOUT
  5
E6
102
{ACAD_XDICTIONARY
360
3A1
102
}
102
{ACAD_REACTORS
330
E4
102
}
330
E4
100
AcDbPlotSettings
  1

  2
none_device
  4

  6

 40
0.0
 41
0.0
 42
0.0
 43
0.0
 44
0.0
 45
0.0
 46
0.0
 47
0.0
 48
0.0
 49
0.0
140
0.0
141
0.0
142
1.0
143
1.0
 70
   688
 72
     0
 73
     0
 74
     5
  7

 75
    16
147
1.0
148
0.0
149
0.0
100
AcDbLayout
  1
Layout1
 70
     1
 71
     1
 10
0.0
 20
0.0
 11
420.0
 21
297.0
 12
0.0
 22
0.0
 32
0.0
 14
0.0
 24
0.0
 34
0.0
 15
205.054657
 25
283.060669
 35
2.0
146
0.0
 13
0.0
 23
0.0
 33
0.0
 16
1.0
 26
0.0
 36
0.0
 17
0.0
 27
1.0
 37
0.0
 76
     0
330
B
331
2F
  0
LAYOUT
  5
E5
102
{ACAD_XDICTIONARY
360
39F
102
}
102
{ACAD_REACTORS
330
E4
102
}
330
E4
100
AcDbPlotSettings
  1

  2
none_device
  4

  6

 40
0.0
 41
0.0
 42
0.0
 43
0.0
 44
0.0
 45
0.0
 46
0.0
 47
0.0
 48
0.0
 49
0.0
140
0.0
141
0.0
142
1.0
143
1.0
 70
   688
 72
     0
 73
     0
 74
     5
  7

 75
    16
147
1.0
148
0.0
149
0.0
100
AcDbLayout
  1
Model
 70
     1
 71
     0
 10
0.0
 20
0.0
 11
0.0
 21
0.0
 12
0.0
 22
0.0
 32
0.0
 14
0.0
 24
0.0
 34
0.0
 15
0.0
 25
0.0
 35
0.0
146
0.0
 13
0.0
 23
0.0
 33
0.0
 16
1.0
 26
0.0
 36
0.0
 17
0.0
 27
1.0
 37
0.0
 76
     0
330
A
331
15
  0
MATERIAL
  5
14F
102
{ACAD_XDICTIONARY
360
3A5
102
}
102
{ACAD_REACTORS
330
14D
102
}
330
14D
100
AcDbMaterial
  1
ByBlock
  0
MATERIAL
  5
14E
102
{ACAD_XDICTIONARY
360
3A3
102
}
102
{ACAD_REACTORS
330
14D
102
}
330
14D
100
AcDbMaterial
  1
ByLayer
  0
MATERIAL
  5
150
102
{ACAD_XDICTIONARY
360
3A7
102
}
102
{ACAD_REACTORS
330
14D
102
}
330
14D
100
AcDbMaterial
  1
Global
  0
MLINESTYLE
  5
1C
102
{ACAD_REACTORS
330
1B
102
}
330
1B
100
AcDbMlineStyle
  2
STANDARD
 70
     0
  3

 62
     0
 51
90.0
 52
90.0
 71
     2
 49
0.5
 62
   256
  6
BYLAYER
 49
-0.5
 62
   256
  6
BYLAYER
  0
ACDBPLACEHOLDER
  5
14C
102
{ACAD_REACTORS
330
14B
102
}
330
14B
  0
SCALE
  5
E8
102
{ACAD_REACTORS
330
E7
102
}
330
E7
100
AcDbScale
 70
     0
300
1:1
140
1.0
141
1.0
290
     1
1001
ACAD
1000
AcRTDxfName
1000
SCALE
  0
SCALE
  5
E9
102
{ACAD_REACTORS
330
E7
102
}
330
E7
100
AcDbScale
 70
     0
300
1:2
140
1.0
141
2.0
290
     0
1001
ACAD
1000
AcRTDxfName
1000
SCALE
  0
SCALE
  5
EA
102
{ACAD_REACTORS
330
E7
102
}
330
E7
100
AcDbScale
 70
     0
300
1:4
140
1.0
141
4.0
290
     0
1001
ACAD
1000
AcRTDxfName
1000
SCALE
  0
SCALE
  5
EB
102
{ACAD_REACTORS
330
E7
102
}
330
E7
100
AcDbScale
 70
     0
300
1:5
140
1.0
141
5.0
290
     0
1001
ACAD
1000
AcRTDxfName
1000
SCALE
  0
SCALE
  5
EC
102
{ACAD_REACTORS
330
E7
102
}
330
E7
100
AcDbScale
 70
     0
300
1:8
140
1.0
141
8.0
290
     0
1001
ACAD
1000
AcRTDxfName
1000
SCALE
  0
SCALE
  5
ED
102
{ACAD_REACTORS
330
E7
102
}
330
E7
100
AcDbScale
 70
     0
300
1:10
140
1.0
141
10.0
290
     0
1001
ACAD
1000
AcRTDxfName
1000
SCALE
  0
SCALE
  5
EE
102
{ACAD_REACTORS
330
E7
102
}
330
E7
100
AcDbScale
 70
     0
300
1:16
140
1.0
141
16.0
290
     0
1001
ACAD
1000
AcRTDxfName
1000
SCALE
  0
SCALE
  5
EF
102
{ACAD_REACTORS
330
E7
102
}
330
E7
100
AcDbScale
 70
     0
300
1:20
140
1.0
141
20.0
290
     0
1001
ACAD
1000
AcRTDxfName
1000
SCALE
  0
SCALE
  5
F0
102
{ACAD_REACTORS
330
E7
102
}
330
E7
100
AcDbScale
 70
     0
300
1:30
140
1.0
141
30.0
290
     0
1001
ACAD
1000
AcRTDxfName
1000
SCALE
  0
SCALE
  5
F1
102
{ACAD_REACTORS
330
E7
102
}
330
E7
100
AcDbScale
 70
     0
300
1:40
140
1.0
141
40.0
290
     0
1001
ACAD
1000
AcRTDxfName
1000
SCALE
  0
SCALE
  5
F2
102
{ACAD_REACTORS
330
E7
102
}
330
E7
100
AcDbScale
 70
     0
300
1:50
140
1.0
141
50.0
290
     0
1001
ACAD
1000
AcRTDxfName
1000
SCALE
  0
SCALE
  5
F3
102
{ACAD_REACTORS
330
E7
102
}
330
E7
100
AcDbScale
 70
     0
300
1:100
140
1.0
141
100.0
290
     0
1001
ACAD
1000
AcRTDxfName
1000
SCALE
  0
SCALE
  5
F4
102
{ACAD_REACTORS
330
E7
102
}
330
E7
100
AcDbScale
 70
     0
300
2:1
140
2.0
141
1.0
290
     0
1001
ACAD
1000
AcRTDxfName
1000
SCALE
  0
SCALE
  5
F5
102
{ACAD_REACTORS
330
E7
102
}
330
E7
100
AcDbScale
 70
     0
300
4:1
140
4.0
141
1.0
290
     0
1001
ACAD
1000
AcRTDxfName
1000
SCALE
  0
SCALE
  5
F6
102
{ACAD_REACTORS
330
E7
102
}
330
E7
100
AcDbScale
 70
     0
300
8:1
140
8.0
141
1.0
290
     0
1001
ACAD
1000
AcRTDxfName
1000
SCALE
  0
SCALE
  5
F7
102
{ACAD_REACTORS
330
E7
102
}
330
E7
100
AcDbScale
 70
     0
300
10:1
140
10.0
141
1.0
290
     0
1001
ACAD
1000
AcRTDxfName
1000
SCALE
  0
SCALE
  5
F8
102
{ACAD_REACTORS
330
E7
102
}
330
E7
100
AcDbScale
 70
     0
300
100:1
140
100.0
141
1.0
290
     0
1001
ACAD
1000
AcRTDxfName
1000
SCALE
  0
SCALE
  5
F9
102
{ACAD_REACTORS
330
E7
102
}
330
E7
100
AcDbScale
 70
     0
300
1/128" = 1'-0"
140
0.0078125
141
12.0
290
     0
1001
ACAD
1000
AcRTDxfName
1000
SCALE
  0
SCALE
  5
FA
102
{ACAD_REACTORS
330
E7
102
}
330
E7
100
AcDbScale
 70
     0
300
1/64" = 1'-0"
140
0.015625
141
12.0
290
     0
1001
ACAD
1000
AcRTDxfName
1000
SCALE
  0
SCALE
  5
FB
102
{ACAD_REACTORS
330
E7
102
}
330
E7
100
AcDbScale
 70
     0
300
1/32" = 1'-0"
140
0.03125
141
12.0
290
     0
1001
ACAD
1000
AcRTDxfName
1000
SCALE
  0
SCALE
  5
FC
102
{ACAD_REACTORS
330
E7
102
}
330
E7
100
AcDbScale
 70
     0
300
1/16" = 1'-0"
140
0.0625
141
12.0
290
     0
1001
ACAD
1000
AcRTDxfName
1000
SCALE
  0
SCALE
  5
FD
102
{ACAD_REACTORS
330
E7
102
}
330
E7
100
AcDbScale
 70
     0
300
3/32" = 1'-0"
140
0.09375
141
12.0
290
     0
1001
ACAD
1000
AcRTDxfName
1000
SCALE
  0
SCALE
  5
FE
102
{ACAD_REACTORS
330
E7
102
}
330
E7
100
AcDbScale
 70
     0
300
1/8" = 1'-0"
140
0.125
141
12.0
290
     0
1001
ACAD
1000
AcRTDxfName
1000
SCALE
  0
SCALE
  5
FF
102
{ACAD_REACTORS
330
E7
102
}
330
E7
100
AcDbScale
 70
     0
300
3/16" = 1'-0"
140
0.1875
141
12.0
290
     0
1001
ACAD
1000
AcRTDxfName
1000
SCALE
  0
SCALE
  5
100
102
{ACAD_REACTORS
330
E7
102
}
330
E7
100
AcDbScale
 70
     0
300
1/4" = 1'-0"
140
0.25
141
12.0
290
     0
1001
ACAD
1000
AcRTDxfName
1000
SCALE
  0
SCALE
  5
101
102
{ACAD_REACTORS
330
E7
102
}
330
E7
100
AcDbScale
 70
     0
300
3/8" = 1'-0"
140
0.375
141
12.0
290
     0
1001
ACAD
1000
AcRTDxfName
1000
SCALE
  0
SCALE
  5
102
102
{ACAD_REACTORS
330
E7
102
}
330
E7
100
AcDbScale
 70
     0
300
1/2" = 1'-0"
140
0.5
141
12.0
290
     0
1001
ACAD
1000
AcRTDxfName
1000
SCALE
  0
SCALE
  5
103
102
{ACAD_REACTORS
330
E7
102
}
330
E7
100
AcDbScale
 70
     0
300
3/4" = 1'-0"
140
0.75
141
12.0
290
     0
1001
ACAD
1000
AcRTDxfName
1000
SCALE
  0
SCALE
  5
104
102
{ACAD_REACTORS
330
E7
102
}
330
E7
100
AcDbScale
 70
     0
300
1" = 1'-0"
140
1.0
141
12.0
290
     0
1001
ACAD
1000
AcRTDxfName
1000
SCALE
  0
SCALE
  5
105
102
{ACAD_REACTORS
330
E7
102
}
330
E7
100
AcDbScale
 70
     0
300
1-1/2" = 1'-0"
140
1.5
141
12.0
290
     0
1001
ACAD
1000
AcRTDxfName
1000
SCALE
  0
SCALE
  5
106
102
{ACAD_REACTORS
330
E7
102
}
330
E7
100
AcDbScale
 70
     0
300
3" = 1'-0"
140
3.0
141
12.0
290
     0
1001
ACAD
1000
AcRTDxfName
1000
SCALE
  0
SCALE
  5
107
102
{ACAD_REACTORS
330
E7
102
}
330
E7
100
AcDbScale
 70
     0
300
6" = 1'-0"
140
6.0
141
12.0
290
     0
1001
ACAD
1000
AcRTDxfName
1000
SCALE
  0
SCALE
  5
108
102
{ACAD_REACTORS
330
E7
102
}
330
E7
100
AcDbScale
 70
     0
300
1'-0" = 1'-0"
140
12.0
141
12.0
290
     0
1001
ACAD
1000
AcRTDxfName
1000
SCALE
  0
TABLESTYLE
  5
164
102
{ACAD_XDICTIONARY
360
3A9
102
}
102
{ACAD_REACTORS
330
163
102
}
330
163
100
AcDbTableStyle
  3
Standard
 70
     0
 71
     0
 40
1.5
 41
1.5
280
     0
281
     0
  7
STANDARD
140
4.5
170
     2
 62
     0
 63
     7
283
     0
274
    -2
284
     1
 64
     0
275
    -2
285
     1
 65
     0
276
    -2
286
     1
 66
     0
277
    -2
287
     1
 67
     0
278
    -2
288
     1
 68
     0
279
    -2
289
     1
 69
     0
  7
STANDARD
140
6.0
170
     5
 62
     0
 63
     7
283
     0
274
    -2
284
     1
 64
     0
275
    -2
285
     1
 65
     0
276
    -2
286
     1
 66
     0
277
    -2
287
     1
 67
     0
278
    -2
288
     1
 68
     0
279
    -2
289
     1
 69
     0
  7
STANDARD
140
4.5
170
     5
 62
     0
 63
     7
283
     0
274
    -2
284
     1
 64
     0
275
    -2
285
     1
 65
     0
276
    -2
286
     1
 66
     0
277
    -2
287
     1
 67
     0
278
    -2
288
     1
 68
     0
279
    -2
289
     1
 69
     0
  0
VISUALSTYLE
  5
157
102
{ACAD_REACTORS
330
151
102
}
330
151
100
AcDbVisualStyle
  2
2dWireframe
 70
     4
 71
     0
 72
     2
 73
     0
 90
        0
 40
-0.6
 41
-30.0
 62
     5
 63
     7
 74
     1
 91
        4
 64
     7
 65
   257
 75
     1
175
     1
 42
1.0
 92
        0
 66
   257
 43
1.0
 76
     1
 77
     6
 78
     2
 67
     7
 79
     5
170
     0
171
     0
290
     0
174
     0
 93
        1
 44
0.0
173
     0
291
     0
 45
0.0
1001
ACAD
1000
AcDbSavedByObjectVersion
1070
     0
  0
VISUALSTYLE
  5
159
102
{ACAD_REACTORS
330
151
102
}
330
151
100
AcDbVisualStyle
  2
3D Hidden
 70
     6
 71
     1
 72
     2
 73
     2
 90
        0
 40
-0.6
 41
-30.0
 62
     5
 63
     7
 74
     2
 91
        2
 64
     7
 65
   257
 75
     2
175
     1
 42
40.0
 92
        0
 66
   257
 43
1.0
 76
     1
 77
     6
 78
     2
 67
     7
 79
     3
170
     0
171
     0
290
     0
174
     0
 93
        1
 44
0.0
173
     0
291
     0
 45
0.0
1001
ACAD
1000
AcDbSavedByObjectVersion
1070
     0
  0
VISUALSTYLE
  5
158
102
{ACAD_REACTORS
330
151
102
}
330
151
100
AcDbVisualStyle
  2
3dWireframe
 70
     5
 71
     0
 72
     2
 73
     0
 90
        0
 40
-0.6
 41
-30.0
 62
     5
 63
     7
 74
     1
 91
        4
 64
     7
 65
   257
 75
     1
175
     1
 42
1.0
 92
        0
 66
   257
 43
1.0
 76
     1
 77
     6
 78
     2
 67
     7
 79
     5
170
     0
171
     0
290
     0
174
     0
 93
        1
 44
0.0
173
     0
291
     0
 45
0.0
1001
ACAD
1000
AcDbSavedByObjectVersion
1070
     0
  0
VISUALSTYLE
  5
156
102
{ACAD_REACTORS
330
151
102
}
330
151
100
AcDbVisualStyle
  2
Basic
 70
     7
 71
     1
 72
     0
 73
     1
 90
        0
 40
-0.6
 41
-30.0
 62
     5
 63
     7
 74
     0
 91
        4
 64
     7
 65
   257
 75
     1
175
     1
 42
1.0
 92
        8
 66
     7
 43
1.0
 76
     1
 77
     6
 78
     2
 67
     7
 79
     5
170
     0
171
     0
290
     0
174
     0
 93
        1
 44
0.0
173
     0
291
     1
 45
0.0
1001
ACAD
1000
AcDbSavedByObjectVersion
1070
     0
  0
VISUALSTYLE
  5
15D
102
{ACAD_REACTORS
330
151
102
}
330
151
100
AcDbVisualStyle
  2
Brighten
 70
    12
 71
     2
 72
     2
 73
     0
 90
        0
 40
-0.6
 41
-30.0
 62
     5
 63
     7
 74
     1
 91
        4
 64
     7
 65
   257
 75
     1
175
     1
 42
1.0
 92
        8
 66
     7
 43
1.0
 76
     1
 77
     6
 78
     2
 67
     7
 79
     5
170
     0
171
     0
290
     0
174
     0
 93
        1
 44
50.0
173
     0
291
     1
 45
0.0
1001
ACAD
1000
AcDbSavedByObjectVersion
1070
     0
  0
VISUALSTYLE
  5
161
102
{ACAD_REACTORS
330
151
102
}
330
151
100
AcDbVisualStyle
  2
ColorChange
 70
    16
 71
     2
 72
     2
 73
     3
 90
        0
 40
-0.6
 41
-30.0
 62
     5
 63
     8
 74
     1
 91
        4
 64
     7
 65
   257
 75
     1
175
     1
 42
1.0
 92
        8
 66
     8
 43
1.0
 76
     1
 77
     6
 78
     2
 67
     7
 79
     5
170
     0
171
     0
290
     0
174
     0
 93
        1
 44
0.0
173
     0
291
     1
 45
0.0
1001
ACAD
1000
AcDbSavedByObjectVersion
1070
     0
  0
VISUALSTYLE
  5
15A
102
{ACAD_REACTORS
330
151
102
}
330
151
100
AcDbVisualStyle
  2
Conceptual
 70
     9
 71
     3
 72
     2
 73
     0
 90
        0
 40
-0.6
 41
-30.0
 62
     5
 63
     7
 74
     2
 91
        2
 64
     7
 65
   257
 75
     1
175
     1
 42
40.0
 92
        8
 66
     7
 43
1.0
 76
     1
 77
     6
 78
     2
 67
     7
 79
     3
170
     0
171
     0
290
     0
174
     0
 93
        1
 44
0.0
173
     0
291
     0
 45
0.0
1001
ACAD
1000
AcDbSavedByObjectVersion
1070
     0
  0
VISUALSTYLE
  5
15C
102
{ACAD_REACTORS
330
151
102
}
330
151
100
AcDbVisualStyle
  2
Dim
 70
    11
 71
     2
 72
     2
 73
     0
 90
        0
 40
-0.6
 41
-30.0
 62
     5
 63
     7
 74
     1
 91
        4
 64
     7
 65
   257
 75
     1
175
     1
 42
1.0
 92
        8
 66
     7
 43
1.0
 76
     1
 77
     6
 78
     2
 67
     7
 79
     5
170
     0
171
     0
290
     0
174
     0
 93
        1
 44
-50.0
173
     0
291
     1
 45
0.0
1001
ACAD
1000
AcDbSavedByObjectVersion
1070
     0
  0
VISUALSTYLE
  5
160
102
{ACAD_REACTORS
330
151
102
}
330
151
100
AcDbVisualStyle
  2
Facepattern
 70
    15
 71
     2
 72
     2
 73
     0
 90
        0
 40
-0.6
 41
-30.0
 62
     5
 63
     7
 74
     1
 91
        4
 64
     7
 65
   257
 75
     1
175
     1
 42
1.0
 92
        8
 66
     7
 43
1.0
 76
     1
 77
     6
 78
     2
 67
     7
 79
     5
170
     0
171
     0
290
     0
174
     0
 93
        1
 44
0.0
173
     0
291
     1
 45
0.0
1001
ACAD
1000
AcDbSavedByObjectVersion
1070
     0
  0
VISUALSTYLE
  5
152
102
{ACAD_REACTORS
330
151
102
}
330
151
100
AcDbVisualStyle
  2
Flat
 70
     0
 71
     2
 72
     1
 73
     1
 90
        2
 40
-0.6
 41
30.0
 62
     5
 63
     7
 74
     0
 91
        4
 64
     7
 65
   257
 75
     1
175
     1
 42
1.0
 92
        8
 66
     7
 43
1.0
 76
     1
 77
     6
 78
     2
 67
     7
 79
     5
170
     0
171
     0
290
     0
174
     0
 93
       13
 44
0.0
173
     0
291
     1
 45
0.0
1001
ACAD
1000
AcDbSavedByObjectVersion
1070
     0
  0
VISUALSTYLE
  5
153
102
{ACAD_REACTORS
330
151
102
}
330
151
100
AcDbVisualStyle
  2
FlatWithEdges
 70
     1
 71
     2
 72
     1
 73
     1
 90
        2
 40
-0.6
 41
30.0
 62
     5
 63
     7
 74
     1
 91
        4
 64
     7
 65
   257
 75
     1
175
     1
 42
1.0
 92
        0
 66
   257
 43
1.0
 76
     1
 77
     6
 78
     2
 67
     7
 79
     5
170
     0
171
     0
290
     0
174
     0
 93
       13
 44
0.0
173
     0
291
     1
 45
0.0
1001
ACAD
1000
AcDbSavedByObjectVersion
1070
     0
  0
VISUALSTYLE
  5
154
102
{ACAD_REACTORS
330
151
102
}
330
151
100
AcDbVisualStyle
  2
Gouraud
 70
     2
 71
     2
 72
     2
 73
     1
 90
        2
 40
-0.6
 41
30.0
 62
     5
 63
     7
 74
     0
 91
        4
 64
     7
 65
   257
 75
     1
175
     1
 42
1.0
 92
        0
 66
     7
 43
1.0
 76
     1
 77
     6
 78
     2
 67
     7
 79
     5
170
     0
171
     0
290
     0
174
     0
 93
       13
 44
0.0
173
     0
291
     1
 45
0.0
1001
ACAD
1000
AcDbSavedByObjectVersion
1070
     0
  0
VISUALSTYLE
  5
155
102
{ACAD_REACTORS
330
151
102
}
330
151
100
AcDbVisualStyle
  2
GouraudWithEdges
 70
     3
 71
     2
 72
     2
 73
     1
 90
        2
 40
-0.6
 41
30.0
 62
     5
 63
     7
 74
     1
 91
        4
 64
     7
 65
   257
 75
     1
175
     1
 42
1.0
 92
        0
 66
   257
 43
1.0
 76
     1
 77
     6
 78
     2
 67
     7
 79
     5
170
     0
171
     0
290
     0
174
     0
 93
       13
 44
0.0
173
     0
291
     1
 45
0.0
1001
ACAD
1000
AcDbSavedByObjectVersion
1070
     0
  0
VISUALSTYLE
  5
15F
102
{ACAD_REACTORS
330
151
102
}
330
151
100
AcDbVisualStyle
  2
Linepattern
 70
    14
 71
     2
 72
     2
 73
     0
 90
        0
 40
-0.6
 41
-30.0
 62
     5
 63
     7
 74
     1
 91
        4
 64
     7
 65
   257
 75
     7
175
     7
 42
1.0
 92
        8
 66
     7
 43
1.0
 76
     1
 77
     6
 78
     2
 67
     7
 79
     5
170
     0
171
     0
290
     0
174
     0
 93
        1
 44
0.0
173
     0
291
     1
 45
0.0
1001
ACAD
1000
AcDbSavedByObjectVersion
1070
     0
  0
VISUALSTYLE
  5
15B
102
{ACAD_REACTORS
330
151
102
}
330
151
100
AcDbVisualStyle
  2
Realistic
 70
     8
 71
     2
 72
     2
 73
     0
 90
        0
 40
-0.6
 41
-30.0
 62
     5
 63
     7
 74
     1
 91
        0
 64
     7
 65
   257
 75
     1
175
     1
 42
1.0
 92
        8
 66
     8
 43
1.0
 76
     1
 77
     6
 78
     2
 67
     7
 79
     5
170
     0
171
     0
290
     0
174
     0
 93
       13
 44
0.0
173
     0
291
     0
 45
0.0
1001
ACAD
1000
AcDbSavedByObjectVersion
1070
     0
  0
VISUALSTYLE
  5
15E
102
{ACAD_REACTORS
330
151
102
}
330
151
100
AcDbVisualStyle
  2
Thicken
 70
    13
 71
     2
 72
     2
 73
     0
 90
        0
 40
-0.6
 41
-30.0
 62
     5
 63
     7
 74
     1
 91
        4
 64
     7
 65
   257
 75
     1
175
     1
 42
1.0
 92
       12
 66
     7
 43
1.0
 76
     1
 77
     6
 78
     2
 67
     7
 79
     5
170
     0
171
     0
290
     0
174
     0
 93
        1
 44
0.0
173
     0
291
     1
 45
0.0
1001
ACAD
1000
AcDbSavedByObjectVersion
1070
     0
  0
DICTIONARYVAR
  5
145
102
{ACAD_REACTORS
330
142
102
}
330
142
100
DictionaryVariables
280
     0
  1
1:1
  0
DICTIONARYVAR
  5
31D
102
{ACAD_REACTORS
330
142
102
}
330
142
100
DictionaryVariables
280
     0
  1
STANDARD
  0
DICTIONARYVAR
  5
39B
102
{ACAD_REACTORS
330
142
102
}
330
142
100
DictionaryVariables
280
     0
  1
1
  0
DICTIONARYVAR
  5
39A
102
{ACAD_REACTORS
330
142
102
}
330
142
100
DictionaryVariables
280
     0
  1
0
  0
DICTIONARYVAR
  5
399
102
{ACAD_REACTORS
330
142
102
}
330
142
100
DictionaryVariables
280
     0
  1
127
  0
DICTIONARY
  5
3A1
330
E6
100
AcDbDictionary
280
     1
281
     1
  3
ACAD_XREC_ROUNDTRIP
360
3A2
  0
DICTIONARY
  5
39F
330
E5
100
AcDbDictionary
280
     1
281
     1
  3
ACAD_XREC_ROUNDTRIP
360
3A0
  0
DICTIONARY
  5
3A5
330
14F
100
AcDbDictionary
280
     1
281
     1
  3
ACAD_XREC_ROUNDTRIP
360
3A6
  0
DICTIONARY
  5
3A3
330
14E
100
AcDbDictionary
280
     1
281
     1
  3
ACAD_XREC_ROUNDTRIP
360
3A4
  0
DICTIONARY
  5
3A7
330
150
100
AcDbDictionary
280
     1
281
     1
  3
ACAD_XREC_ROUNDTRIP
360
3A8
  0
DICTIONARY
  5
3A9
330
164
100
AcDbDictionary
280
     1
281
     1
  3
ACAD_XREC_ROUNDTRIP
360
3AA
  0
XRECORD
  5
3A2
102
{ACAD_REACTORS
330
3A1
102
}
330
3A1
100
AcDbXrecord
280
     1
102
SHADEPLOT
 70
     0
102
SHADEPLOTRESLEVEL
 70
     2
102
SHADEPLOTCUSTOMDPI
 70
   300
  0
XRECORD
  5
3A0
102
{ACAD_REACTORS
330
39F
102
}
330
39F
100
AcDbXrecord
280
     1
102
SHADEPLOT
 70
     0
102
SHADEPLOTRESLEVEL
 70
     2
102
SHADEPLOTCUSTOMDPI
 70
   300
  0
XRECORD
  5
3A6
102
{ACAD_REACTORS
330
3A5
102
}
330
3A5
100
AcDbXrecord
280
     1
102
MATERIAL
148
0.0
149
0.0
149
0.0
 93
        0
 94
       63
282
     0
 72
     1
 77
     1
171
     1
175
     1
179
     1
273
     0
  0
XRECORD
  5
3A4
102
{ACAD_REACTORS
330
3A3
102
}
330
3A3
100
AcDbXrecord
280
     1
102
MATERIAL
148
0.0
149
0.0
149
0.0
 93
        0
 94
       63
282
     0
 72
     1
 77
     1
171
     1
175
     1
179
     1
273
     0
  0
XRECORD
  5
3A8
102
{ACAD_REACTORS
330
3A7
102
}
330
3A7
100
AcDbXrecord
280
     1
102
MATERIAL
148
0.0
149
0.0
149
0.0
 93
        0
 94
       63
282
     0
 72
     1
 77
     1
171
     1
175
     1
179
     1
273
     0
  0
XRECORD
  5
3AA
102
{ACAD_REACTORS
330
3A9
102
}
330
3A9
100
AcDbXrecord
280
     1
102
ACAD_ROUNDTRIP_PRE2007_TABLESTYLE
 90
      512
 91
        0
  1

 92
      512
 93
        0
  2

 94
      512
 95
        0
  3

  0
ENDSEC
  0
EOF
