  0
SECTION
  2
HEADER
  9
$ACADVER
  1
AC1015
  9
$ACADMAINTVER
 70
    20
  9
$DWGCODEPAGE
  3
ANSI_1252
  9
$INSBASE
 10
0.0
 20
0.0
 30
0.0
  9
$EXTMIN
 10
-110.9409210315439
 20
-774.8043524777613
 30
-0.0015258207003583
  9
$EXTMAX
 10
1020.387394997101
 20
1309.02308646394
 30
0.0000000349246037
  9
$LIMMIN
 10
0.0
 20
0.0
  9
$LIMMAX
 10
420.0
 20
297.0
  9
$ORTHOMODE
 70
     0
  9
$REGENMODE
 70
     1
  9
$FILLMODE
 70
     1
  9
$QTEXTMODE
 70
     0
  9
$MIRRTEXT
 70
     1
  9
$LTSCALE
 40
1.0
  9
$ATTMODE
 70
     1
  9
$TEXTSIZE
 40
2.5
  9
$TRACEWID
 40
1.0
  9
$TEXTSTYLE
  7
STANDARD
  9
$CLAYER
  8
0
  9
$CELTYPE
  6
BYLAYER
  9
$CECOLOR
 62
   256
  9
$CELTSCALE
 40
1.0
  9
$DISPSILH
 70
     0
  9
$DIMSCALE
 40
1.0
  9
$DIMASZ
 40
2.0
  9
$DIMEXO
 40
2.0
  9
$DIMDLI
 40
0.0
  9
$DIMRND
 40
0.0
  9
$DIMDLE
 40
1.0
  9
$DIMEXE
 40
1.0
  9
$DIMTP
 40
0.0
  9
$DIMTM
 40
0.0
  9
$DIMTXT
 40
3.5
  9
$DIMCEN
 40
0.0
  9
$DIMTSZ
 40
0.0
  9
$DIMTOL
 70
     0
  9
$DIMLIM
 70
     0
  9
$DIMTIH
 70
     0
  9
$DIMTOH
 70
     0
  9
$DIMSE1
 70
     0
  9
$DIMSE2
 70
     0
  9
$DIMTAD
 70
     1
  9
$DIMZIN
 70
     8
  9
$DIMBLK
  1

  9
$DIMASO
 70
     1
  9
$DIMSHO
 70
     1
  9
$DIMPOST
  1

  9
$DIMAPOST
  1

  9
$DIMALT
 70
     1
  9
$DIMALTD
 70
     5
  9
$DIMALTF
 40
0.039370078740157
  9
$DIMLFAC
 40
1.0
  9
$DIMTOFL
 70
     1
  9
$DIMTVP
 40
0.0
  9
$DIMTIX
 70
     0
  9
$DIMSOXD
 70
     0
  9
$DIMSAH
 70
     1
  9
$DIMBLK1
  1
Oblique
  9
$DIMBLK2
  1
Oblique
  9
$DIMSTYLE
  2
HAWA-Strich
  9
$DIMCLRD
 70
   256
  9
$DIMCLRE
 70
   256
  9
$DIMCLRT
 70
   256
  9
$DIMTFAC
 40
0.7114285714285719
  9
$DIMGAP
 40
1.0
  9
$DIMJUST
 70
     0
  9
$DIMSD1
 70
     0
  9
$DIMSD2
 70
     0
  9
$DIMTOLJ
 70
     1
  9
$DIMTZIN
 70
     8
  9
$DIMALTZ
 70
     8
  9
$DIMALTTZ
 70
     8
  9
$DIMUPT
 70
     0
  9
$DIMDEC
 70
     1
  9
$DIMTDEC
 70
     1
  9
$DIMALTU
 70
     4
  9
$DIMALTTD
 70
     5
  9
$DIMTXSTY
  7
Beschlag
  9
$DIMAUNIT
 70
     0
  9
$DIMADEC
 70
     1
  9
$DIMALTRND
 40
0.0
  9
$DIMAZIN
 70
     2
  9
$DIMDSEP
 70
    46
  9
$DIMATFIT
 70
     3
  9
$DIMFRAC
 70
     0
  9
$DIMLDRBLK
  1
Oblique
  9
$DIMLUNIT
 70
     2
  9
$DIMLWD
 70
    -2
  9
$DIMLWE
 70
    -2
  9
$DIMTMOVE
 70
     0
  9
$LUNITS
 70
     2
  9
$LUPREC
 70
     4
  9
$SKETCHINC
 40
1.0
  9
$FILLETRAD
 40
2.5
  9
$AUNITS
 70
     0
  9
$AUPREC
 70
     0
  9
$MENU
  1
.
  9
$ELEVATION
 40
0.0
  9
$PELEVATION
 40
0.0
  9
$THICKNESS
 40
0.0
  9
$LIMCHECK
 70
     0
  9
$CHAMFERA
 40
2.5
  9
$CHAMFERB
 40
2.5
  9
$CHAMFERC
 40
0.0
  9
$CHAMFERD
 40
0.0
  9
$SKPOLY
 70
     0
  9
$TDCREATE
 40
2447893.000000000
  9
$TDUCREATE
 40
2447892.958333333
  9
$TDUPDATE
 40
2456721.407040683
  9
$TDUUPDATE
 40
2456721.365374016
  9
$TDINDWG
 40
0.0321359028
  9
$TDUSRTIMER
 40
0.0321357176
  9
$USRTIMER
 70
     1
  9
$ANGBASE
 50
0.0
  9
$ANGDIR
 70
     0
  9
$PDMODE
 70
     0
  9
$PDSIZE
 40
0.0
  9
$PLINEWID
 40
0.0
  9
$SPLFRAME
 70
     0
  9
$SPLINETYPE
 70
     6
  9
$SPLINESEGS
 70
     8
  9
$HANDSEED
  5
549
  9
$SURFTAB1
 70
     6
  9
$SURFTAB2
 70
     6
  9
$SURFTYPE
 70
     6
  9
$SURFU
 70
     6
  9
$SURFV
 70
     6
  9
$UCSBASE
  2

  9
$UCSNAME
  2

  9
$UCSORG
 10
0.0
 20
0.0
 30
0.0
  9
$UCSXDIR
 10
1.0
 20
0.0
 30
0.0
  9
$UCSYDIR
 10
0.0
 20
1.0
 30
0.0
  9
$UCSORTHOREF
  2

  9
$UCSORTHOVIEW
 70
     0
  9
$UCSORGTOP
 10
0.0
 20
0.0
 30
0.0
  9
$UCSORGBOTTOM
 10
0.0
 20
0.0
 30
0.0
  9
$UCSORGLEFT
 10
0.0
 20
0.0
 30
0.0
  9
$UCSORGRIGHT
 10
0.0
 20
0.0
 30
0.0
  9
$UCSORGFRONT
 10
0.0
 20
0.0
 30
0.0
  9
$UCSORGBACK
 10
0.0
 20
0.0
 30
0.0
  9
$PUCSBASE
  2

  9
$PUCSNAME
  2

  9
$PUCSORG
 10
0.0
 20
0.0
 30
0.0
  9
$PUCSXDIR
 10
1.0
 20
0.0
 30
0.0
  9
$PUCSYDIR
 10
0.0
 20
1.0
 30
0.0
  9
$PUCSORTHOREF
  2

  9
$PUCSORTHOVIEW
 70
     0
  9
$PUCSORGTOP
 10
0.0
 20
0.0
 30
0.0
  9
$PUCSORGBOTTOM
 10
0.0
 20
0.0
 30
0.0
  9
$PUCSORGLEFT
 10
0.0
 20
0.0
 30
0.0
  9
$PUCSORGRIGHT
 10
0.0
 20
0.0
 30
0.0
  9
$PUCSORGFRONT
 10
0.0
 20
0.0
 30
0.0
  9
$PUCSORGBACK
 10
0.0
 20
0.0
 30
0.0
  9
$USERI1
 70
     0
  9
$USERI2
 70
     0
  9
$USERI3
 70
     0
  9
$USERI4
 70
     0
  9
$USERI5
 70
     0
  9
$USERR1
 40
0.0
  9
$USERR2
 40
0.0
  9
$USERR3
 40
0.0
  9
$USERR4
 40
0.0
  9
$USERR5
 40
0.0
  9
$WORLDVIEW
 70
     1
  9
$SHADEDGE
 70
     3
  9
$SHADEDIF
 70
    70
  9
$TILEMODE
 70
     1
  9
$MAXACTVP
 70
    48
  9
$PINSBASE
 10
0.0
 20
0.0
 30
0.0
  9
$PLIMCHECK
 70
     0
  9
$PEXTMIN
 10
0.0
 20
0.0
 30
0.0
  9
$PEXTMAX
 10
1207.164429
 20
282.0
 30
2.0
  9
$PLIMMIN
 10
0.0
 20
0.0
  9
$PLIMMAX
 10
420.0
 20
297.0
  9
$UNITMODE
 70
     0
  9
$VISRETAIN
 70
     0
  9
$PLINEGEN
 70
     0
  9
$PSLTSCALE
 70
     1
  9
$TREEDEPTH
 70
  3020
  9
$CMLSTYLE
  2
STANDARD
  9
$CMLJUST
 70
     0
  9
$CMLSCALE
 40
20.0
  9
$PROXYGRAPHICS
 70
     1
  9
$MEASUREMENT
 70
     1
  9
$CELWEIGHT
370
    -1
  9
$ENDCAPS
280
     0
  9
$JOINSTYLE
280
     0
  9
$LWDISPLAY
290
     0
  9
$INSUNITS
 70
     0
  9
$HYPERLINKBASE
  1

  9
$STYLESHEET
  1

  9
$XEDIT
290
     1
  9
$CEPSNTYPE
380
     0
  9
$PSTYLEMODE
290
     1
  9
$FINGERPRINTGUID
  2
{B74E9110-4564-4982-8086-56B822406C4C}
  9
$VERSIONGUID
  2
{5AE1555A-DEA6-4FC2-92E0-25E89A0D1AF1}
  9
$EXTNAMES
290
     1
  9
$PSVPSCALE
 40
0.0
  9
$OLESTARTUP
290
     0
  0
ENDSEC
  0
SECTION
  2
CLASSES
  0
CLASS
  1
LWPOLYLINE
  2
AcDbPolyline
  3
ObjectDBX Classes
 90
        0
280
     0
281
     1
  0
CLASS
  1
IMAGE
  2
AcDbRasterImage
  3
ISM
 90
    34943
280
     0
281
     1
  0
CLASS
  1
OLE2FRAME
  2
AcDbOle2Frame
  3
ObjectDBX Classes
 90
    32768
280
     0
281
     1
  0
CLASS
  1
HATCH
  2
AcDbHatch
  3
ObjectDBX Classes
 90
    32768
280
     0
281
     1
  0
CLASS
  1
DICTIONARYVAR
  2
AcDbDictionaryVar
  3
ObjectDBX Classes
 90
        0
280
     0
281
     0
  0
CLASS
  1
RASTERVARIABLES
  2
AcDbRasterVariables
  3
ISM
 90
    32768
280
     0
281
     0
  0
CLASS
  1
IMAGEDEF
  2
AcDbRasterImageDef
  3
ISM
 90
    32768
280
     0
281
     0
  0
CLASS
  1
IMAGEDEF_REACTOR
  2
AcDbRasterImageDefReactor
  3
ISM
 90
    32769
280
     0
281
     0
  0
CLASS
  1
IDBUFFER
  2
AcDbIdBuffer
  3
ObjectDBX Classes
 90
    32768
280
     0
281
     0
  0
CLASS
  1
SPATIAL_FILTER
  2
AcDbSpatialFilter
  3
ObjectDBX Classes
 90
    32768
280
     0
281
     0
  0
CLASS
  1
XRECORD
  2
AcDbXrecord
  3
ObjectDBX Classes
 90
        0
280
     0
281
     0
  0
CLASS
  1
SORTENTSTABLE
  2
AcDbSortentsTable
  3
ObjectDBX Classes
 90
    32768
280
     0
281
     0
  0
CLASS
  1
LAYER_INDEX
  2
AcDbLayerIndex
  3
ObjectDBX Classes
 90
    32768
280
     0
281
     0
  0
CLASS
  1
SPATIAL_INDEX
  2
AcDbSpatialIndex
  3
ObjectDBX Classes
 90
    32768
280
     0
281
     0
  0
CLASS
  1
OBJECT_PTR
  2
CAseDLPNTableRecord
  3
ASE-LPNTableRecord
 90
    32769
280
     0
281
     0
  0
CLASS
  1
LAYOUT
  2
AcDbLayout
  3
ObjectDBX Classes
 90
        0
280
     0
281
     0
  0
CLASS
  1
PLOTSETTINGS
  2
AcDbPlotSettings
  3
ObjectDBX Classes
 90
    32768
280
     0
281
     0
  0
CLASS
  1
ACDBDICTIONARYWDFLT
  2
AcDbDictionaryWithDefault
  3
ObjectDBX Classes
 90
        0
280
     0
281
     0
  0
CLASS
  1
ACDBPLACEHOLDER
  2
AcDbPlaceHolder
  3
ObjectDBX Classes
 90
        0
280
     0
281
     0
  0
CLASS
  1
VBA_PROJECT
  2
AcDbVbaProject
  3
acad
 90
    32768
280
     0
281
     0
  0
CLASS
  1
WIPEOUT
  2
AcDbWipeout
  3
"WipeOut|Product Desc: Object Enabler for WipeOut entity                        |Company: Autodesk, Inc.                        |WEB Address: www.autodesk.com"
 90
    34943
280
     0
281
     1
  0
CLASS
  1
WIPEOUTVARIABLES
  2
AcDbWipeoutVariables
  3
"WipeOut|Product Desc:     WipeOut Dbx Application|Company:          Autodesk, Inc.|WEB Address:      www.autodesk.com"
 90
    32768
280
     0
281
     0
  0
CLASS
  1
RTEXT
  2
RText
  3
RText|AutoCAD Express Tool|expresstools@autodesk.com
 90
    32768
280
     0
281
     1
  0
CLASS
  1
ARCALIGNEDTEXT
  2
AcDbArcAlignedText
  3
ATEXT|AutoCAD Express Tool|expresstools@autodesk.com
 90
    32768
280
     0
281
     1
  0
CLASS
  1
SCALE
  2
AcDbScale
  3
ObjectDBX Classes
 90
     1153
280
     0
281
     0
  0
CLASS
  1
MATERIAL
  2
AcDbMaterial
  3
ObjectDBX Classes
 90
     1024
280
     0
281
     0
  0
CLASS
  1
VISUALSTYLE
  2
AcDbVisualStyle
  3
ObjectDBX Classes
 90
     4095
280
     0
281
     0
  0
CLASS
  1
TABLESTYLE
  2
AcDbTableStyle
  3
ObjectDBX Classes
 90
     4095
280
     0
281
     0
  0
ENDSEC
  0
SECTION
  2
TABLES
  0
TABLE
  2
VPORT
  5
7
330
0
100
AcDbSymbolTable
 70
     1
  0
VPORT
  5
15
330
7
100
AcDbSymbolTableRecord
100
AcDbViewportTableRecord
  2
*ACTIVE
 70
     0
 10
0.0
 20
0.0
 11
1.0
 21
1.0
 12
435.4202359299115
 22
-744.9936429634974
 13
0.0
 23
0.0
 14
1.0
 24
1.0
 15
0.0
 25
0.0
 16
0.0
 26
0.0
 36
1.0
 17
0.0
 27
0.0
 37
0.0
 40
133.7606434680616
 41
2.090832632464255
 42
50.0
 43
0.0
 44
0.0
 50
0.0
 51
0.0
 71
     0
 72
   100
 73
     1
 74
     1
 75
     0
 76
     0
 77
     0
 78
     0
281
     0
 65
     1
110
0.0
120
0.0
130
0.0
111
1.0
121
0.0
131
0.0
112
0.0
122
1.0
132
0.0
 79
     0
146
0.0
  0
ENDTAB
  0
TABLE
  2
LTYPE
  5
4
330
0
100
AcDbSymbolTable
 70
     2
  0
LTYPE
  5
11
330
4
100
AcDbSymbolTableRecord
100
AcDbLinetypeTableRecord
  2
BYBLOCK
 70
     0
  3

 72
    65
 73
     0
 40
0.0
  0
LTYPE
  5
12
330
4
100
AcDbSymbolTableRecord
100
AcDbLinetypeTableRecord
  2
BYLAYER
 70
     0
  3

 72
    65
 73
     0
 40
0.0
  0
LTYPE
  5
13
330
4
100
AcDbSymbolTableRecord
100
AcDbLinetypeTableRecord
  2
CONTINUOUS
 70
     0
  3
Solid line
 72
    65
 73
     0
 40
0.0
  0
LTYPE
  5
1D
330
4
100
AcDbSymbolTableRecord
100
AcDbLinetypeTableRecord
  2
DASHDOT
 70
     0
  3
 __ . __ . __ . __ . __ . __ . __ . 
 72
    65
 73
     4
 40
18.5
 49
12.0
 74
     0
 49
-3.0
 74
     0
 49
0.5
 74
     0
 49
-3.0
 74
     0
  0
ENDTAB
  0
TABLE
  2
LAYER
  5
2
330
0
100
AcDbSymbolTable
 70
     4
  0
LAYER
  5
14
330
2
100
AcDbSymbolTableRecord
100
AcDbLayerTableRecord
  2
0
 70
     0
 62
     7
  6
CONTINUOUS
370
    -3
390
199
  0
LAYER
  5
18A
330
2
100
AcDbSymbolTableRecord
100
AcDbLayerTableRecord
  2
Hawa1
 70
     0
 62
     2
  6
CONTINUOUS
370
     0
390
199
  0
LAYER
  5
18D
330
2
100
AcDbSymbolTableRecord
100
AcDbLayerTableRecord
  2
Hawa5
 70
     0
 62
     1
  6
CONTINUOUS
370
    -3
390
199
  0
LAYER
  5
1B5
330
2
100
AcDbSymbolTableRecord
100
AcDbLayerTableRecord
  2
Defpoints
 70
     0
 62
     7
  6
CONTINUOUS
290
     0
370
    -3
390
199
  0
ENDTAB
  0
TABLE
  2
STYLE
  5
3
330
0
100
AcDbSymbolTable
 70
     3
  0
STYLE
  5
17
330
3
100
AcDbSymbolTableRecord
100
AcDbTextStyleTableRecord
  2
STANDARD
 70
     0
 40
0.0
 41
1.0
 50
0.0
 71
     0
 42
2.5
  3
isocp.shx
  4

  0
STYLE
  5
1E
330
3
100
AcDbSymbolTableRecord
100
AcDbTextStyleTableRecord
  2
GDT
 70
     0
 40
0.0
 41
1.0
 50
0.0
 71
     0
 42
2.5
  3
gdt.shx
  4

  0
STYLE
  5
1B7
330
3
100
AcDbSymbolTableRecord
100
AcDbTextStyleTableRecord
  2
Beschlag
 70
     0
 40
0.0
 41
0.9
 50
0.0
 71
     0
 42
3.5
  3
arial.ttf
  4

1001
ACAD
1000
Arial
1071
       34
  0
ENDTAB
  0
TABLE
  2
VIEW
  5
5
330
0
100
AcDbSymbolTable
 70
     0
  0
ENDTAB
  0
TABLE
  2
UCS
  5
6
330
0
100
AcDbSymbolTable
 70
     0
  0
ENDTAB
  0
TABLE
  2
APPID
  5
8
330
0
100
AcDbSymbolTable
 70
     1
  0
APPID
  5
16
330
8
100
AcDbSymbolTableRecord
100
AcDbRegAppTableRecord
  2
ACAD
 70
     0
  0
ENDTAB
  0
TABLE
  2
DIMSTYLE
  5
9
330
0
100
AcDbSymbolTable
 70
     3
100
AcDbDimStyleTable
 71
     2
340
31C
340
1B6
  0
DIMSTYLE
105
18
330
9
100
AcDbSymbolTableRecord
100
AcDbDimStyleTableRecord
  2
STANDARD
 70
     0
 41
2.5
 42
0.625
 43
3.75
 44
1.25
 73
     0
 74
     0
 77
     1
 78
     8
140
2.5
141
2.5
143
0.03937
147
0.625
171
     3
172
     1
271
     2
272
     2
274
     3
283
     0
284
     8
289
     0
340
17
  0
DIMSTYLE
105
1B6
102
{ACAD_REACTORS
330
2E
330
2C
330
2A
330
28
330
26
330
24
330
22
330
20
102
}
330
9
100
AcDbSymbolTableRecord
100
AcDbDimStyleTableRecord
  2
HAWA-Strich
 70
     0
 41
2.0
 42
2.0
 43
0.0
 44
1.0
 46
1.0
 73
     0
 74
     0
 77
     1
 78
     8
 79
     2
140
3.5
141
0.0
143
0.039370078740157
146
0.7114285714285719
147
1.0
170
     1
171
     5
172
     1
173
     1
176
   256
177
   256
178
   256
179
     1
271
     1
272
     1
273
     4
274
     5
284
     8
285
     8
286
     8
340
1B7
341
1B8
343
1B8
344
1B8
  0
DIMSTYLE
105
31C
102
{ACAD_REACTORS
330
34
330
30
330
32
330
36
102
}
330
9
100
AcDbSymbolTableRecord
100
AcDbDimStyleTableRecord
  2
HAWA-Strich ohne Inch
 70
     0
 41
2.0
 42
2.0
 43
0.0
 44
1.0
 46
1.0
 73
     0
 74
     0
 77
     1
 78
     8
 79
     2
140
3.5
141
0.0
143
0.039370078740157
146
0.7114285714285719
147
1.0
171
     5
172
     1
173
     1
176
   256
177
   256
178
   256
179
     1
271
     1
272
     1
273
     4
274
     5
284
     8
285
     8
286
     8
340
1B7
341
1B8
343
1B8
344
1B8
  0
ENDTAB
  0
TABLE
  2
BLOCK_RECORD
  5
1
330
0
100
AcDbSymbolTable
 70
    16
  0
BLOCK_RECORD
  5
A
330
1
100
AcDbSymbolTableRecord
100
AcDbBlockTableRecord
  2
*MODEL_SPACE
340
124
  0
BLOCK_RECORD
  5
B
330
1
100
AcDbSymbolTableRecord
100
AcDbBlockTableRecord
  2
*PAPER_SPACE
340
125
  0
BLOCK_RECORD
  5
1F
330
1
100
AcDbSymbolTableRecord
100
AcDbBlockTableRecord
  2
*D0
340
0
  0
BLOCK_RECORD
  5
21
330
1
100
AcDbSymbolTableRecord
100
AcDbBlockTableRecord
  2
*D1
340
0
  0
BLOCK_RECORD
  5
23
330
1
100
AcDbSymbolTableRecord
100
AcDbBlockTableRecord
  2
*D2
340
0
  0
BLOCK_RECORD
  5
25
330
1
100
AcDbSymbolTableRecord
100
AcDbBlockTableRecord
  2
*D3
340
0
  0
BLOCK_RECORD
  5
27
330
1
100
AcDbSymbolTableRecord
100
AcDbBlockTableRecord
  2
*D4
340
0
  0
BLOCK_RECORD
  5
29
330
1
100
AcDbSymbolTableRecord
100
AcDbBlockTableRecord
  2
*D5
340
0
  0
BLOCK_RECORD
  5
2B
330
1
100
AcDbSymbolTableRecord
100
AcDbBlockTableRecord
  2
*D6
340
0
  0
BLOCK_RECORD
  5
2D
330
1
100
AcDbSymbolTableRecord
100
AcDbBlockTableRecord
  2
*D7
340
0
  0
BLOCK_RECORD
  5
2F
330
1
100
AcDbSymbolTableRecord
100
AcDbBlockTableRecord
  2
*D8
340
0
  0
BLOCK_RECORD
  5
31
330
1
100
AcDbSymbolTableRecord
100
AcDbBlockTableRecord
  2
*D9
340
0
  0
BLOCK_RECORD
  5
33
330
1
100
AcDbSymbolTableRecord
100
AcDbBlockTableRecord
  2
*D10
340
0
  0
BLOCK_RECORD
  5
35
330
1
100
AcDbSymbolTableRecord
100
AcDbBlockTableRecord
  2
*D11
340
0
  0
BLOCK_RECORD
  5
38
330
1
100
AcDbSymbolTableRecord
100
AcDbBlockTableRecord
  2
BLOCK1
340
0
  0
BLOCK_RECORD
  5
39
330
1
100
AcDbSymbolTableRecord
100
AcDbBlockTableRecord
  2
BLOCK2
340
0
  0
BLOCK_RECORD
  5
3A
330
1
100
AcDbSymbolTableRecord
100
AcDbBlockTableRecord
  2
BLOCK3
340
0
  0
BLOCK_RECORD
  5
1B8
330
1
100
AcDbSymbolTableRecord
100
AcDbBlockTableRecord
  2
_Oblique
340
0
102
{BLKREFS
331
42E
331
42F
331
437
331
438
331
44F
331
450
331
458
331
459
331
46A
331
46B
331
473
331
494
331
495
331
4B2
331
4B3
331
4D8
331
4D9
331
4EB
331
4EC
331
507
331
508
331
534
331
535
102
}
  0
ENDTAB
  0
ENDSEC
  0
SECTION
  2
BLOCKS
  0
BLOCK
  5
D
330
A
100
AcDbEntity
  8
0
100
AcDbBlockBegin
  2
*MODEL_SPACE
 70
     0
 10
0.0
 20
0.0
 30
0.0
  3
*MODEL_SPACE
  1

  0
ENDBLK
  5
E
330
A
100
AcDbEntity
  8
0
100
AcDbBlockEnd
  0
BLOCK
  5
F
330
B
100
AcDbEntity
 67
     1
  8
0
100
AcDbBlockBegin
  2
*PAPER_SPACE
 70
     0
 10
0.0
 20
0.0
 30
0.0
  3
*PAPER_SPACE
  1

  0
ENDBLK
  5
10
330
B
100
AcDbEntity
 67
     1
  8
0
100
AcDbBlockEnd
  0
BLOCK
  5
3B
330
1F
100
AcDbEntity
  8
Hawa1
100
AcDbBlockBegin
  2
*D0
 70
     1
 10
0.0
 20
0.0
 30
0.0
  3
*D0
  1

  0
LINE
  5
467
330
1F
100
AcDbEntity
  8
Hawa1
370
    -2
100
AcDbLine
 10
20.06446130088213
 20
1270.862001999722
 30
0.0
 11
20.0649721396961
 21
1301.54219911634
 31
0.0
  0
LINE
  5
468
330
1F
100
AcDbEntity
  8
Hawa1
370
    -2
100
AcDbLine
 10
-109.9355386991178
 20
1268.262001999723
 30
0.0
 11
-109.9349845331163
 21
1301.544363672957
 31
0.0
  0
LINE
  5
469
330
1F
100
AcDbEntity
  8
Hawa1
370
    -2
100
AcDbLine
 10
21.06495548911642
 20
1300.542182466038
 30
0.0
 11
-110.9350011834187
 21
1300.544380323537
 31
0.0
  0
INSERT
  5
46A
330
1F
100
AcDbEntity
  8
Hawa1
370
    -2
100
AcDbBlockReference
  2
_Oblique
 10
20.06495548925504
 20
1300.542199116479
 30
0.0
 41
2.0
 42
2.0
 43
2.0
 50
359.999046
  0
INSERT
  5
46B
330
1F
100
AcDbEntity
  8
Hawa1
370
    -2
100
AcDbBlockReference
  2
_Oblique
 10
-109.9350011835573
 20
1300.544363673096
 30
0.0
 41
2.0
 42
2.0
 43
2.0
 50
179.999046
  0
MTEXT
  5
46C
330
1F
100
AcDbEntity
  8
Hawa1
100
AcDbMText
 10
-44.93494921440774
 20
1304.965551239502
 30
0.0
 40
3.5
 41
0.0
 71
     5
 72
     1
  1
\A1;130 [5{\H0.711429x;\S1/8;}"]
  7
Beschlag
 11
0.9999999998613814
 21
-0.0000166504410634
 31
0.0
 73
     1
 44
1.0
1001
ACAD
1000
MTEXTBEGIN
1070
    73
1070
     1
1070
    44
1040
1.0
1070
    74
1070
     0
1000
MTEXTEND
  0
POINT
  5
46D
330
1F
100
AcDbEntity
  8
Defpoints
 62
     0
100
AcDbPoint
 10
20.064428
 20
1268.862002
 30
0.0
  0
POINT
  5
46E
330
1F
100
AcDbEntity
  8
Defpoints
 62
     0
100
AcDbPoint
 10
-109.935572
 20
1266.262002
 30
0.0
  0
POINT
  5
46F
330
1F
100
AcDbEntity
  8
Defpoints
 62
     0
100
AcDbPoint
 10
-109.9350011835573
 20
1300.544363673096
 30
0.0
  0
ENDBLK
  5
48
330
1F
100
AcDbEntity
  8
Hawa1
100
AcDbBlockEnd
  0
BLOCK
  5
49
330
21
100
AcDbEntity
  8
Hawa1
100
AcDbBlockBegin
  2
*D1
 70
     1
 10
0.0
 20
0.0
 30
0.0
  3
*D1
  1

  0
LINE
  5
491
330
21
100
AcDbEntity
  8
Hawa1
370
    -2
100
AcDbLine
 10
495.064428
 20
1240.262002
 30
0.0
 11
495.064428
 21
1209.248055
 31
0.0
  0
LINE
  5
492
330
21
100
AcDbEntity
  8
Hawa1
370
    -2
100
AcDbLine
 10
130.064428
 20
1240.262002
 30
0.0
 11
130.064428
 21
1209.248055
 31
0.0
  0
LINE
  5
493
330
21
100
AcDbEntity
  8
Hawa1
370
    -2
100
AcDbLine
 10
496.064428
 20
1210.248055
 30
0.0
 11
129.064428
 21
1210.248055
 31
0.0
  0
INSERT
  5
494
330
21
100
AcDbEntity
  8
Hawa1
370
    -2
100
AcDbBlockReference
  2
_Oblique
 10
495.064428
 20
1210.248055
 30
0.0
 41
2.0
 42
2.0
 43
2.0
  0
INSERT
  5
495
330
21
100
AcDbEntity
  8
Hawa1
370
    -2
100
AcDbBlockReference
  2
_Oblique
 10
130.064428
 20
1210.248055
 30
0.0
 41
2.0
 42
2.0
 43
2.0
 50
180.0
  0
MTEXT
  5
496
330
21
100
AcDbEntity
  8
Hawa1
100
AcDbMText
 10
312.564428
 20
1214.692405349761
 30
0.0
 40
3.5
 41
0.0
 71
     5
 72
     1
  1
\A1;365 [1'-2{\H0.711429x;\S3/8;}"]
  7
Beschlag
 73
     1
 44
1.0
1001
ACAD
1000
MTEXTBEGIN
1070
    73
1070
     1
1070
    44
1040
1.0
1070
    74
1070
     0
1000
MTEXTEND
  0
POINT
  5
497
330
21
100
AcDbEntity
  8
Defpoints
 62
     0
100
AcDbPoint
 10
495.064428
 20
1242.262002
 30
0.0
  0
POINT
  5
498
330
21
100
AcDbEntity
  8
Defpoints
 62
     0
100
AcDbPoint
 10
130.064428
 20
1242.262002
 30
0.0
  0
POINT
  5
499
330
21
100
AcDbEntity
  8
Defpoints
 62
     0
100
AcDbPoint
 10
130.064428
 20
1210.248055
 30
0.0
  0
ENDBLK
  5
57
330
21
100
AcDbEntity
  8
Hawa1
100
AcDbBlockEnd
  0
BLOCK
  5
58
330
23
100
AcDbEntity
  8
Hawa1
100
AcDbBlockBegin
  2
*D2
 70
     1
 10
0.0
 20
0.0
 30
0.0
  3
*D2
  1

  0
LINE
  5
455
330
23
100
AcDbEntity
  8
Hawa1
370
    -2
100
AcDbLine
 10
990.064461300882
 20
1268.262001999723
 30
0.0
 11
990.0648939497841
 21
1294.246232713711
 31
0.0
  0
LINE
  5
456
330
23
100
AcDbEntity
  8
Hawa1
370
    -2
100
AcDbLine
 10
860.0644613008821
 20
1270.862001999722
 30
0.0
 11
860.0648506946782
 21
1294.24839727177
 31
0.0
  0
LINE
  5
457
330
23
100
AcDbEntity
  8
Hawa1
370
    -2
100
AcDbLine
 10
991.0648772992045
 20
1293.246216063409
 30
0.0
 11
859.0648340443758
 21
1293.24841392235
 31
0.0
  0
INSERT
  5
458
330
23
100
AcDbEntity
  8
Hawa1
370
    -2
100
AcDbBlockReference
  2
_Oblique
 10
990.0648772993431
 20
1293.24623271385
 30
0.0
 41
2.0
 42
2.0
 43
2.0
 50
359.999046
  0
INSERT
  5
459
330
23
100
AcDbEntity
  8
Hawa1
370
    -2
100
AcDbBlockReference
  2
_Oblique
 10
860.0648340442372
 20
1293.248397271909
 30
0.0
 41
2.0
 42
2.0
 43
2.0
 50
179.999046
  0
MTEXT
  5
45A
330
23
100
AcDbEntity
  8
Hawa1
100
AcDbMText
 10
925.0649293045338
 20
1297.669584837594
 30
0.0
 40
3.5
 41
0.0
 71
     5
 72
     1
  1
\A1;130 [5{\H0.711429x;\S1/8;}"]
  7
Beschlag
 11
0.9999999998613814
 21
-0.0000166504410634
 31
0.0
 73
     1
 44
1.0
1001
ACAD
1000
MTEXTBEGIN
1070
    73
1070
     1
1070
    44
1040
1.0
1070
    74
1070
     0
1000
MTEXTEND
  0
POINT
  5
45B
330
23
100
AcDbEntity
  8
Defpoints
 62
     0
100
AcDbPoint
 10
990.0644279999999
 20
1266.262002
 30
0.0
  0
POINT
  5
45C
330
23
100
AcDbEntity
  8
Defpoints
 62
     0
100
AcDbPoint
 10
860.064428
 20
1268.862002
 30
0.0
  0
POINT
  5
45D
330
23
100
AcDbEntity
  8
Defpoints
 62
     0
100
AcDbPoint
 10
860.0648340442372
 20
1293.248397271909
 30
0.0
  0
ENDBLK
  5
64
330
23
100
AcDbEntity
  8
Hawa1
100
AcDbBlockEnd
  0
BLOCK
  5
65
330
25
100
AcDbEntity
  8
Hawa1
100
AcDbBlockBegin
  2
*D3
 70
     1
 10
0.0
 20
0.0
 30
0.0
  3
*D3
  1

  0
LINE
  5
44C
330
25
100
AcDbEntity
  8
Hawa1
370
    -2
100
AcDbLine
 10
499.7319689993761
 20
1267.261952048676
 30
0.0
 11
508.7324310431894
 21
1267.261727256182
 31
0.0
  0
LINE
  5
44D
330
25
100
AcDbEntity
  8
Hawa1
370
    -2
100
AcDbLine
 10
485.064427999376
 20
1230.261952048676
 30
0.0
 11
508.7315069345613
 21
1230.261360947722
 31
0.0
  0
LINE
  5
44E
330
25
100
AcDbEntity
  8
Hawa1
370
    -2
100
AcDbLine
 10
507.7324560191629
 20
1268.261752231532
 30
0.0
 11
507.7314819592116
 21
1229.261385923696
 31
0.0
  0
INSERT
  5
44F
330
25
100
AcDbEntity
  8
Hawa1
370
    -2
100
AcDbBlockReference
  2
_Oblique
 10
507.7324310435012
 20
1267.261752231844
 30
0.0
 41
2.0
 42
2.0
 43
2.0
 50
89.99856899999997
  0
INSERT
  5
450
330
25
100
AcDbEntity
  8
Hawa1
370
    -2
100
AcDbBlockReference
  2
_Oblique
 10
507.7315069348732
 20
1230.261385923383
 30
0.0
 41
2.0
 42
2.0
 43
2.0
 50
269.998569
  0
MTEXT
  5
451
330
25
100
AcDbEntity
  8
Hawa1
100
AcDbMText
 10
503.2876186408121
 20
1248.761680078204
 30
0.0
 40
3.5
 41
0.0
 71
     5
 72
     1
  1
\A1;37 [1{\H0.711429x;\S15/32;}"]
  7
Beschlag
 11
0.0000249756615941
 21
0.9999999996881081
 31
0.0
 73
     1
 44
1.0
1001
ACAD
1000
MTEXTBEGIN
1070
    73
1070
     1
1070
    44
1040
1.0
1070
    74
1070
     0
1000
MTEXTEND
  0
POINT
  5
452
330
25
100
AcDbEntity
  8
Defpoints
 62
     0
100
AcDbPoint
 10
497.7319689999999
 20
1267.262001999999
 30
0.0
  0
POINT
  5
453
330
25
100
AcDbEntity
  8
Defpoints
 62
     0
100
AcDbPoint
 10
483.0644279999998
 20
1230.262002
 30
0.0
  0
POINT
  5
454
330
25
100
AcDbEntity
  8
Defpoints
 62
     0
100
AcDbPoint
 10
507.7315069348732
 20
1230.261385923383
 30
0.0
  0
ENDBLK
  5
70
330
25
100
AcDbEntity
  8
Hawa1
100
AcDbBlockEnd
  0
BLOCK
  5
71
330
27
100
AcDbEntity
  8
Hawa1
100
AcDbBlockBegin
  2
*D4
 70
     1
 10
0.0
 20
0.0
 30
0.0
  3
*D4
  1

  0
LINE
  5
470
330
27
100
AcDbEntity
  8
Hawa1
370
    -2
100
AcDbLine
 10
517.8480642809009
 20
1205.517837072463
 30
0.0
 11
491.3140349999999
 21
1233.547418
 31
0.0
  0
MTEXT
  5
471
330
27
100
AcDbEntity
  8
Hawa1
100
AcDbMText
 10
512.7014817314611
 20
1217.419316533925
 30
0.0
 40
3.5
 41
0.0
 71
     5
 72
     1
  1
\A1;RR12 [R{\H0.711429x;\S15/32;}"]
  7
Beschlag
 11
0.6874672739957
 21
-0.7262153586815149
 31
0.0
 73
     1
 44
1.0
1001
ACAD
1000
MTEXTBEGIN
1070
    73
1070
     1
1070
    44
1040
1.0
1070
    74
1070
     0
1000
MTEXTEND
  0
LINE
  5
472
330
27
100
AcDbEntity
  8
Hawa1
370
    -2
100
AcDbLine
 10
483.064428
 20
1242.262001999999
 30
0.0
 11
491.3140349999999
 21
1233.547418
 31
0.0
  0
INSERT
  5
473
330
27
100
AcDbEntity
  8
Hawa1
370
    -2
100
AcDbBlockReference
  2
_Oblique
 10
491.3140349999999
 20
1233.547418
 30
0.0
 41
2.0
 42
2.0
 43
2.0
 50
133.4299545386943
  0
POINT
  5
474
330
27
100
AcDbEntity
  8
Defpoints
 62
     0
100
AcDbPoint
 10
491.3140349999999
 20
1233.547418
 30
0.0
  0
POINT
  5
475
330
27
100
AcDbEntity
  8
Defpoints
 62
     0
100
AcDbPoint
 10
483.064428
 20
1242.262001999999
 30
0.0
  0
ENDBLK
  5
80
330
27
100
AcDbEntity
  8
Hawa1
100
AcDbBlockEnd
  0
BLOCK
  5
81
330
29
100
AcDbEntity
  8
Hawa1
100
AcDbBlockBegin
  2
*D5
 70
     1
 10
0.0
 20
0.0
 30
0.0
  3
*D5
  1

  0
LINE
  5
531
330
29
100
AcDbEntity
  8
Hawa1
370
    -2
100
AcDbLine
 10
990.0644279999999
 20
-733.737998
 30
0.0
 11
990.0644279999999
 21
-774.7000016633255
 31
0.0
  0
LINE
  5
532
330
29
100
AcDbEntity
  8
Hawa1
370
    -2
100
AcDbLine
 10
-109.935572
 20
-733.737998
 30
0.0
 11
-109.935572
 21
-774.7000016633255
 31
0.0
  0
LINE
  5
533
330
29
100
AcDbEntity
  8
Hawa1
370
    -2
100
AcDbLine
 10
991.0644279999999
 20
-773.7000016633255
 30
0.0
 11
-110.935572
 21
-773.7000016633255
 31
0.0
  0
INSERT
  5
534
330
29
100
AcDbEntity
  8
Hawa1
370
    -2
100
AcDbBlockReference
  2
_Oblique
 10
990.0644279999999
 20
-773.7000016633255
 30
0.0
 41
2.0
 42
2.0
 43
2.0
  0
INSERT
  5
535
330
29
100
AcDbEntity
  8
Hawa1
370
    -2
100
AcDbBlockReference
  2
_Oblique
 10
-109.935572
 20
-773.7000016633255
 30
0.0
 41
2.0
 42
2.0
 43
2.0
 50
180.0
  0
MTEXT
  5
536
330
29
100
AcDbEntity
  8
Hawa1
100
AcDbMText
 10
440.0644279999999
 20
-769.2745298579595
 30
0.0
 40
3.5
 41
0.0
 71
     5
 72
     1
  1
\A1;GB(=>850 / [=>2' 9 {\H0.7x;\S15/32;}] )
  7
Beschlag
 73
     1
 44
1.0
1001
ACAD
1000
MTEXTBEGIN
1070
    73
1070
     1
1070
    44
1040
1.0
1070
    74
1070
     0
1000
MTEXTEND
  0
POINT
  5
537
330
29
100
AcDbEntity
  8
Defpoints
 62
     0
100
AcDbPoint
 10
990.0644279999999
 20
-731.7379980000001
 30
0.0
  0
POINT
  5
538
330
29
100
AcDbEntity
  8
Defpoints
 62
     0
100
AcDbPoint
 10
-109.935572
 20
-731.7379980000001
 30
0.0
  0
POINT
  5
539
330
29
100
AcDbEntity
  8
Defpoints
 62
     0
100
AcDbPoint
 10
-109.935572
 20
-773.7000016633255
 30
0.0
  0
ENDBLK
  5
9C
330
29
100
AcDbEntity
  8
Hawa1
100
AcDbBlockEnd
  0
BLOCK
  5
9D
330
2B
100
AcDbEntity
  8
Hawa1
100
AcDbBlockBegin
  2
*D6
 70
     1
 10
0.0
 20
0.0
 30
0.0
  3
*D6
  1

  0
LINE
  5
434
330
2B
100
AcDbEntity
  8
Hawa1
370
    -2
100
AcDbLine
 10
130.0643946991179
 20
1240.262002000277
 30
0.0
 11
130.0638782879733
 21
1209.247139234756
 31
0.0
  0
LINE
  5
435
330
2B
100
AcDbEntity
  8
Hawa1
370
    -2
100
AcDbLine
 10
20.06439469911788
 20
1235.662002000277
 30
0.0
 11
20.06395491049821
 21
1209.248970781997
 31
0.0
  0
LINE
  5
436
330
2B
100
AcDbEntity
  8
Hawa1
370
    -2
100
AcDbLine
 10
131.0638949382757
 20
1210.247122584176
 30
0.0
 11
19.06397156107789
 21
1210.248987432299
 31
0.0
  0
INSERT
  5
437
330
2B
100
AcDbEntity
  8
Hawa1
370
    -2
100
AcDbBlockReference
  2
_Oblique
 10
130.0638949384143
 20
1210.247139234617
 30
0.0
 41
2.0
 42
2.0
 43
2.0
 50
359.999046
  0
INSERT
  5
438
330
2B
100
AcDbEntity
  8
Hawa1
370
    -2
100
AcDbBlockReference
  2
_Oblique
 10
20.06397156093927
 20
1210.248970781858
 30
0.0
 41
2.0
 42
2.0
 43
2.0
 50
179.999046
  0
MTEXT
  5
439
330
2B
100
AcDbEntity
  8
Hawa1
100
AcDbMText
 10
75.0640068965606
 20
1214.671174103123
 30
0.0
 40
3.5
 41
0.0
 71
     5
 72
     1
  1
\A1;110 [4{\H0.711429x;\S11/32;}"]
  7
Beschlag
 11
0.9999999998613814
 21
-0.0000166504410634
 31
0.0
 73
     1
 44
1.0
1001
ACAD
1000
MTEXTBEGIN
1070
    73
1070
     1
1070
    44
1040
1.0
1070
    74
1070
     0
1000
MTEXTEND
  0
POINT
  5
43A
330
2B
100
AcDbEntity
  8
Defpoints
 62
     0
100
AcDbPoint
 10
130.064428
 20
1242.262002
 30
0.0
  0
POINT
  5
43B
330
2B
100
AcDbEntity
  8
Defpoints
 62
     0
100
AcDbPoint
 10
20.064428
 20
1237.662002
 30
0.0
  0
POINT
  5
43C
330
2B
100
AcDbEntity
  8
Defpoints
 62
     0
100
AcDbPoint
 10
20.06397156093927
 20
1210.248970781858
 30
0.0
  0
ENDBLK
  5
AA
330
2B
100
AcDbEntity
  8
Hawa1
100
AcDbBlockEnd
  0
BLOCK
  5
AB
330
2D
100
AcDbEntity
  8
Hawa1
100
AcDbBlockBegin
  2
*D7
 70
     1
 10
0.0
 20
0.0
 30
0.0
  3
*D7
  1

  0
LINE
  5
42B
330
2D
100
AcDbEntity
  8
Hawa1
370
    -2
100
AcDbLine
 10
991.0644279999999
 20
-732.737998
 30
0.0
 11
1020.378336182139
 21
-732.737998
 31
0.0
  0
LINE
  5
42C
330
2D
100
AcDbEntity
  8
Hawa1
370
    -2
100
AcDbLine
 10
991.0644279999999
 20
1267.262002
 30
0.0
 11
1020.378336182139
 21
1267.262002
 31
0.0
  0
LINE
  5
42D
330
2D
100
AcDbEntity
  8
Hawa1
370
    -2
100
AcDbLine
 10
1019.378336182138
 20
-733.737998
 30
0.0
 11
1019.378336182139
 21
1268.262002
 31
0.0
  0
INSERT
  5
42E
330
2D
100
AcDbEntity
  8
Hawa1
370
    -2
100
AcDbBlockReference
  2
_Oblique
 10
1019.378336182138
 20
-732.737998
 30
0.0
 41
2.0
 42
2.0
 43
2.0
 50
270.0
  0
INSERT
  5
42F
330
2D
100
AcDbEntity
  8
Hawa1
370
    -2
100
AcDbBlockReference
  2
_Oblique
 10
1019.378336182139
 20
1267.262002
 30
0.0
 41
2.0
 42
2.0
 43
2.0
 50
90.0
  0
MTEXT
  5
430
330
2D
100
AcDbEntity
  8
Hawa1
100
AcDbMText
 10
1016.568649961129
 20
267.2620020000001
 30
0.0
 40
3.5
 41
0.0
 71
     5
 72
     1
  1
\A1;GH
  7
Beschlag
 11
0.0000000000000001
 21
1.0
 31
0.0
 73
     1
 44
1.0
1001
ACAD
1000
MTEXTBEGIN
1070
    73
1070
     1
1070
    44
1040
1.0
1070
    74
1070
     0
1000
MTEXTEND
  0
POINT
  5
431
330
2D
100
AcDbEntity
  8
Defpoints
 62
     0
100
AcDbPoint
 10
989.064428
 20
-732.737998
 30
0.0
  0
POINT
  5
432
330
2D
100
AcDbEntity
  8
Defpoints
 62
     0
100
AcDbPoint
 10
989.064428
 20
1267.262002
 30
0.0
  0
POINT
  5
433
330
2D
100
AcDbEntity
  8
Defpoints
 62
     0
100
AcDbPoint
 10
1019.378336182139
 20
1267.262002
 30
0.0
  0
ENDBLK
  5
B2
330
2D
100
AcDbEntity
  8
Hawa1
100
AcDbBlockEnd
  0
BLOCK
  5
B3
330
2F
100
AcDbEntity
  8
Hawa1
100
AcDbBlockBegin
  2
*D8
 70
     1
 10
0.0
 20
0.0
 30
0.0
  3
*D8
  1

  0
LINE
  5
4E7
330
2F
100
AcDbEntity
  8
Hawa1
370
    -2
100
AcDbLine
 10
27.564428
 20
1269.262002
 30
0.0
 11
27.564428
 21
1288.064771635286
 31
0.0
  0
LINE
  5
4E8
330
2F
100
AcDbEntity
  8
Hawa1
370
    -2
100
AcDbLine
 10
12.564428
 20
1269.262002
 30
0.0
 11
12.564428
 21
1288.064771635286
 31
0.0
  0
LINE
  5
4E9
330
2F
100
AcDbEntity
  8
Hawa1
370
    -2
100
AcDbLine
 10
28.564428
 20
1287.064771635286
 30
0.0
 11
12.564428
 21
1287.064771635286
 31
0.0
  0
LINE
  5
4EA
330
2F
100
AcDbEntity
  8
Hawa1
370
    -2
100
AcDbLine
 10
12.564428
 20
1287.064771635286
 30
0.0
 11
-6.160032214355608
 21
1287.064771635286
 31
0.0
  0
INSERT
  5
4EB
330
2F
100
AcDbEntity
  8
Hawa1
370
    -2
100
AcDbBlockReference
  2
_Oblique
 10
27.564428
 20
1287.064771635286
 30
0.0
 41
2.0
 42
2.0
 43
2.0
  0
INSERT
  5
4EC
330
2F
100
AcDbEntity
  8
Hawa1
370
    -2
100
AcDbBlockReference
  2
_Oblique
 10
12.564428
 20
1287.064771635286
 30
0.0
 41
2.0
 42
2.0
 43
2.0
 50
180.0
  0
MTEXT
  5
4ED
330
2F
100
AcDbEntity
  8
Hawa1
100
AcDbMText
 10
1.225915943898144
 20
1289.851777092312
 30
0.0
 40
3.5
 41
0.0
 71
     5
 72
     1
  1
\A1;15{}{%%p0.5}
  7
Beschlag
 73
     1
 44
1.0
1001
ACAD
1000
MTEXTBEGIN
1070
    73
1070
     1
1070
    44
1040
1.0
1070
    74
1070
     0
1000
MTEXTEND
  0
POINT
  5
4EE
330
2F
100
AcDbEntity
  8
Defpoints
 62
     0
100
AcDbPoint
 10
27.564428
 20
1267.262002
 30
0.0
  0
POINT
  5
4EF
330
2F
100
AcDbEntity
  8
Defpoints
 62
     0
100
AcDbPoint
 10
12.564428
 20
1267.262002
 30
0.0
  0
POINT
  5
4F0
330
2F
100
AcDbEntity
  8
Defpoints
 62
     0
100
AcDbPoint
 10
12.564428
 20
1287.064771635286
 30
0.0
  0
ENDBLK
  5
BC
330
2F
100
AcDbEntity
  8
Hawa1
100
AcDbBlockEnd
  0
BLOCK
  5
BD
330
31
100
AcDbEntity
  8
Hawa1
100
AcDbBlockBegin
  2
*D9
 70
     1
 10
0.0
 20
0.0
 30
0.0
  3
*D9
  1

  0
LINE
  5
4D4
330
31
100
AcDbEntity
  8
Hawa1
370
    -2
100
AcDbLine
 10
25.81446130088214
 20
1264.639500999723
 30
0.0
 11
25.81466804345542
 21
1277.056143446439
 31
0.0
  0
LINE
  5
4D5
330
31
100
AcDbEntity
  8
Hawa1
370
    -2
100
AcDbLine
 10
14.31446130088213
 20
1264.639500999723
 30
0.0
 11
14.31466804664365
 21
1277.056334926511
 31
0.0
  0
LINE
  5
4D6
330
31
100
AcDbEntity
  8
Hawa1
370
    -2
100
AcDbLine
 10
26.81465139287575
 20
1276.056126796137
 30
0.0
 11
14.31465139620258
 21
1276.05633492665
 31
0.0
  0
LINE
  5
4D7
330
31
100
AcDbEntity
  8
Hawa1
370
    -2
100
AcDbLine
 10
14.31465139620258
 20
1276.05633492665
 30
0.0
 11
-6.127231274906492
 21
1276.056675293012
 31
0.0
  0
INSERT
  5
4D8
330
31
100
AcDbEntity
  8
Hawa1
370
    -2
100
AcDbBlockReference
  2
_Oblique
 10
25.81465139301436
 20
1276.056143446578
 30
0.0
 41
2.0
 42
2.0
 43
2.0
 50
359.999046
  0
INSERT
  5
4D9
330
31
100
AcDbEntity
  8
Hawa1
370
    -2
100
AcDbBlockReference
  2
_Oblique
 10
14.31465139620258
 20
1276.05633492665
 30
0.0
 41
2.0
 42
2.0
 43
2.0
 50
179.999046
  0
MTEXT
  5
4DA
330
31
100
AcDbEntity
  8
Hawa1
100
AcDbMText
 10
3.093756465656769
 20
1278.843527216912
 30
0.0
 40
3.5
 41
0.0
 71
     5
 72
     1
  1
\A1;11.5{}{%%p0.5}
  7
Beschlag
 11
0.9999999998613814
 21
-0.0000166504410634
 31
0.0
 73
     1
 44
1.0
1001
ACAD
1000
MTEXTBEGIN
1070
    73
1070
     1
1070
    44
1040
1.0
1070
    74
1070
     0
1000
MTEXTEND
  0
POINT
  5
4DB
330
31
100
AcDbEntity
  8
Defpoints
 62
     0
100
AcDbPoint
 10
25.81442800000001
 20
1262.639501
 30
0.0
  0
POINT
  5
4DC
330
31
100
AcDbEntity
  8
Defpoints
 62
     0
100
AcDbPoint
 10
14.314428
 20
1262.639501
 30
0.0
  0
POINT
  5
4DD
330
31
100
AcDbEntity
  8
Defpoints
 62
     0
100
AcDbPoint
 10
14.31465139620258
 20
1276.05633492665
 30
0.0
  0
ENDBLK
  5
C5
330
31
100
AcDbEntity
  8
Hawa1
100
AcDbBlockEnd
  0
BLOCK
  5
C6
330
33
100
AcDbEntity
  8
Hawa1
100
AcDbBlockBegin
  2
*D10
 70
     1
 10
0.0
 20
0.0
 30
0.0
  3
*D10
  1

  0
LINE
  5
4AE
330
33
100
AcDbEntity
  8
Hawa1
370
    -2
100
AcDbLine
 10
2.464428000069308
 20
1253.262018650441
 30
0.0
 11
-14.2366839587494
 21
1253.262157690881
 31
0.0
  0
LINE
  5
4AF
330
33
100
AcDbEntity
  8
Hawa1
370
    -2
100
AcDbLine
 10
8.861265000069309
 20
1267.262018650441
 30
0.0
 11
-14.23656740521859
 21
1267.26221094499
 31
0.0
  0
LINE
  5
4B0
330
33
100
AcDbEntity
  8
Hawa1
370
    -2
100
AcDbLine
 10
-13.23656740525325
 20
1267.262202619769
 30
0.0
 11
-13.23669228400458
 21
1252.262149365695
 31
0.0
  0
LINE
  5
4B1
330
33
100
AcDbEntity
  8
Hawa1
370
    -2
100
AcDbLine
 10
-13.23668395878405
 20
1253.26214936566
 30
0.0
 11
-13.23685846052244
 21
1232.301534843996
 31
0.0
  0
INSERT
  5
4B2
330
33
100
AcDbEntity
  8
Hawa1
370
    -2
100
AcDbBlockReference
  2
_Oblique
 10
-13.23656740525325
 20
1267.262202619769
 30
0.0
 41
2.0
 42
2.0
 43
2.0
 50
89.999523
  0
INSERT
  5
4B3
330
33
100
AcDbEntity
  8
Hawa1
370
    -2
100
AcDbBlockReference
  2
_Oblique
 10
-13.23668395878405
 20
1253.26214936566
 30
0.0
 41
2.0
 42
2.0
 43
2.0
 50
269.9995229999999
  0
MTEXT
  5
4B4
330
33
100
AcDbEntity
  8
Hawa1
100
AcDbMText
 10
-16.02380242780457
 20
1239.687506204429
 30
0.0
 40
3.5
 41
0.0
 71
     5
 72
     1
  1
\A1;14{}{%%p0.5}
  7
Beschlag
 11
0.000008325220532
 21
0.9999999999653454
 31
0.0
 73
     1
 44
1.0
1001
ACAD
1000
MTEXTBEGIN
1070
    73
1070
     1
1070
    44
1040
1.0
1070
    74
1070
     0
1000
MTEXTEND
  0
POINT
  5
4B5
330
33
100
AcDbEntity
  8
Defpoints
 62
     0
100
AcDbPoint
 10
4.464427999999998
 20
1253.262002
 30
0.0
  0
POINT
  5
4B6
330
33
100
AcDbEntity
  8
Defpoints
 62
     0
100
AcDbPoint
 10
10.861265
 20
1267.262002
 30
0.0
  0
POINT
  5
4B7
330
33
100
AcDbEntity
  8
Defpoints
 62
     0
100
AcDbPoint
 10
-13.23656740525325
 20
1267.262202619769
 30
0.0
  0
ENDBLK
  5
CD
330
33
100
AcDbEntity
  8
Hawa1
100
AcDbBlockEnd
  0
BLOCK
  5
CE
330
35
100
AcDbEntity
  8
Hawa1
100
AcDbBlockBegin
  2
*D11
 70
     1
 10
0.0
 20
0.0
 30
0.0
  3
*D11
  1

  0
LINE
  5
503
330
35
100
AcDbEntity
  8
Hawa1
370
    -2
100
AcDbLine
 10
31.064428
 20
1251.262002
 30
0.0
 11
31.064428
 21
1217.327425645372
 31
0.0
  0
LINE
  5
504
330
35
100
AcDbEntity
  8
Hawa1
370
    -2
100
AcDbLine
 10
9.064427999999999
 20
1251.262002
 30
0.0
 11
9.064427999999997
 21
1217.327425645372
 31
0.0
  0
LINE
  5
505
330
35
100
AcDbEntity
  8
Hawa1
370
    -2
100
AcDbLine
 10
32.064428
 20
1218.327425645372
 30
0.0
 11
9.064427999999997
 21
1218.327425645372
 31
0.0
  0
LINE
  5
506
330
35
100
AcDbEntity
  8
Hawa1
370
    -2
100
AcDbLine
 10
9.064427999999997
 20
1218.327425645372
 30
0.0
 11
-11.37530596998636
 21
1218.327425645372
 31
0.0
  0
INSERT
  5
507
330
35
100
AcDbEntity
  8
Hawa1
370
    -2
100
AcDbBlockReference
  2
_Oblique
 10
31.064428
 20
1218.327425645372
 30
0.0
 41
2.0
 42
2.0
 43
2.0
  0
INSERT
  5
508
330
35
100
AcDbEntity
  8
Hawa1
370
    -2
100
AcDbBlockReference
  2
_Oblique
 10
9.064427999999997
 20
1218.327425645372
 30
0.0
 41
2.0
 42
2.0
 43
2.0
 50
180.0
  0
MTEXT
  5
509
330
35
100
AcDbEntity
  8
Hawa1
100
AcDbMText
 10
-2.15543898499318
 20
1221.212316504854
 30
0.0
 40
3.5
 41
0.0
 71
     5
 72
     1
  1
\A1;%%c22{}{%%p0.2}
  7
Beschlag
 73
     1
 44
1.0
1001
ACAD
1000
MTEXTBEGIN
1070
    73
1070
     1
1070
    44
1040
1.0
1070
    74
1070
     0
1000
MTEXTEND
  0
POINT
  5
50A
330
35
100
AcDbEntity
  8
Defpoints
 62
     0
100
AcDbPoint
 10
31.064428
 20
1253.262002
 30
0.0
  0
POINT
  5
50B
330
35
100
AcDbEntity
  8
Defpoints
 62
     0
100
AcDbPoint
 10
9.064427999999999
 20
1253.262002
 30
0.0
  0
POINT
  5
50C
330
35
100
AcDbEntity
  8
Defpoints
 62
     0
100
AcDbPoint
 10
9.064427999999997
 20
1218.327425645372
 30
0.0
  0
ENDBLK
  5
D7
330
35
100
AcDbEntity
  8
Hawa1
100
AcDbBlockEnd
  0
BLOCK
  5
D8
330
38
100
AcDbEntity
  8
0
100
AcDbBlockBegin
  2
BLOCK1
 70
     0
 10
0.0
 20
0.0
 30
0.0
  3
BLOCK1
  1

  0
LINE
  5
D9
330
38
100
AcDbEntity
  8
Hawa1
100
AcDbLine
 10
985.5999759999999
 20
-14.0
 30
0.0
 11
954.400024
 21
-14.0
 31
0.0
  0
LINE
  5
DA
330
38
100
AcDbEntity
  8
Hawa1
100
AcDbLine
 10
970.0
 20
1.6
 30
0.0
 11
970.0
 21
-29.6
 31
0.0
  0
ENDBLK
  5
DB
330
38
100
AcDbEntity
  8
0
100
AcDbBlockEnd
  0
BLOCK
  5
DC
330
39
100
AcDbEntity
  8
0
100
AcDbBlockBegin
  2
BLOCK2
 70
     0
 10
0.0
 20
0.0
 30
0.0
  3
BLOCK2
  1

  0
LINE
  5
DD
330
39
100
AcDbEntity
  8
Hawa1
100
AcDbLine
 10
145.600006
 20
-14.0
 30
0.0
 11
114.400002
 21
-14.0
 31
0.0
  0
LINE
  5
DE
330
39
100
AcDbEntity
  8
Hawa1
100
AcDbLine
 10
130.0
 20
1.6
 30
0.0
 11
130.0
 21
-29.6
 31
0.0
  0
ENDBLK
  5
DF
330
39
100
AcDbEntity
  8
0
100
AcDbBlockEnd
  0
BLOCK
  5
E0
330
3A
100
AcDbEntity
  8
0
100
AcDbBlockBegin
  2
BLOCK3
 70
     0
 10
0.0
 20
0.0
 30
0.0
  3
BLOCK3
  1

  0
LINE
  5
E1
330
3A
100
AcDbEntity
  8
Hawa5
 62
     1
100
AcDbLine
 10
606.0
 20
-1.0
 30
0.0
 11
961.8093189999999
 21
-1.0
 31
0.0
  0
LINE
  5
E2
330
3A
100
AcDbEntity
  8
Hawa5
 62
     1
100
AcDbLine
 10
606.0
 20
-25.0
 30
0.0
 11
606.0
 21
-1.0
 31
0.0
  0
ARC
  5
E3
330
3A
100
AcDbEntity
  8
Hawa5
 62
     1
100
AcDbCircle
 10
593.0
 20
-25.0
 30
0.0
 40
13.0
100
AcDbArc
 50
270.0
 51
360.0
  0
LINE
  5
E4
330
3A
100
AcDbEntity
  8
Hawa5
 62
     1
100
AcDbLine
 10
252.0
 20
-38.0
 30
0.0
 11
593.0
 21
-38.0
 31
0.0
  0
ARC
  5
E5
330
3A
100
AcDbEntity
  8
Hawa5
 62
     1
100
AcDbCircle
 10
252.0
 20
-25.0
 30
0.0
 40
13.0
100
AcDbArc
 50
180.0
 51
270.0
  0
LINE
  5
E6
330
3A
100
AcDbEntity
  8
Hawa5
 62
     1
100
AcDbLine
 10
239.0
 20
-1.0
 30
0.0
 11
239.0
 21
-25.0
 31
0.0
  0
LINE
  5
E7
330
3A
100
AcDbEntity
  8
Hawa5
 62
     1
100
AcDbLine
 10
138.190681
 20
-1.0
 30
0.0
 11
239.0
 21
-1.0
 31
0.0
  0
LINE
  5
E8
330
3A
100
AcDbEntity
  8
Hawa5
 62
     1
 48
0.086347
100
AcDbLine
 10
138.190681
 20
-1.0
 30
0.0
 11
136.967798
 21
-4.230158999999999
 31
0.0
  0
ARC
  5
E9
330
3A
100
AcDbEntity
  8
Hawa5
 62
     1
100
AcDbCircle
 10
130.0
 20
-14.0
 30
0.0
 40
12.0
100
AcDbArc
 50
125.496259
 51
414.5037409999999
  0
LINE
  5
EA
330
3A
100
AcDbEntity
  8
Hawa5
 62
     1
 48
0.086347
100
AcDbLine
 10
123.032202
 20
-4.230158999999999
 30
0.0
 11
121.809319
 21
-1.0
 31
0.0
  0
LINE
  5
EB
330
3A
100
AcDbEntity
  8
Hawa5
 62
     1
100
AcDbLine
 10
1.0
 20
-1.0
 30
0.0
 11
121.809319
 21
-1.0
 31
0.0
  0
LINE
  5
EC
330
3A
100
AcDbEntity
  8
Hawa5
 62
     1
100
AcDbLine
 10
1.0
 20
-1.0
 30
0.0
 11
1.0
 21
-1999.0
 31
0.0
  0
LINE
  5
ED
330
3A
100
AcDbEntity
  8
Hawa5
 62
     1
100
AcDbLine
 10
1099.0
 20
-1999.0
 30
0.0
 11
1.0
 21
-1999.0
 31
0.0
  0
LINE
  5
EE
330
3A
100
AcDbEntity
  8
Hawa5
 62
     1
100
AcDbLine
 10
1099.0
 20
-1999.0
 30
0.0
 11
1099.0
 21
-1.0
 31
0.0
  0
LINE
  5
EF
330
3A
100
AcDbEntity
  8
Hawa5
 62
     1
100
AcDbLine
 10
978.190681
 20
-1.0
 30
0.0
 11
1099.0
 21
-1.0
 31
0.0
  0
LINE
  5
F0
330
3A
100
AcDbEntity
  8
Hawa5
 62
     1
 48
0.086347
100
AcDbLine
 10
976.967798
 20
-4.230158999999999
 30
0.0
 11
978.190681
 21
-1.0
 31
0.0
  0
ARC
  5
F1
330
3A
100
AcDbEntity
  8
Hawa5
 62
     1
100
AcDbCircle
 10
970.0
 20
-14.0
 30
0.0
 40
12.0
100
AcDbArc
 50
125.496259
 51
414.5037409999999
  0
LINE
  5
F2
330
3A
100
AcDbEntity
  8
Hawa5
 62
     1
 48
0.086347
100
AcDbLine
 10
961.8093189999999
 20
-1.0
 30
0.0
 11
963.0322019999999
 21
-4.230158999999999
 31
0.0
  0
LINE
  5
F3
330
3A
100
AcDbEntity
  8
Hawa5
 62
     1
 48
0.123567
100
AcDbLine
 10
975.75
 20
-4.622499999999999
 30
0.0
 11
977.5
 21
0.0
 31
0.0
  0
ARC
  5
F4
330
3A
100
AcDbEntity
  8
Hawa5
 62
     1
100
AcDbCircle
 10
970.0
 20
-14.0
 30
0.0
 40
11.0
100
AcDbArc
 50
121.51537
 51
418.48463
  0
ARC
  5
F5
330
3A
100
AcDbEntity
  8
Hawa5
 62
     1
100
AcDbCircle
 10
593.0
 20
-25.0
 30
0.0
 40
12.0
100
AcDbArc
 50
270.0
 51
360.0
  0
ARC
  5
F6
330
3A
100
AcDbEntity
  8
Hawa5
 62
     1
100
AcDbCircle
 10
252.0
 20
-25.0
 30
0.0
 40
12.0
100
AcDbArc
 50
180.0
 51
270.0
  0
ARC
  5
F7
330
3A
100
AcDbEntity
  8
Hawa5
 62
     1
100
AcDbCircle
 10
130.0
 20
-14.0
 30
0.0
 40
11.0
100
AcDbArc
 50
121.51537
 51
418.48463
  0
LINE
  5
F8
330
3A
100
AcDbEntity
  8
Hawa5
 62
     1
 48
0.123567
100
AcDbLine
 10
962.5
 20
0.0
 30
0.0
 11
964.25
 21
-4.622499999999999
 31
0.0
  0
LINE
  5
F9
330
3A
100
AcDbEntity
  8
Hawa5
 62
     1
 48
0.123567
100
AcDbLine
 10
124.25
 20
-4.622499999999999
 30
0.0
 11
122.5
 21
0.0
 31
0.0
  0
LINE
  5
FA
330
3A
100
AcDbEntity
  8
Hawa5
 62
     1
 48
0.123567
100
AcDbLine
 10
137.5
 20
0.0
 30
0.0
 11
135.75
 21
-4.622499999999999
 31
0.0
  0
LINE
  5
FB
330
3A
100
AcDbEntity
  8
Hawa5
 62
     1
100
AcDbLine
 10
137.5
 20
0.0
 30
0.0
 11
240.0
 21
0.0
 31
0.0
  0
LINE
  5
FC
330
3A
100
AcDbEntity
  8
Hawa5
 62
     1
100
AcDbLine
 10
240.0
 20
0.0
 30
0.0
 11
240.0
 21
-25.0
 31
0.0
  0
LINE
  5
FD
330
3A
100
AcDbEntity
  8
Hawa5
 62
     1
100
AcDbLine
 10
252.0
 20
-37.0
 30
0.0
 11
593.0
 21
-37.0
 31
0.0
  0
LINE
  5
FE
330
3A
100
AcDbEntity
  8
Hawa5
 62
     1
100
AcDbLine
 10
605.0
 20
-25.0
 30
0.0
 11
605.0
 21
0.0
 31
0.0
  0
LINE
  5
FF
330
3A
100
AcDbEntity
  8
Hawa5
 62
     1
100
AcDbLine
 10
605.0
 20
0.0
 30
0.0
 11
962.5
 21
0.0
 31
0.0
  0
LINE
  5
100
330
3A
100
AcDbEntity
  8
Hawa5
 62
     1
 48
0.025
100
AcDbLine
 10
606.0
 20
-25.0
 30
0.0
 11
605.0
 21
-25.0
 31
0.0
  0
LINE
  5
101
330
3A
100
AcDbEntity
  8
Hawa5
 62
     1
 48
0.025
100
AcDbLine
 10
593.0
 20
-38.0
 30
0.0
 11
593.0
 21
-37.0
 31
0.0
  0
LINE
  5
102
330
3A
100
AcDbEntity
  8
Hawa5
 62
     1
 48
0.025
100
AcDbLine
 10
252.0
 20
-38.0
 30
0.0
 11
252.0
 21
-37.0
 31
0.0
  0
LINE
  5
103
330
3A
100
AcDbEntity
  8
Hawa5
 62
     1
 48
0.025
100
AcDbLine
 10
239.0
 20
-25.0
 30
0.0
 11
240.0
 21
-25.0
 31
0.0
  0
LINE
  5
104
330
3A
100
AcDbEntity
  8
Hawa5
 62
     1
 48
0.030383
100
AcDbLine
 10
962.5
 20
0.0
 30
0.0
 11
961.8093189999999
 21
-1.0
 31
0.0
  0
LINE
  5
105
330
3A
100
AcDbEntity
  8
Hawa5
 62
     1
 48
0.031986
100
AcDbLine
 10
964.25
 20
-4.622499999999999
 30
0.0
 11
963.0322019999999
 21
-4.230158999999999
 31
0.0
  0
LINE
  5
106
330
3A
100
AcDbEntity
  8
Hawa5
 62
     1
 48
0.035355
100
AcDbLine
 10
605.0
 20
0.0
 30
0.0
 11
606.0
 21
-1.0
 31
0.0
  0
LINE
  5
107
330
3A
100
AcDbEntity
  8
Hawa5
 62
     1
 48
0.035355
100
AcDbLine
 10
240.0
 20
0.0
 30
0.0
 11
239.0
 21
-1.0
 31
0.0
  0
LINE
  5
108
330
3A
100
AcDbEntity
  8
Hawa5
 62
     1
 48
0.030383
100
AcDbLine
 10
137.5
 20
0.0
 30
0.0
 11
138.190681
 21
-1.0
 31
0.0
  0
LINE
  5
109
330
3A
100
AcDbEntity
  8
Hawa5
 62
     1
 48
0.031986
100
AcDbLine
 10
135.75
 20
-4.622499999999999
 30
0.0
 11
136.967798
 21
-4.230158999999999
 31
0.0
  0
LINE
  5
10A
330
3A
100
AcDbEntity
  8
Hawa5
 62
     1
 48
0.031986
100
AcDbLine
 10
124.25
 20
-4.622499999999999
 30
0.0
 11
123.032202
 21
-4.230158999999999
 31
0.0
  0
LINE
  5
10B
330
3A
100
AcDbEntity
  8
Hawa5
 62
     1
 48
0.030383
100
AcDbLine
 10
122.5
 20
0.0
 30
0.0
 11
121.809319
 21
-1.0
 31
0.0
  0
LINE
  5
10C
330
3A
100
AcDbEntity
  8
Hawa5
 62
     1
 48
0.031986
100
AcDbLine
 10
975.75
 20
-4.622499999999999
 30
0.0
 11
976.967798
 21
-4.230158999999999
 31
0.0
  0
LINE
  5
10D
330
3A
100
AcDbEntity
  8
Hawa5
 62
     1
 48
0.030383
100
AcDbLine
 10
977.5
 20
0.0
 30
0.0
 11
978.190681
 21
-1.0
 31
0.0
  0
LINE
  5
10E
330
3A
100
AcDbEntity
  8
Hawa5
 62
     1
100
AcDbLine
 10
1.0
 20
0.0
 30
0.0
 11
122.5
 21
0.0
 31
0.0
  0
LINE
  5
10F
330
3A
100
AcDbEntity
  8
Hawa5
 62
     1
 48
0.017678
100
AcDbLine
 10
0.5
 20
-0.5
 30
0.0
 11
1.0
 21
-1.0
 31
0.0
  0
LINE
  5
110
330
3A
100
AcDbEntity
  8
Hawa5
 62
     1
 48
0.017678
100
AcDbLine
 10
0.5
 20
-0.5
 30
0.0
 11
1.0
 21
0.0
 31
0.0
  0
LINE
  5
111
330
3A
100
AcDbEntity
  8
Hawa5
 62
     1
 48
0.017678
100
AcDbLine
 10
0.5
 20
-0.5
 30
0.0
 11
0.0
 21
-1.0
 31
0.0
  0
LINE
  5
112
330
3A
100
AcDbEntity
  8
Hawa5
 62
     1
100
AcDbLine
 10
0.0
 20
-1.0
 30
0.0
 11
0.0
 21
-1999.0
 31
0.0
  0
LINE
  5
113
330
3A
100
AcDbEntity
  8
Hawa5
 62
     1
 48
0.017678
100
AcDbLine
 10
0.5
 20
-1999.5
 30
0.0
 11
0.0
 21
-1999.0
 31
0.0
  0
LINE
  5
114
330
3A
100
AcDbEntity
  8
Hawa5
 62
     1
 48
0.017678
100
AcDbLine
 10
0.5
 20
-1999.5
 30
0.0
 11
1.0
 21
-1999.0
 31
0.0
  0
LINE
  5
115
330
3A
100
AcDbEntity
  8
Hawa5
 62
     1
 48
0.017678
100
AcDbLine
 10
0.5
 20
-1999.5
 30
0.0
 11
1.0
 21
-2000.0
 31
0.0
  0
LINE
  5
116
330
3A
100
AcDbEntity
  8
Hawa5
 62
     1
100
AcDbLine
 10
1099.0
 20
-2000.0
 30
0.0
 11
1.0
 21
-2000.0
 31
0.0
  0
LINE
  5
117
330
3A
100
AcDbEntity
  8
Hawa5
 62
     1
 48
0.017678
100
AcDbLine
 10
1099.5
 20
-1999.5
 30
0.0
 11
1099.0
 21
-1999.0
 31
0.0
  0
LINE
  5
118
330
3A
100
AcDbEntity
  8
Hawa5
 62
     1
 48
0.017678
100
AcDbLine
 10
1099.5
 20
-1999.5
 30
0.0
 11
1099.0
 21
-2000.0
 31
0.0
  0
LINE
  5
119
330
3A
100
AcDbEntity
  8
Hawa5
 62
     1
 48
0.017678
100
AcDbLine
 10
1099.5
 20
-1999.5
 30
0.0
 11
1100.0
 21
-1999.0
 31
0.0
  0
LINE
  5
11A
330
3A
100
AcDbEntity
  8
Hawa5
 62
     1
100
AcDbLine
 10
977.5
 20
0.0
 30
0.0
 11
1099.0
 21
0.0
 31
0.0
  0
LINE
  5
11B
330
3A
100
AcDbEntity
  8
Hawa5
 62
     1
 48
0.017678
100
AcDbLine
 10
1099.5
 20
-0.5
 30
0.0
 11
1099.0
 21
-1.0
 31
0.0
  0
LINE
  5
11C
330
3A
100
AcDbEntity
  8
Hawa5
 62
     1
 48
0.017678
100
AcDbLine
 10
1099.5
 20
-0.5
 30
0.0
 11
1099.0
 21
0.0
 31
0.0
  0
LINE
  5
11D
330
3A
100
AcDbEntity
  8
Hawa5
 62
     1
100
AcDbLine
 10
1100.0
 20
-1999.0
 30
0.0
 11
1100.0
 21
-1.0
 31
0.0
  0
LINE
  5
11E
330
3A
100
AcDbEntity
  8
Hawa5
 62
     1
 48
0.017678
100
AcDbLine
 10
1099.5
 20
-0.5
 30
0.0
 11
1100.0
 21
-1.0
 31
0.0
  0
ENDBLK
  5
11F
330
3A
100
AcDbEntity
  8
0
100
AcDbBlockEnd
  0
BLOCK
  5
1B9
330
1B8
100
AcDbEntity
  8
0
100
AcDbBlockBegin
  2
_Oblique
 70
     0
 10
0.0
 20
0.0
 30
0.0
  3
_Oblique
  1

  0
LINE
  5
1BA
330
1B8
100
AcDbEntity
  8
0
 62
     0
370
    -2
100
AcDbLine
 10
-0.5
 20
-0.5
 30
0.0
 11
0.5
 21
0.5
 31
0.0
  0
ENDBLK
  5
1BB
330
1B8
100
AcDbEntity
  8
0
100
AcDbBlockEnd
  0
ENDSEC
  0
SECTION
  2
ENTITIES
  0
DIMENSION
  5
20
330
A
100
AcDbEntity
  8
Hawa1
 62
     0
100
AcDbDimension
  2
*D0
 10
-109.9350011835573
 20
1300.544363673096
 30
0.0
 11
-44.93494921440774
 21
1304.965551239502
 31
0.0
 70
    32
 71
     5
 42
129.9999566908328
 52
89.999523
  3
HAWA-Strich
100
AcDbAlignedDimension
 13
20.064428
 23
1268.862002
 33
0.0
 14
-109.935572
 24
1266.262002
 34
0.0
 50
179.999046
100
AcDbRotatedDimension
  0
DIMENSION
  5
22
330
A
100
AcDbEntity
  8
Hawa1
 62
     0
100
AcDbDimension
  2
*D1
 10
130.064428
 20
1210.248055
 30
0.0
 11
312.564428
 21
1214.692405349761
 31
0.0
 70
    33
  1
<>
 71
     5
 42
365.0
 52
89.999523
  3
HAWA-Strich
100
AcDbAlignedDimension
 13
495.064428
 23
1242.262002
 33
0.0
 14
130.064428
 24
1242.262002
 34
0.0
  0
DIMENSION
  5
24
330
A
100
AcDbEntity
  8
Hawa1
 62
     0
100
AcDbDimension
  2
*D2
 10
860.0648340442372
 20
1293.248397271909
 30
0.0
 11
925.0649293045338
 21
1297.669584837594
 31
0.0
 70
    32
 71
     5
 42
130.0000432731263
 52
89.999523
  3
HAWA-Strich
100
AcDbAlignedDimension
 13
990.0644279999999
 23
1266.262002
 33
0.0
 14
860.0644279999999
 24
1268.862002
 34
0.0
 50
179.999046
100
AcDbRotatedDimension
  0
DIMENSION
  5
26
330
A
100
AcDbEntity
  8
Hawa1
 62
     0
100
AcDbDimension
  2
*D3
 10
507.7315069348732
 20
1230.261385923383
 30
0.0
 11
503.2876186408121
 21
1248.761680078204
 31
0.0
 70
    32
 71
     5
 42
37.00036632000024
 52
89.999523
  3
HAWA-Strich
100
AcDbAlignedDimension
 13
497.731969
 23
1267.262002
 33
0.0
 14
483.064428
 24
1230.262002
 34
0.0
 50
269.998569
100
AcDbRotatedDimension
  0
DIMENSION
  5
28
330
A
100
AcDbEntity
  8
Hawa1
 62
     0
100
AcDbDimension
  2
*D4
 10
483.064428
 20
1242.262001999999
 30
0.0
 11
509.4739262481029
 21
1214.363971114292
 31
0.0
 70
   164
  1
R<>
 71
     5
 42
11.99999958114585
  3
HAWA-Strich
100
AcDbRadialDimension
 15
491.3140349999999
 25
1233.547418
 35
0.0
 40
0.0
  0
DIMENSION
  5
2A
330
A
100
AcDbEntity
  8
Hawa1
 62
     0
100
AcDbDimension
  2
*D5
 10
-109.935572
 20
-773.7000016633255
 30
0.0
 11
440.0644279999999
 21
-769.2745298579595
 31
0.0
 70
    33
  1
GB(=>850 / [=>2' 9 {\H0.7x;\S15/32;}] )
 71
     5
 42
1100.0
 52
89.999523
  3
HAWA-Strich
100
AcDbAlignedDimension
 13
990.0644279999999
 23
-731.7379980000001
 33
0.0
 14
-109.935572
 24
-731.7379980000001
 34
0.0
  0
DIMENSION
  5
2C
330
A
100
AcDbEntity
  8
Hawa1
 62
     0
100
AcDbDimension
  2
*D6
 10
20.06397156093927
 20
1210.248970781858
 30
0.0
 11
75.0640068965606
 21
1214.671174103123
 31
0.0
 70
    32
 71
     5
 42
109.9999233927231
 52
89.999523
  3
HAWA-Strich
100
AcDbAlignedDimension
 13
130.064428
 23
1242.262002
 33
0.0
 14
20.064428
 24
1237.662002
 34
0.0
 50
179.999046
100
AcDbRotatedDimension
  0
DIMENSION
  5
2E
330
A
100
AcDbEntity
  8
Hawa1
 62
     0
100
AcDbDimension
  2
*D7
 10
1019.378336182139
 20
1267.262002
 30
0.0
 11
1016.568649961129
 21
267.2620020000001
 31
0.0
 70
    33
  1
GH
 71
     5
 42
2000.0
 52
89.999523
  3
HAWA-Strich
100
AcDbAlignedDimension
 13
989.064428
 23
-732.737998
 33
0.0
 14
989.064428
 24
1267.262002
 34
0.0
  0
DIMENSION
  5
30
330
A
100
AcDbEntity
  8
Hawa1
 62
     0
100
AcDbDimension
  2
*D8
 10
12.564428
 20
1287.064771635286
 30
0.0
 11
1.225915943898144
 21
1287.064771635286
 31
0.0
 70
   161
  1
<>{}{%%p0.5}
 71
     5
 42
15.0
 52
89.999523
  3
HAWA-Strich ohne Inch
100
AcDbAlignedDimension
 13
27.564428
 23
1267.262002
 33
0.0
 14
12.564428
 24
1267.262002
 34
0.0
  0
DIMENSION
  5
32
330
A
100
AcDbEntity
  8
Hawa1
 62
     0
100
AcDbDimension
  2
*D9
 10
14.31465139620258
 20
1276.05633492665
 30
0.0
 11
3.093756465656769
 21
1278.843527216912
 31
0.0
 70
    32
  1
<>{}{%%p0.5}
 71
     5
 42
11.49999999840589
 52
89.999523
  3
HAWA-Strich ohne Inch
100
AcDbAlignedDimension
 13
25.814428
 23
1262.639501
 33
0.0
 14
14.314428
 24
1262.639501
 34
0.0
 50
179.999046
100
AcDbRotatedDimension
  0
DIMENSION
  5
34
330
A
100
AcDbEntity
  8
Hawa1
 62
     0
100
AcDbDimension
  2
*D10
 10
-13.23656740525325
 20
1267.262202619769
 30
0.0
 11
-13.23679697087523
 21
1239.687483001994
 31
0.0
 70
   160
  1
<>{}{%%p0.5}
 71
     5
 42
14.00005325459369
 52
89.999523
  3
HAWA-Strich ohne Inch
100
AcDbAlignedDimension
 13
4.464427999999999
 23
1253.262002
 33
0.0
 14
10.861265
 24
1267.262002
 34
0.0
 50
89.999523
100
AcDbRotatedDimension
  0
DIMENSION
  5
36
330
A
100
AcDbEntity
  8
Hawa1
 62
     0
100
AcDbDimension
  2
*D11
 10
9.064427999999997
 20
1218.327425645372
 30
0.0
 11
-2.15543898499318
 21
1218.327425645372
 31
0.0
 70
   161
  1
%%c<>{}{%%p0.2}
 71
     5
 42
22.00000000000001
 52
89.999523
  3
HAWA-Strich ohne Inch
100
AcDbAlignedDimension
 13
31.064428
 23
1253.262002
 33
0.0
 14
9.064427999999999
 24
1253.262002
 34
0.0
  0
LINE
  5
148
330
A
100
AcDbEntity
  8
Hawa1
100
AcDbLine
 10
875.6644039999999
 20
1253.262002
 30
0.0
 11
844.4644519999998
 21
1253.262002
 31
0.0
  0
LINE
  5
149
330
A
100
AcDbEntity
  8
Hawa1
100
AcDbLine
 10
860.0644279999999
 20
1268.862002
 30
0.0
 11
860.0644279999999
 21
1237.662002
 31
0.0
  0
LINE
  5
14A
330
A
100
AcDbEntity
  8
Hawa1
100
AcDbLine
 10
35.66443400000001
 20
1253.262002
 30
0.0
 11
4.464430000000006
 21
1253.262002
 31
0.0
  0
LINE
  5
14B
330
A
100
AcDbEntity
  8
Hawa1
100
AcDbLine
 10
20.06442800000002
 20
1268.862002
 30
0.0
 11
20.06442800000002
 21
1237.662002
 31
0.0
  0
LINE
  5
14C
330
A
100
AcDbEntity
  8
Hawa5
 62
     1
100
AcDbLine
 10
496.064428
 20
1266.262002
 30
0.0
 11
851.8737470000001
 21
1266.262002
 31
0.0
  0
LINE
  5
14D
330
A
100
AcDbEntity
  8
Hawa5
 62
     1
100
AcDbLine
 10
496.064428
 20
1242.262002
 30
0.0
 11
496.064428
 21
1266.262002
 31
0.0
  0
ARC
  5
14E
330
A
100
AcDbEntity
  8
Hawa5
 62
     1
100
AcDbCircle
 10
483.064428
 20
1242.262002
 30
0.0
 40
13.0
100
AcDbArc
 50
270.0
 51
0.0
  0
LINE
  5
14F
330
A
100
AcDbEntity
  8
Hawa5
 62
     1
100
AcDbLine
 10
142.064428
 20
1229.262002
 30
0.0
 11
483.064428
 21
1229.262002
 31
0.0
  0
ARC
  5
150
330
A
100
AcDbEntity
  8
Hawa5
 62
     1
100
AcDbCircle
 10
142.064428
 20
1242.262002
 30
0.0
 40
13.0
100
AcDbArc
 50
180.0
 51
270.0
  0
LINE
  5
151
330
A
100
AcDbEntity
  8
Hawa5
 62
     1
100
AcDbLine
 10
129.064428
 20
1266.262002
 30
0.0
 11
129.064428
 21
1242.262002
 31
0.0
  0
LINE
  5
152
330
A
100
AcDbEntity
  8
Hawa5
 62
     1
100
AcDbLine
 10
28.25510900000002
 20
1266.262002
 30
0.0
 11
129.064428
 21
1266.262002
 31
0.0
  0
LINE
  5
153
330
A
100
AcDbEntity
  8
Hawa5
 62
     1
 48
0.086347
100
AcDbLine
 10
28.25510900000002
 20
1266.262002
 30
0.0
 11
27.03222599999999
 21
1263.031843
 31
0.0
  0
ARC
  5
154
330
A
100
AcDbEntity
  8
Hawa5
 62
     1
100
AcDbCircle
 10
20.06442800000002
 20
1253.262002
 30
0.0
 40
12.0
100
AcDbArc
 50
125.4962590000002
 51
54.50374099999965
  0
LINE
  5
155
330
A
100
AcDbEntity
  8
Hawa5
 62
     1
 48
0.086347
100
AcDbLine
 10
13.09663
 20
1263.031843
 30
0.0
 11
11.87374700000001
 21
1266.262002
 31
0.0
  0
LINE
  5
156
330
A
100
AcDbEntity
  8
Hawa5
 62
     1
100
AcDbLine
 10
-108.935572
 20
1266.262002
 30
0.0
 11
11.87374700000001
 21
1266.262002
 31
0.0
  0
LINE
  5
157
330
A
100
AcDbEntity
  8
Hawa5
 62
     1
100
AcDbLine
 10
-108.935572
 20
1266.262002
 30
0.0
 11
-108.935572
 21
-731.7379980000001
 31
0.0
  0
LINE
  5
158
330
A
100
AcDbEntity
  8
Hawa5
 62
     1
100
AcDbLine
 10
989.064428
 20
-731.7379980000001
 30
0.0
 11
-108.935572
 21
-731.7379980000001
 31
0.0
  0
LINE
  5
159
330
A
100
AcDbEntity
  8
Hawa5
 62
     1
100
AcDbLine
 10
989.064428
 20
-731.7379980000001
 30
0.0
 11
989.064428
 21
1266.262002
 31
0.0
  0
LINE
  5
15A
330
A
100
AcDbEntity
  8
Hawa5
 62
     1
100
AcDbLine
 10
868.2551090000002
 20
1266.262002
 30
0.0
 11
989.064428
 21
1266.262002
 31
0.0
  0
LINE
  5
15B
330
A
100
AcDbEntity
  8
Hawa5
 62
     1
 48
0.086347
100
AcDbLine
 10
867.0322259999998
 20
1263.031843
 30
0.0
 11
868.2551090000002
 21
1266.262002
 31
0.0
  0
ARC
  5
15C
330
A
100
AcDbEntity
  8
Hawa5
 62
     1
100
AcDbCircle
 10
860.0644279999999
 20
1253.262002
 30
0.0
 40
12.0
100
AcDbArc
 50
125.4962590000001
 51
54.5037409999999
  0
LINE
  5
15D
330
A
100
AcDbEntity
  8
Hawa5
 62
     1
 48
0.086347
100
AcDbLine
 10
851.8737470000001
 20
1266.262002
 30
0.0
 11
853.0966300000001
 21
1263.031843
 31
0.0
  0
LINE
  5
15E
330
A
100
AcDbEntity
  8
Hawa5
 62
     1
 48
0.123567
100
AcDbLine
 10
865.814428
 20
1262.639502
 30
0.0
 11
867.5644279999998
 21
1267.262002
 31
0.0
  0
ARC
  5
15F
330
A
100
AcDbEntity
  8
Hawa5
 62
     1
100
AcDbCircle
 10
860.0644279999999
 20
1253.262002
 30
0.0
 40
11.0
100
AcDbArc
 50
121.5153700000001
 51
58.48462999999992
  0
ARC
  5
160
330
A
100
AcDbEntity
  8
Hawa5
 62
     1
100
AcDbCircle
 10
483.064428
 20
1242.262002
 30
0.0
 40
12.0
100
AcDbArc
 50
270.0
 51
0.0
  0
ARC
  5
161
330
A
100
AcDbEntity
  8
Hawa5
 62
     1
100
AcDbCircle
 10
142.064428
 20
1242.262002
 30
0.0
 40
12.0
100
AcDbArc
 50
180.0
 51
270.0
  0
ARC
  5
162
330
A
100
AcDbEntity
  8
Hawa5
 62
     1
100
AcDbCircle
 10
20.06442800000002
 20
1253.262002
 30
0.0
 40
11.0
100
AcDbArc
 50
121.51537
 51
58.48463000000005
  0
LINE
  5
163
330
A
100
AcDbEntity
  8
Hawa5
 62
     1
 48
0.123567
100
AcDbLine
 10
852.5644279999999
 20
1267.262002
 30
0.0
 11
854.3144279999999
 21
1262.639502
 31
0.0
  0
LINE
  5
164
330
A
100
AcDbEntity
  8
Hawa5
 62
     1
 48
0.123567
100
AcDbLine
 10
14.31442800000001
 20
1262.639502
 30
0.0
 11
12.56442800000001
 21
1267.262002
 31
0.0
  0
LINE
  5
165
330
A
100
AcDbEntity
  8
Hawa5
 62
     1
 48
0.123567
100
AcDbLine
 10
27.56442800000001
 20
1267.262002
 30
0.0
 11
25.81442800000001
 21
1262.639502
 31
0.0
  0
LINE
  5
166
330
A
100
AcDbEntity
  8
Hawa5
 62
     1
100
AcDbLine
 10
27.56442800000001
 20
1267.262002
 30
0.0
 11
130.064428
 21
1267.262002
 31
0.0
  0
LINE
  5
167
330
A
100
AcDbEntity
  8
Hawa5
 62
     1
100
AcDbLine
 10
130.064428
 20
1267.262002
 30
0.0
 11
130.064428
 21
1242.262002
 31
0.0
  0
LINE
  5
168
330
A
100
AcDbEntity
  8
Hawa5
 62
     1
100
AcDbLine
 10
142.064428
 20
1230.262002
 30
0.0
 11
483.064428
 21
1230.262002
 31
0.0
  0
LINE
  5
169
330
A
100
AcDbEntity
  8
Hawa5
 62
     1
100
AcDbLine
 10
495.064428
 20
1242.262002
 30
0.0
 11
495.064428
 21
1267.262002
 31
0.0
  0
LINE
  5
16A
330
A
100
AcDbEntity
  8
Hawa5
 62
     1
100
AcDbLine
 10
495.064428
 20
1267.262002
 30
0.0
 11
852.5644279999999
 21
1267.262002
 31
0.0
  0
LINE
  5
16B
330
A
100
AcDbEntity
  8
Hawa5
 62
     1
 48
0.025
100
AcDbLine
 10
496.064428
 20
1242.262002
 30
0.0
 11
495.064428
 21
1242.262002
 31
0.0
  0
LINE
  5
16C
330
A
100
AcDbEntity
  8
Hawa5
 62
     1
 48
0.025
100
AcDbLine
 10
483.064428
 20
1229.262002
 30
0.0
 11
483.064428
 21
1230.262002
 31
0.0
  0
LINE
  5
16D
330
A
100
AcDbEntity
  8
Hawa5
 62
     1
 48
0.025
100
AcDbLine
 10
142.064428
 20
1229.262002
 30
0.0
 11
142.064428
 21
1230.262002
 31
0.0
  0
LINE
  5
16E
330
A
100
AcDbEntity
  8
Hawa5
 62
     1
 48
0.025
100
AcDbLine
 10
129.064428
 20
1242.262002
 30
0.0
 11
130.064428
 21
1242.262002
 31
0.0
  0
LINE
  5
16F
330
A
100
AcDbEntity
  8
Hawa5
 62
     1
 48
0.030383
100
AcDbLine
 10
852.5644279999999
 20
1267.262002
 30
0.0
 11
851.8737470000001
 21
1266.262002
 31
0.0
  0
LINE
  5
170
330
A
100
AcDbEntity
  8
Hawa5
 62
     1
 48
0.031986
100
AcDbLine
 10
854.3144279999999
 20
1262.639502
 30
0.0
 11
853.0966300000001
 21
1263.031843
 31
0.0
  0
LINE
  5
171
330
A
100
AcDbEntity
  8
Hawa5
 62
     1
 48
0.035355
100
AcDbLine
 10
495.064428
 20
1267.262002
 30
0.0
 11
496.064428
 21
1266.262002
 31
0.0
  0
LINE
  5
172
330
A
100
AcDbEntity
  8
Hawa5
 62
     1
 48
0.035355
100
AcDbLine
 10
130.064428
 20
1267.262002
 30
0.0
 11
129.064428
 21
1266.262002
 31
0.0
  0
LINE
  5
173
330
A
100
AcDbEntity
  8
Hawa5
 62
     1
 48
0.030383
100
AcDbLine
 10
27.56442800000001
 20
1267.262002
 30
0.0
 11
28.25510900000002
 21
1266.262002
 31
0.0
  0
LINE
  5
174
330
A
100
AcDbEntity
  8
Hawa5
 62
     1
 48
0.031986
100
AcDbLine
 10
25.81442800000001
 20
1262.639502
 30
0.0
 11
27.03222599999999
 21
1263.031843
 31
0.0
  0
LINE
  5
175
330
A
100
AcDbEntity
  8
Hawa5
 62
     1
 48
0.031986
100
AcDbLine
 10
14.31442800000001
 20
1262.639502
 30
0.0
 11
13.09663
 21
1263.031843
 31
0.0
  0
LINE
  5
176
330
A
100
AcDbEntity
  8
Hawa5
 62
     1
 48
0.030383
100
AcDbLine
 10
12.56442800000001
 20
1267.262002
 30
0.0
 11
11.87374700000001
 21
1266.262002
 31
0.0
  0
LINE
  5
177
330
A
100
AcDbEntity
  8
Hawa5
 62
     1
 48
0.031986
100
AcDbLine
 10
865.814428
 20
1262.639502
 30
0.0
 11
867.0322259999998
 21
1263.031843
 31
0.0
  0
LINE
  5
178
330
A
100
AcDbEntity
  8
Hawa5
 62
     1
 48
0.030383
100
AcDbLine
 10
867.5644279999998
 20
1267.262002
 30
0.0
 11
868.2551090000002
 21
1266.262002
 31
0.0
  0
LINE
  5
179
330
A
100
AcDbEntity
  8
Hawa5
 62
     1
100
AcDbLine
 10
-108.935572
 20
1267.262002
 30
0.0
 11
12.56442800000001
 21
1267.262002
 31
0.0
  0
LINE
  5
17A
330
A
100
AcDbEntity
  8
Hawa5
 62
     1
 48
0.017678
100
AcDbLine
 10
-109.435572
 20
1266.762002
 30
0.0
 11
-108.935572
 21
1266.262002
 31
0.0
  0
LINE
  5
17B
330
A
100
AcDbEntity
  8
Hawa5
 62
     1
 48
0.017678
100
AcDbLine
 10
-109.435572
 20
1266.762002
 30
0.0
 11
-108.935572
 21
1267.262002
 31
0.0
  0
LINE
  5
17C
330
A
100
AcDbEntity
  8
Hawa5
 62
     1
 48
0.017678
100
AcDbLine
 10
-109.435572
 20
1266.762002
 30
0.0
 11
-109.935572
 21
1266.262002
 31
0.0
  0
LINE
  5
17D
330
A
100
AcDbEntity
  8
Hawa5
 62
     1
100
AcDbLine
 10
-109.935572
 20
1266.262002
 30
0.0
 11
-109.935572
 21
-731.7379980000001
 31
0.0
  0
LINE
  5
17E
330
A
100
AcDbEntity
  8
Hawa5
 62
     1
 48
0.017678
100
AcDbLine
 10
-109.435572
 20
-732.2379980000001
 30
0.0
 11
-109.935572
 21
-731.7379980000001
 31
0.0
  0
LINE
  5
17F
330
A
100
AcDbEntity
  8
Hawa5
 62
     1
 48
0.017678
100
AcDbLine
 10
-109.435572
 20
-732.2379980000001
 30
0.0
 11
-108.935572
 21
-731.7379980000001
 31
0.0
  0
LINE
  5
180
330
A
100
AcDbEntity
  8
Hawa5
 62
     1
 48
0.017678
100
AcDbLine
 10
-109.435572
 20
-732.2379980000001
 30
0.0
 11
-108.935572
 21
-732.7379980000001
 31
0.0
  0
LINE
  5
181
330
A
100
AcDbEntity
  8
Hawa5
 62
     1
100
AcDbLine
 10
989.064428
 20
-732.7379980000001
 30
0.0
 11
-108.935572
 21
-732.7379980000001
 31
0.0
  0
LINE
  5
182
330
A
100
AcDbEntity
  8
Hawa5
 62
     1
 48
0.017678
100
AcDbLine
 10
989.5644279999999
 20
-732.2379980000001
 30
0.0
 11
989.064428
 21
-731.7379980000001
 31
0.0
  0
LINE
  5
183
330
A
100
AcDbEntity
  8
Hawa5
 62
     1
 48
0.017678
100
AcDbLine
 10
989.5644279999999
 20
-732.2379980000001
 30
0.0
 11
989.064428
 21
-732.7379980000001
 31
0.0
  0
LINE
  5
184
330
A
100
AcDbEntity
  8
Hawa5
 62
     1
 48
0.017678
100
AcDbLine
 10
989.5644279999999
 20
-732.2379980000001
 30
0.0
 11
990.0644279999999
 21
-731.7379980000001
 31
0.0
  0
LINE
  5
185
330
A
100
AcDbEntity
  8
Hawa5
 62
     1
100
AcDbLine
 10
867.5644279999998
 20
1267.262002
 30
0.0
 11
989.064428
 21
1267.262002
 31
0.0
  0
LINE
  5
186
330
A
100
AcDbEntity
  8
Hawa5
 62
     1
 48
0.017678
100
AcDbLine
 10
989.5644279999999
 20
1266.762002
 30
0.0
 11
989.064428
 21
1266.262002
 31
0.0
  0
LINE
  5
187
330
A
100
AcDbEntity
  8
Hawa5
 62
     1
 48
0.017678
100
AcDbLine
 10
989.5644279999999
 20
1266.762002
 30
0.0
 11
989.064428
 21
1267.262002
 31
0.0
  0
LINE
  5
188
330
A
100
AcDbEntity
  8
Hawa5
 62
     1
100
AcDbLine
 10
990.0644279999999
 20
-731.7379980000001
 30
0.0
 11
990.0644279999999
 21
1266.262002
 31
0.0
  0
LINE
  5
189
330
A
100
AcDbEntity
  8
Hawa5
 62
     1
 48
0.017678
100
AcDbLine
 10
989.5644279999999
 20
1266.762002
 30
0.0
 11
990.0644279999999
 21
1266.262002
 31
0.0
  0
VIEWPORT
  5
37
102
{ACAD_XDICTIONARY
360
53B
102
}
330
B
100
AcDbEntity
 67
     1
  8
0
 62
     0
100
AcDbViewport
 10
0.0
 20
0.0
 30
0.0
 40
1000.0
 41
1000.0
 68
     1
 69
     1
 12
0.0
 22
0.0
 13
0.0
 23
0.0
 14
1.0
 24
1.0
 15
1.0
 25
1.0
 16
0.0
 26
0.0
 36
1.0
 17
0.0
 27
0.0
 37
0.0
 42
50.0
 43
0.0
 44
0.0
 45
1000.0
 50
0.0
 51
0.0
 72
   100
 90
   557216
  1

281
     0
 71
     1
 74
     0
110
0.0
120
0.0
130
0.0
111
1.0
121
0.0
131
0.0
112
0.0
122
1.0
132
0.0
 79
     0
146
0.0
  0
ENDSEC
  0
SECTION
  2
OBJECTS
  0
DICTIONARY
  5
19
330
0
100
AcDbDictionary
281
     1
  3
ACAD_COLOR
350
1AF
  3
ACAD_GROUP
350
1A
  3
ACAD_LAYOUT
350
123
  3
ACAD_MATERIAL
350
19A
  3
ACAD_MLEADERSTYLE
350
191
  3
ACAD_MLINESTYLE
350
1B
  3
ACAD_PLOTSETTINGS
350
1B2
  3
ACAD_PLOTSTYLENAME
350
198
  3
ACAD_SCALELIST
350
126
  3
ACAD_TABLESTYLE
350
1B0
  3
ACAD_VISUALSTYLE
350
19E
  3
AcDbVariableDictionary
350
18F
  3
DWGPROPS
350
53A
  0
DICTIONARY
  5
53B
330
37
100
AcDbDictionary
280
     1
281
     1
  3
ACAD_XREC_ROUNDTRIP
360
53C
  0
DICTIONARY
  5
1AF
102
{ACAD_REACTORS
330
19
102
}
330
19
100
AcDbDictionary
281
     1
  0
DICTIONARY
  5
1A
102
{ACAD_REACTORS
330
19
102
}
330
19
100
AcDbDictionary
281
     1
  0
DICTIONARY
  5
123
102
{ACAD_REACTORS
330
19
102
}
330
19
100
AcDbDictionary
281
     1
  3
Layout1
350
125
  3
Model
350
124
  0
DICTIONARY
  5
19A
102
{ACAD_REACTORS
330
19
102
}
330
19
100
AcDbDictionary
281
     1
  3
ByBlock
350
19C
  3
ByLayer
350
19B
  3
Global
350
19D
  0
DICTIONARY
  5
191
102
{ACAD_REACTORS
330
19
102
}
330
19
100
AcDbDictionary
281
     1
  0
DICTIONARY
  5
1B
102
{ACAD_REACTORS
330
19
102
}
330
19
100
AcDbDictionary
281
     1
  3
STANDARD
350
1C
  0
DICTIONARY
  5
1B2
102
{ACAD_REACTORS
330
19
102
}
330
19
100
AcDbDictionary
281
     1
  0
ACDBDICTIONARYWDFLT
  5
198
102
{ACAD_REACTORS
330
19
102
}
330
19
100
AcDbDictionary
281
     1
  3
Normal
350
199
100
AcDbDictionaryWithDefault
340
199
  0
DICTIONARY
  5
126
102
{ACAD_REACTORS
330
19
102
}
330
19
100
AcDbDictionary
281
     1
  3
A0
350
127
  3
A1
350
128
  3
A2
350
129
  3
A3
350
12A
  3
A4
350
12B
  3
A5
350
12C
  3
A6
350
12D
  3
A7
350
12E
  3
A8
350
12F
  3
A9
350
130
  3
B0
350
131
  3
B1
350
132
  3
B2
350
133
  3
B3
350
134
  3
B4
350
135
  3
B5
350
136
  3
B6
350
137
  3
B7
350
138
  3
B8
350
139
  3
B9
350
13A
  3
C0
350
13B
  3
C1
350
13C
  3
C2
350
13D
  3
C3
350
13E
  3
C4
350
13F
  3
C5
350
140
  3
C6
350
141
  3
C7
350
142
  3
C8
350
143
  3
C9
350
144
  3
D0
350
145
  3
D1
350
146
  3
D2
350
147
  0
DICTIONARY
  5
1B0
102
{ACAD_REACTORS
330
19
102
}
330
19
100
AcDbDictionary
281
     1
  3
Standard
350
1B1
  0
DICTIONARY
  5
19E
102
{ACAD_REACTORS
330
19
102
}
330
19
100
AcDbDictionary
281
     1
  3
2dWireframe
350
1A4
  3
3D Hidden
350
1A6
  3
3dWireframe
350
1A5
  3
Basic
350
1A3
  3
Brighten
350
1AA
  3
ColorChange
350
1AE
  3
Conceptual
350
1A7
  3
Dim
350
1A9
  3
Facepattern
350
1AD
  3
Flat
350
19F
  3
FlatWithEdges
350
1A0
  3
Gouraud
350
1A1
  3
GouraudWithEdges
350
1A2
  3
Linepattern
350
1AC
  3
Realistic
350
1A8
  3
Thicken
350
1AB
  0
DICTIONARY
  5
18F
102
{ACAD_REACTORS
330
19
102
}
330
19
100
AcDbDictionary
281
     1
  3
CANNOSCALE
350
192
  3
CTABLESTYLE
350
31D
  3
DIMASSOC
350
50F
  3
INDEXCTL
350
50E
  3
SORTENTS
350
50D
  0
XRECORD
  5
53A
102
{ACAD_REACTORS
330
19
102
}
330
19
100
AcDbXrecord
280
     1
  1
DWGPROPS COOKIE
  2

  3

  4

  6

  7

  8
buet
  9

300
=
301
=
302
=
303
=
304
=
305
=
306
=
307
=
308
=
309
=
 40
0.0321359027777778
 41
2447893.0
 42
2456721.407040683
  1

 90
        0
  0
XRECORD
  5
53C
102
{ACAD_REACTORS
330
53B
102
}
330
53B
100
AcDbXrecord
280
     1
102
SHADEPLOT
 70
     0
  0
LAYOUT
  5
125
102
{ACAD_XDICTIONARY
360
53F
102
}
102
{ACAD_REACTORS
330
123
102
}
330
123
100
AcDbPlotSettings
  1

  2
none_device
  4

  6

 40
0.0
 41
0.0
 42
0.0
 43
0.0
 44
0.0
 45
0.0
 46
0.0
 47
0.0
 48
0.0
 49
0.0
140
0.0
141
0.0
142
1.0
143
1.0
 70
   688
 72
     0
 73
     0
 74
     5
  7

 75
    16
147
1.0
148
0.0
149
0.0
100
AcDbLayout
  1
Layout1
 70
     1
 71
     1
 10
0.0
 20
0.0
 11
420.0
 21
297.0
 12
0.0
 22
0.0
 32
0.0
 14
0.0
 24
0.0
 34
0.0
 15
1207.164429
 25
282.0
 35
2.0
146
0.0
 13
0.0
 23
0.0
 33
0.0
 16
1.0
 26
0.0
 36
0.0
 17
0.0
 27
1.0
 37
0.0
 76
     0
330
B
331
37
  0
LAYOUT
  5
124
102
{ACAD_XDICTIONARY
360
53D
102
}
102
{ACAD_REACTORS
330
123
102
}
330
123
100
AcDbPlotSettings
  1

  2
none_device
  4

  6

 40
0.0
 41
0.0
 42
0.0
 43
0.0
 44
0.0
 45
0.0
 46
0.0
 47
0.0
 48
0.0
 49
0.0
140
0.0
141
0.0
142
1.0
143
1.0
 70
   688
 72
     0
 73
     0
 74
     5
  7

 75
    16
147
1.0
148
0.0
149
0.0
100
AcDbLayout
  1
Model
 70
     1
 71
     0
 10
0.0
 20
0.0
 11
0.0
 21
0.0
 12
0.0
 22
0.0
 32
0.0
 14
0.0
 24
0.0
 34
0.0
 15
0.0
 25
0.0
 35
0.0
146
0.0
 13
0.0
 23
0.0
 33
0.0
 16
1.0
 26
0.0
 36
0.0
 17
0.0
 27
1.0
 37
0.0
 76
     0
330
A
331
15
  0
MATERIAL
  5
19C
102
{ACAD_XDICTIONARY
360
543
102
}
102
{ACAD_REACTORS
330
19A
102
}
330
19A
100
AcDbMaterial
  1
ByBlock
  0
MATERIAL
  5
19B
102
{ACAD_XDICTIONARY
360
541
102
}
102
{ACAD_REACTORS
330
19A
102
}
330
19A
100
AcDbMaterial
  1
ByLayer
  0
MATERIAL
  5
19D
102
{ACAD_XDICTIONARY
360
545
102
}
102
{ACAD_REACTORS
330
19A
102
}
330
19A
100
AcDbMaterial
  1
Global
  0
MLINESTYLE
  5
1C
102
{ACAD_REACTORS
330
1B
102
}
330
1B
100
AcDbMlineStyle
  2
STANDARD
 70
     0
  3

 62
     0
 51
90.0
 52
90.0
 71
     2
 49
0.5
 62
   256
  6
BYLAYER
 49
-0.5
 62
   256
  6
BYLAYER
  0
ACDBPLACEHOLDER
  5
199
102
{ACAD_REACTORS
330
198
102
}
330
198
  0
SCALE
  5
127
102
{ACAD_REACTORS
330
126
102
}
330
126
100
AcDbScale
 70
     0
300
1:1
140
1.0
141
1.0
290
     1
1001
ACAD
1000
AcRTDxfName
1000
SCALE
  0
SCALE
  5
128
102
{ACAD_REACTORS
330
126
102
}
330
126
100
AcDbScale
 70
     0
300
1:2
140
1.0
141
2.0
290
     0
1001
ACAD
1000
AcRTDxfName
1000
SCALE
  0
SCALE
  5
129
102
{ACAD_REACTORS
330
126
102
}
330
126
100
AcDbScale
 70
     0
300
1:4
140
1.0
141
4.0
290
     0
1001
ACAD
1000
AcRTDxfName
1000
SCALE
  0
SCALE
  5
12A
102
{ACAD_REACTORS
330
126
102
}
330
126
100
AcDbScale
 70
     0
300
1:5
140
1.0
141
5.0
290
     0
1001
ACAD
1000
AcRTDxfName
1000
SCALE
  0
SCALE
  5
12B
102
{ACAD_REACTORS
330
126
102
}
330
126
100
AcDbScale
 70
     0
300
1:8
140
1.0
141
8.0
290
     0
1001
ACAD
1000
AcRTDxfName
1000
SCALE
  0
SCALE
  5
12C
102
{ACAD_REACTORS
330
126
102
}
330
126
100
AcDbScale
 70
     0
300
1:10
140
1.0
141
10.0
290
     0
1001
ACAD
1000
AcRTDxfName
1000
SCALE
  0
SCALE
  5
12D
102
{ACAD_REACTORS
330
126
102
}
330
126
100
AcDbScale
 70
     0
300
1:16
140
1.0
141
16.0
290
     0
1001
ACAD
1000
AcRTDxfName
1000
SCALE
  0
SCALE
  5
12E
102
{ACAD_REACTORS
330
126
102
}
330
126
100
AcDbScale
 70
     0
300
1:20
140
1.0
141
20.0
290
     0
1001
ACAD
1000
AcRTDxfName
1000
SCALE
  0
SCALE
  5
12F
102
{ACAD_REACTORS
330
126
102
}
330
126
100
AcDbScale
 70
     0
300
1:30
140
1.0
141
30.0
290
     0
1001
ACAD
1000
AcRTDxfName
1000
SCALE
  0
SCALE
  5
130
102
{ACAD_REACTORS
330
126
102
}
330
126
100
AcDbScale
 70
     0
300
1:40
140
1.0
141
40.0
290
     0
1001
ACAD
1000
AcRTDxfName
1000
SCALE
  0
SCALE
  5
131
102
{ACAD_REACTORS
330
126
102
}
330
126
100
AcDbScale
 70
     0
300
1:50
140
1.0
141
50.0
290
     0
1001
ACAD
1000
AcRTDxfName
1000
SCALE
  0
SCALE
  5
132
102
{ACAD_REACTORS
330
126
102
}
330
126
100
AcDbScale
 70
     0
300
1:100
140
1.0
141
100.0
290
     0
1001
ACAD
1000
AcRTDxfName
1000
SCALE
  0
SCALE
  5
133
102
{ACAD_REACTORS
330
126
102
}
330
126
100
AcDbScale
 70
     0
300
2:1
140
2.0
141
1.0
290
     0
1001
ACAD
1000
AcRTDxfName
1000
SCALE
  0
SCALE
  5
134
102
{ACAD_REACTORS
330
126
102
}
330
126
100
AcDbScale
 70
     0
300
4:1
140
4.0
141
1.0
290
     0
1001
ACAD
1000
AcRTDxfName
1000
SCALE
  0
SCALE
  5
135
102
{ACAD_REACTORS
330
126
102
}
330
126
100
AcDbScale
 70
     0
300
8:1
140
8.0
141
1.0
290
     0
1001
ACAD
1000
AcRTDxfName
1000
SCALE
  0
SCALE
  5
136
102
{ACAD_REACTORS
330
126
102
}
330
126
100
AcDbScale
 70
     0
300
10:1
140
10.0
141
1.0
290
     0
1001
ACAD
1000
AcRTDxfName
1000
SCALE
  0
SCALE
  5
137
102
{ACAD_REACTORS
330
126
102
}
330
126
100
AcDbScale
 70
     0
300
100:1
140
100.0
141
1.0
290
     0
1001
ACAD
1000
AcRTDxfName
1000
SCALE
  0
SCALE
  5
138
102
{ACAD_REACTORS
330
126
102
}
330
126
100
AcDbScale
 70
     0
300
1/128" = 1'-0"
140
0.0078125
141
12.0
290
     0
1001
ACAD
1000
AcRTDxfName
1000
SCALE
  0
SCALE
  5
139
102
{ACAD_REACTORS
330
126
102
}
330
126
100
AcDbScale
 70
     0
300
1/64" = 1'-0"
140
0.015625
141
12.0
290
     0
1001
ACAD
1000
AcRTDxfName
1000
SCALE
  0
SCALE
  5
13A
102
{ACAD_REACTORS
330
126
102
}
330
126
100
AcDbScale
 70
     0
300
1/32" = 1'-0"
140
0.03125
141
12.0
290
     0
1001
ACAD
1000
AcRTDxfName
1000
SCALE
  0
SCALE
  5
13B
102
{ACAD_REACTORS
330
126
102
}
330
126
100
AcDbScale
 70
     0
300
1/16" = 1'-0"
140
0.0625
141
12.0
290
     0
1001
ACAD
1000
AcRTDxfName
1000
SCALE
  0
SCALE
  5
13C
102
{ACAD_REACTORS
330
126
102
}
330
126
100
AcDbScale
 70
     0
300
3/32" = 1'-0"
140
0.09375
141
12.0
290
     0
1001
ACAD
1000
AcRTDxfName
1000
SCALE
  0
SCALE
  5
13D
102
{ACAD_REACTORS
330
126
102
}
330
126
100
AcDbScale
 70
     0
300
1/8" = 1'-0"
140
0.125
141
12.0
290
     0
1001
ACAD
1000
AcRTDxfName
1000
SCALE
  0
SCALE
  5
13E
102
{ACAD_REACTORS
330
126
102
}
330
126
100
AcDbScale
 70
     0
300
3/16" = 1'-0"
140
0.1875
141
12.0
290
     0
1001
ACAD
1000
AcRTDxfName
1000
SCALE
  0
SCALE
  5
13F
102
{ACAD_REACTORS
330
126
102
}
330
126
100
AcDbScale
 70
     0
300
1/4" = 1'-0"
140
0.25
141
12.0
290
     0
1001
ACAD
1000
AcRTDxfName
1000
SCALE
  0
SCALE
  5
140
102
{ACAD_REACTORS
330
126
102
}
330
126
100
AcDbScale
 70
     0
300
3/8" = 1'-0"
140
0.375
141
12.0
290
     0
1001
ACAD
1000
AcRTDxfName
1000
SCALE
  0
SCALE
  5
141
102
{ACAD_REACTORS
330
126
102
}
330
126
100
AcDbScale
 70
     0
300
1/2" = 1'-0"
140
0.5
141
12.0
290
     0
1001
ACAD
1000
AcRTDxfName
1000
SCALE
  0
SCALE
  5
142
102
{ACAD_REACTORS
330
126
102
}
330
126
100
AcDbScale
 70
     0
300
3/4" = 1'-0"
140
0.75
141
12.0
290
     0
1001
ACAD
1000
AcRTDxfName
1000
SCALE
  0
SCALE
  5
143
102
{ACAD_REACTORS
330
126
102
}
330
126
100
AcDbScale
 70
     0
300
1" = 1'-0"
140
1.0
141
12.0
290
     0
1001
ACAD
1000
AcRTDxfName
1000
SCALE
  0
SCALE
  5
144
102
{ACAD_REACTORS
330
126
102
}
330
126
100
AcDbScale
 70
     0
300
1-1/2" = 1'-0"
140
1.5
141
12.0
290
     0
1001
ACAD
1000
AcRTDxfName
1000
SCALE
  0
SCALE
  5
145
102
{ACAD_REACTORS
330
126
102
}
330
126
100
AcDbScale
 70
     0
300
3" = 1'-0"
140
3.0
141
12.0
290
     0
1001
ACAD
1000
AcRTDxfName
1000
SCALE
  0
SCALE
  5
146
102
{ACAD_REACTORS
330
126
102
}
330
126
100
AcDbScale
 70
     0
300
6" = 1'-0"
140
6.0
141
12.0
290
     0
1001
ACAD
1000
AcRTDxfName
1000
SCALE
  0
SCALE
  5
147
102
{ACAD_REACTORS
330
126
102
}
330
126
100
AcDbScale
 70
     0
300
1'-0" = 1'-0"
140
12.0
141
12.0
290
     0
1001
ACAD
1000
AcRTDxfName
1000
SCALE
  0
TABLESTYLE
  5
1B1
102
{ACAD_XDICTIONARY
360
547
102
}
102
{ACAD_REACTORS
330
1B0
102
}
330
1B0
100
AcDbTableStyle
  3
Standard
 70
     0
 71
     0
 40
1.5
 41
1.5
280
     0
281
     0
  7
STANDARD
140
4.5
170
     2
 62
     0
 63
     7
283
     0
274
    -2
284
     1
 64
     0
275
    -2
285
     1
 65
     0
276
    -2
286
     1
 66
     0
277
    -2
287
     1
 67
     0
278
    -2
288
     1
 68
     0
279
    -2
289
     1
 69
     0
  7
STANDARD
140
6.0
170
     5
 62
     0
 63
     7
283
     0
274
    -2
284
     1
 64
     0
275
    -2
285
     1
 65
     0
276
    -2
286
     1
 66
     0
277
    -2
287
     1
 67
     0
278
    -2
288
     1
 68
     0
279
    -2
289
     1
 69
     0
  7
STANDARD
140
4.5
170
     5
 62
     0
 63
     7
283
     0
274
    -2
284
     1
 64
     0
275
    -2
285
     1
 65
     0
276
    -2
286
     1
 66
     0
277
    -2
287
     1
 67
     0
278
    -2
288
     1
 68
     0
279
    -2
289
     1
 69
     0
  0
VISUALSTYLE
  5
1A4
102
{ACAD_REACTORS
330
19E
102
}
330
19E
100
AcDbVisualStyle
  2
2dWireframe
 70
     4
 71
     0
 72
     2
 73
     0
 90
        0
 40
-0.6
 41
-30.0
 62
     5
 63
     7
 74
     1
 91
        4
 64
     7
 65
   257
 75
     1
175
     1
 42
1.0
 92
        0
 66
   257
 43
1.0
 76
     1
 77
     6
 78
     2
 67
     7
 79
     5
170
     0
171
     0
290
     0
174
     0
 93
        1
 44
0.0
173
     0
291
     0
 45
0.0
1001
ACAD
1000
AcDbSavedByObjectVersion
1070
     0
  0
VISUALSTYLE
  5
1A6
102
{ACAD_REACTORS
330
19E
102
}
330
19E
100
AcDbVisualStyle
  2
3D Hidden
 70
     6
 71
     1
 72
     2
 73
     2
 90
        0
 40
-0.6
 41
-30.0
 62
     5
 63
     7
 74
     2
 91
        2
 64
     7
 65
   257
 75
     2
175
     1
 42
40.0
 92
        0
 66
   257
 43
1.0
 76
     1
 77
     6
 78
     2
 67
     7
 79
     3
170
     0
171
     0
290
     0
174
     0
 93
        1
 44
0.0
173
     0
291
     0
 45
0.0
1001
ACAD
1000
AcDbSavedByObjectVersion
1070
     0
  0
VISUALSTYLE
  5
1A5
102
{ACAD_REACTORS
330
19E
102
}
330
19E
100
AcDbVisualStyle
  2
3dWireframe
 70
     5
 71
     0
 72
     2
 73
     0
 90
        0
 40
-0.6
 41
-30.0
 62
     5
 63
     7
 74
     1
 91
        4
 64
     7
 65
   257
 75
     1
175
     1
 42
1.0
 92
        0
 66
   257
 43
1.0
 76
     1
 77
     6
 78
     2
 67
     7
 79
     5
170
     0
171
     0
290
     0
174
     0
 93
        1
 44
0.0
173
     0
291
     0
 45
0.0
1001
ACAD
1000
AcDbSavedByObjectVersion
1070
     0
  0
VISUALSTYLE
  5
1A3
102
{ACAD_REACTORS
330
19E
102
}
330
19E
100
AcDbVisualStyle
  2
Basic
 70
     7
 71
     1
 72
     0
 73
     1
 90
        0
 40
-0.6
 41
-30.0
 62
     5
 63
     7
 74
     0
 91
        4
 64
     7
 65
   257
 75
     1
175
     1
 42
1.0
 92
        8
 66
     7
 43
1.0
 76
     1
 77
     6
 78
     2
 67
     7
 79
     5
170
     0
171
     0
290
     0
174
     0
 93
        1
 44
0.0
173
     0
291
     1
 45
0.0
1001
ACAD
1000
AcDbSavedByObjectVersion
1070
     0
  0
VISUALSTYLE
  5
1AA
102
{ACAD_REACTORS
330
19E
102
}
330
19E
100
AcDbVisualStyle
  2
Brighten
 70
    12
 71
     2
 72
     2
 73
     0
 90
        0
 40
-0.6
 41
-30.0
 62
     5
 63
     7
 74
     1
 91
        4
 64
     7
 65
   257
 75
     1
175
     1
 42
1.0
 92
        8
 66
     7
 43
1.0
 76
     1
 77
     6
 78
     2
 67
     7
 79
     5
170
     0
171
     0
290
     0
174
     0
 93
        1
 44
50.0
173
     0
291
     1
 45
0.0
1001
ACAD
1000
AcDbSavedByObjectVersion
1070
     0
  0
VISUALSTYLE
  5
1AE
102
{ACAD_REACTORS
330
19E
102
}
330
19E
100
AcDbVisualStyle
  2
ColorChange
 70
    16
 71
     2
 72
     2
 73
     3
 90
        0
 40
-0.6
 41
-30.0
 62
     5
 63
     8
 74
     1
 91
        4
 64
     7
 65
   257
 75
     1
175
     1
 42
1.0
 92
        8
 66
     8
 43
1.0
 76
     1
 77
     6
 78
     2
 67
     7
 79
     5
170
     0
171
     0
290
     0
174
     0
 93
        1
 44
0.0
173
     0
291
     1
 45
0.0
1001
ACAD
1000
AcDbSavedByObjectVersion
1070
     0
  0
VISUALSTYLE
  5
1A7
102
{ACAD_REACTORS
330
19E
102
}
330
19E
100
AcDbVisualStyle
  2
Conceptual
 70
     9
 71
     3
 72
     2
 73
     0
 90
        0
 40
-0.6
 41
-30.0
 62
     5
 63
     7
 74
     2
 91
        2
 64
     7
 65
   257
 75
     1
175
     1
 42
40.0
 92
        8
 66
     7
 43
1.0
 76
     1
 77
     6
 78
     2
 67
     7
 79
     3
170
     0
171
     0
290
     0
174
     0
 93
        1
 44
0.0
173
     0
291
     0
 45
0.0
1001
ACAD
1000
AcDbSavedByObjectVersion
1070
     0
  0
VISUALSTYLE
  5
1A9
102
{ACAD_REACTORS
330
19E
102
}
330
19E
100
AcDbVisualStyle
  2
Dim
 70
    11
 71
     2
 72
     2
 73
     0
 90
        0
 40
-0.6
 41
-30.0
 62
     5
 63
     7
 74
     1
 91
        4
 64
     7
 65
   257
 75
     1
175
     1
 42
1.0
 92
        8
 66
     7
 43
1.0
 76
     1
 77
     6
 78
     2
 67
     7
 79
     5
170
     0
171
     0
290
     0
174
     0
 93
        1
 44
-50.0
173
     0
291
     1
 45
0.0
1001
ACAD
1000
AcDbSavedByObjectVersion
1070
     0
  0
VISUALSTYLE
  5
1AD
102
{ACAD_REACTORS
330
19E
102
}
330
19E
100
AcDbVisualStyle
  2
Facepattern
 70
    15
 71
     2
 72
     2
 73
     0
 90
        0
 40
-0.6
 41
-30.0
 62
     5
 63
     7
 74
     1
 91
        4
 64
     7
 65
   257
 75
     1
175
     1
 42
1.0
 92
        8
 66
     7
 43
1.0
 76
     1
 77
     6
 78
     2
 67
     7
 79
     5
170
     0
171
     0
290
     0
174
     0
 93
        1
 44
0.0
173
     0
291
     1
 45
0.0
1001
ACAD
1000
AcDbSavedByObjectVersion
1070
     0
  0
VISUALSTYLE
  5
19F
102
{ACAD_REACTORS
330
19E
102
}
330
19E
100
AcDbVisualStyle
  2
Flat
 70
     0
 71
     2
 72
     1
 73
     1
 90
        2
 40
-0.6
 41
30.0
 62
     5
 63
     7
 74
     0
 91
        4
 64
     7
 65
   257
 75
     1
175
     1
 42
1.0
 92
        8
 66
     7
 43
1.0
 76
     1
 77
     6
 78
     2
 67
     7
 79
     5
170
     0
171
     0
290
     0
174
     0
 93
       13
 44
0.0
173
     0
291
     1
 45
0.0
1001
ACAD
1000
AcDbSavedByObjectVersion
1070
     0
  0
VISUALSTYLE
  5
1A0
102
{ACAD_REACTORS
330
19E
102
}
330
19E
100
AcDbVisualStyle
  2
FlatWithEdges
 70
     1
 71
     2
 72
     1
 73
     1
 90
        2
 40
-0.6
 41
30.0
 62
     5
 63
     7
 74
     1
 91
        4
 64
     7
 65
   257
 75
     1
175
     1
 42
1.0
 92
        0
 66
   257
 43
1.0
 76
     1
 77
     6
 78
     2
 67
     7
 79
     5
170
     0
171
     0
290
     0
174
     0
 93
       13
 44
0.0
173
     0
291
     1
 45
0.0
1001
ACAD
1000
AcDbSavedByObjectVersion
1070
     0
  0
VISUALSTYLE
  5
1A1
102
{ACAD_REACTORS
330
19E
102
}
330
19E
100
AcDbVisualStyle
  2
Gouraud
 70
     2
 71
     2
 72
     2
 73
     1
 90
        2
 40
-0.6
 41
30.0
 62
     5
 63
     7
 74
     0
 91
        4
 64
     7
 65
   257
 75
     1
175
     1
 42
1.0
 92
        0
 66
     7
 43
1.0
 76
     1
 77
     6
 78
     2
 67
     7
 79
     5
170
     0
171
     0
290
     0
174
     0
 93
       13
 44
0.0
173
     0
291
     1
 45
0.0
1001
ACAD
1000
AcDbSavedByObjectVersion
1070
     0
  0
VISUALSTYLE
  5
1A2
102
{ACAD_REACTORS
330
19E
102
}
330
19E
100
AcDbVisualStyle
  2
GouraudWithEdges
 70
     3
 71
     2
 72
     2
 73
     1
 90
        2
 40
-0.6
 41
30.0
 62
     5
 63
     7
 74
     1
 91
        4
 64
     7
 65
   257
 75
     1
175
     1
 42
1.0
 92
        0
 66
   257
 43
1.0
 76
     1
 77
     6
 78
     2
 67
     7
 79
     5
170
     0
171
     0
290
     0
174
     0
 93
       13
 44
0.0
173
     0
291
     1
 45
0.0
1001
ACAD
1000
AcDbSavedByObjectVersion
1070
     0
  0
VISUALSTYLE
  5
1AC
102
{ACAD_REACTORS
330
19E
102
}
330
19E
100
AcDbVisualStyle
  2
Linepattern
 70
    14
 71
     2
 72
     2
 73
     0
 90
        0
 40
-0.6
 41
-30.0
 62
     5
 63
     7
 74
     1
 91
        4
 64
     7
 65
   257
 75
     7
175
     7
 42
1.0
 92
        8
 66
     7
 43
1.0
 76
     1
 77
     6
 78
     2
 67
     7
 79
     5
170
     0
171
     0
290
     0
174
     0
 93
        1
 44
0.0
173
     0
291
     1
 45
0.0
1001
ACAD
1000
AcDbSavedByObjectVersion
1070
     0
  0
VISUALSTYLE
  5
1A8
102
{ACAD_REACTORS
330
19E
102
}
330
19E
100
AcDbVisualStyle
  2
Realistic
 70
     8
 71
     2
 72
     2
 73
     0
 90
        0
 40
-0.6
 41
-30.0
 62
     5
 63
     7
 74
     1
 91
        0
 64
     7
 65
   257
 75
     1
175
     1
 42
1.0
 92
        8
 66
     8
 43
1.0
 76
     1
 77
     6
 78
     2
 67
     7
 79
     5
170
     0
171
     0
290
     0
174
     0
 93
       13
 44
0.0
173
     0
291
     0
 45
0.0
1001
ACAD
1000
AcDbSavedByObjectVersion
1070
     0
  0
VISUALSTYLE
  5
1AB
102
{ACAD_REACTORS
330
19E
102
}
330
19E
100
AcDbVisualStyle
  2
Thicken
 70
    13
 71
     2
 72
     2
 73
     0
 90
        0
 40
-0.6
 41
-30.0
 62
     5
 63
     7
 74
     1
 91
        4
 64
     7
 65
   257
 75
     1
175
     1
 42
1.0
 92
       12
 66
     7
 43
1.0
 76
     1
 77
     6
 78
     2
 67
     7
 79
     5
170
     0
171
     0
290
     0
174
     0
 93
        1
 44
0.0
173
     0
291
     1
 45
0.0
1001
ACAD
1000
AcDbSavedByObjectVersion
1070
     0
  0
DICTIONARYVAR
  5
192
102
{ACAD_REACTORS
330
18F
102
}
330
18F
100
DictionaryVariables
280
     0
  1
1:1
  0
DICTIONARYVAR
  5
31D
102
{ACAD_REACTORS
330
18F
102
}
330
18F
100
DictionaryVariables
280
     0
  1
STANDARD
  0
DICTIONARYVAR
  5
50F
102
{ACAD_REACTORS
330
18F
102
}
330
18F
100
DictionaryVariables
280
     0
  1
1
  0
DICTIONARYVAR
  5
50E
102
{ACAD_REACTORS
330
18F
102
}
330
18F
100
DictionaryVariables
280
     0
  1
0
  0
DICTIONARYVAR
  5
50D
102
{ACAD_REACTORS
330
18F
102
}
330
18F
100
DictionaryVariables
280
     0
  1
127
  0
DICTIONARY
  5
53F
330
125
100
AcDbDictionary
280
     1
281
     1
  3
ACAD_XREC_ROUNDTRIP
360
540
  0
DICTIONARY
  5
53D
330
124
100
AcDbDictionary
280
     1
281
     1
  3
ACAD_XREC_ROUNDTRIP
360
53E
  0
DICTIONARY
  5
543
330
19C
100
AcDbDictionary
280
     1
281
     1
  3
ACAD_XREC_ROUNDTRIP
360
544
  0
DICTIONARY
  5
541
330
19B
100
AcDbDictionary
280
     1
281
     1
  3
ACAD_XREC_ROUNDTRIP
360
542
  0
DICTIONARY
  5
545
330
19D
100
AcDbDictionary
280
     1
281
     1
  3
ACAD_XREC_ROUNDTRIP
360
546
  0
DICTIONARY
  5
547
330
1B1
100
AcDbDictionary
280
     1
281
     1
  3
ACAD_XREC_ROUNDTRIP
360
548
  0
XRECORD
  5
540
102
{ACAD_REACTORS
330
53F
102
}
330
53F
100
AcDbXrecord
280
     1
102
SHADEPLOT
 70
     0
102
SHADEPLOTRESLEVEL
 70
     2
102
SHADEPLOTCUSTOMDPI
 70
   300
  0
XRECORD
  5
53E
102
{ACAD_REACTORS
330
53D
102
}
330
53D
100
AcDbXrecord
280
     1
102
SHADEPLOT
 70
     0
102
SHADEPLOTRESLEVEL
 70
     2
102
SHADEPLOTCUSTOMDPI
 70
   300
  0
XRECORD
  5
544
102
{ACAD_REACTORS
330
543
102
}
330
543
100
AcDbXrecord
280
     1
102
MATERIAL
148
0.0
149
0.0
149
0.0
 93
        0
 94
       63
282
     0
 72
     1
 77
     1
171
     1
175
     1
179
     1
273
     0
  0
XRECORD
  5
542
102
{ACAD_REACTORS
330
541
102
}
330
541
100
AcDbXrecord
280
     1
102
MATERIAL
148
0.0
149
0.0
149
0.0
 93
        0
 94
       63
282
     0
 72
     1
 77
     1
171
     1
175
     1
179
     1
273
     0
  0
XRECORD
  5
546
102
{ACAD_REACTORS
330
545
102
}
330
545
100
AcDbXrecord
280
     1
102
MATERIAL
148
0.0
149
0.0
149
0.0
 93
        0
 94
       63
282
     0
 72
     1
 77
     1
171
     1
175
     1
179
     1
273
     0
  0
XRECORD
  5
548
102
{ACAD_REACTORS
330
547
102
}
330
547
100
AcDbXrecord
280
     1
102
ACAD_ROUNDTRIP_PRE2007_TABLESTYLE
 90
      512
 91
        0
  1

 92
      512
 93
        0
  2

 94
      512
 95
        0
  3

  0
ENDSEC
  0
EOF
