  0
SECTION
  2
HEADER
  9
$ACADVER
  1
AC1015
  9
$ACADMAINTVER
 70
     6
  9
$DWGCODEPAGE
  3
ANSI_1252
  9
$INSBASE
 10
0.0
 20
0.0
 30
0.0
  9
$EXTMIN
 10
0.0
 20
0.0
 30
0.0
  9
$EXTMAX
 10
195.5
 20
253.664566
 30
2.0
  9
$LIMMIN
 10
0.0
 20
0.0
  9
$LIMMAX
 10
420.0
 20
297.0
  9
$ORTHOMODE
 70
     0
  9
$REGENMODE
 70
     1
  9
$FILLMODE
 70
     1
  9
$QTEXTMODE
 70
     0
  9
$MIRRTEXT
 70
     1
  9
$LTSCALE
 40
1.0
  9
$ATTMODE
 70
     1
  9
$TEXTSIZE
 40
2.5
  9
$TRACEWID
 40
1.0
  9
$TEXTSTYLE
  7
STANDARD
  9
$CLAYER
  8
0
  9
$CELTYPE
  6
ByLayer
  9
$CECOLOR
 62
   256
  9
$CELTSCALE
 40
1.0
  9
$DISPSILH
 70
     0
  9
$DIMSCALE
 40
1.0
  9
$DIMASZ
 40
2.5
  9
$DIMEXO
 40
0.625
  9
$DIMDLI
 40
3.75
  9
$DIMRND
 40
0.0
  9
$DIMDLE
 40
0.0
  9
$DIMEXE
 40
1.25
  9
$DIMTP
 40
0.0
  9
$DIMTM
 40
0.0
  9
$DIMTXT
 40
2.5
  9
$DIMCEN
 40
2.5
  9
$DIMTSZ
 40
0.0
  9
$DIMTOL
 70
     0
  9
$DIMLIM
 70
     0
  9
$DIMTIH
 70
     0
  9
$DIMTOH
 70
     0
  9
$DIMSE1
 70
     0
  9
$DIMSE2
 70
     0
  9
$DIMTAD
 70
     1
  9
$DIMZIN
 70
     8
  9
$DIMBLK
  1

  9
$DIMASO
 70
     1
  9
$DIMSHO
 70
     1
  9
$DIMPOST
  1

  9
$DIMAPOST
  1

  9
$DIMALT
 70
     0
  9
$DIMALTD
 70
     3
  9
$DIMALTF
 40
0.03937
  9
$DIMLFAC
 40
1.0
  9
$DIMTOFL
 70
     1
  9
$DIMTVP
 40
0.0
  9
$DIMTIX
 70
     0
  9
$DIMSOXD
 70
     0
  9
$DIMSAH
 70
     0
  9
$DIMBLK1
  1

  9
$DIMBLK2
  1

  9
$DIMSTYLE
  2
STANDARD
  9
$DIMCLRD
 70
     0
  9
$DIMCLRE
 70
     0
  9
$DIMCLRT
 70
     0
  9
$DIMTFAC
 40
1.0
  9
$DIMGAP
 40
0.625
  9
$DIMJUST
 70
     0
  9
$DIMSD1
 70
     0
  9
$DIMSD2
 70
     0
  9
$DIMTOLJ
 70
     0
  9
$DIMTZIN
 70
     8
  9
$DIMALTZ
 70
     0
  9
$DIMALTTZ
 70
     0
  9
$DIMUPT
 70
     0
  9
$DIMDEC
 70
     2
  9
$DIMTDEC
 70
     2
  9
$DIMALTU
 70
     2
  9
$DIMALTTD
 70
     3
  9
$DIMTXSTY
  7
STANDARD
  9
$DIMAUNIT
 70
     0
  9
$DIMADEC
 70
     0
  9
$DIMALTRND
 40
0.0
  9
$DIMAZIN
 70
     0
  9
$DIMDSEP
 70
    44
  9
$DIMATFIT
 70
     0
  9
$DIMFRAC
 70
     0
  9
$DIMLDRBLK
  1

  9
$DIMLUNIT
 70
     2
  9
$DIMLWD
 70
    -2
  9
$DIMLWE
 70
    -2
  9
$DIMTMOVE
 70
     0
  9
$LUNITS
 70
     2
  9
$LUPREC
 70
     4
  9
$SKETCHINC
 40
1.0
  9
$FILLETRAD
 40
2.5
  9
$AUNITS
 70
     0
  9
$AUPREC
 70
     0
  9
$MENU
  1
.
  9
$ELEVATION
 40
0.0
  9
$PELEVATION
 40
0.0
  9
$THICKNESS
 40
0.0
  9
$LIMCHECK
 70
     0
  9
$CHAMFERA
 40
2.5
  9
$CHAMFERB
 40
2.5
  9
$CHAMFERC
 40
0.0
  9
$CHAMFERD
 40
0.0
  9
$SKPOLY
 70
     0
  9
$TDCREATE
 40
0.000000000
  9
$TDUCREATE
 40
0.000000000
  9
$TDUPDATE
 40
0.000000000
  9
$TDUUPDATE
 40
0.000000000
  9
$TDINDWG
 40
0.0000000000
  9
$TDUSRTIMER
 40
0.0000000000
  9
$USRTIMER
 70
     1
  9
$ANGBASE
 50
0.0
  9
$ANGDIR
 70
     0
  9
$PDMODE
 70
     0
  9
$PDSIZE
 40
0.0
  9
$PLINEWID
 40
0.0
  9
$SPLFRAME
 70
     0
  9
$SPLINETYPE
 70
     6
  9
$SPLINESEGS
 70
     8
  9
$HANDSEED
  5
1CA
  9
$SURFTAB1
 70
     6
  9
$SURFTAB2
 70
     6
  9
$SURFTYPE
 70
     6
  9
$SURFU
 70
     6
  9
$SURFV
 70
     6
  9
$UCSBASE
  2

  9
$UCSNAME
  2

  9
$UCSORG
 10
0.0
 20
0.0
 30
0.0
  9
$UCSXDIR
 10
1.0
 20
0.0
 30
0.0
  9
$UCSYDIR
 10
0.0
 20
1.0
 30
0.0
  9
$UCSORTHOREF
  2

  9
$UCSORTHOVIEW
 70
     1
  9
$UCSORGTOP
 10
0.0
 20
0.0
 30
0.0
  9
$UCSORGBOTTOM
 10
0.0
 20
0.0
 30
0.0
  9
$UCSORGLEFT
 10
0.0
 20
0.0
 30
0.0
  9
$UCSORGRIGHT
 10
0.0
 20
0.0
 30
0.0
  9
$UCSORGFRONT
 10
0.0
 20
0.0
 30
0.0
  9
$UCSORGBACK
 10
0.0
 20
0.0
 30
0.0
  9
$PUCSBASE
  2

  9
$PUCSNAME
  2

  9
$PUCSORG
 10
0.0
 20
0.0
 30
0.0
  9
$PUCSXDIR
 10
1.0
 20
0.0
 30
0.0
  9
$PUCSYDIR
 10
0.0
 20
1.0
 30
0.0
  9
$PUCSORTHOREF
  2

  9
$PUCSORTHOVIEW
 70
     0
  9
$PUCSORGTOP
 10
0.0
 20
0.0
 30
0.0
  9
$PUCSORGBOTTOM
 10
0.0
 20
0.0
 30
0.0
  9
$PUCSORGLEFT
 10
0.0
 20
0.0
 30
0.0
  9
$PUCSORGRIGHT
 10
0.0
 20
0.0
 30
0.0
  9
$PUCSORGFRONT
 10
0.0
 20
0.0
 30
0.0
  9
$PUCSORGBACK
 10
0.0
 20
0.0
 30
0.0
  9
$USERI1
 70
     0
  9
$USERI2
 70
     0
  9
$USERI3
 70
     0
  9
$USERI4
 70
     0
  9
$USERI5
 70
     0
  9
$USERR1
 40
0.0
  9
$USERR2
 40
0.0
  9
$USERR3
 40
0.0
  9
$USERR4
 40
0.0
  9
$USERR5
 40
0.0
  9
$WORLDVIEW
 70
     1
  9
$SHADEDGE
 70
     3
  9
$SHADEDIF
 70
    70
  9
$TILEMODE
 70
     1
  9
$MAXACTVP
 70
    48
  9
$PINSBASE
 10
0.0
 20
0.0
 30
0.0
  9
$PLIMCHECK
 70
     0
  9
$PEXTMIN
 10
0.0
 20
0.0
 30
0.0
  9
$PEXTMAX
 10
195.5
 20
253.664566
 30
2.0
  9
$PLIMMIN
 10
0.0
 20
0.0
  9
$PLIMMAX
 10
420.0
 20
297.0
  9
$UNITMODE
 70
     0
  9
$VISRETAIN
 70
     0
  9
$PLINEGEN
 70
     0
  9
$PSLTSCALE
 70
     1
  9
$TREEDEPTH
 70
  3020
  9
$CMLSTYLE
  2
Standard
  9
$CMLJUST
 70
     0
  9
$CMLSCALE
 40
20.0
  9
$PROXYGRAPHICS
 70
     1
  9
$MEASUREMENT
 70
     1
  9
$CELWEIGHT
370
    -1
  9
$ENDCAPS
280
     0
  9
$JOINSTYLE
280
     0
  9
$LWDISPLAY
290
     0
  9
$INSUNITS
 70
     0
  9
$HYPERLINKBASE
  1

  9
$STYLESHEET
  1

  9
$XEDIT
290
     1
  9
$CEPSNTYPE
380
     0
  9
$PSTYLEMODE
290
     0
  9
$FINGERPRINTGUID
  2

  9
$VERSIONGUID
  2

  9
$EXTNAMES
290
     0
  9
$PSVPSCALE
 40
0.0
  0
ENDSEC
  0
SECTION
  2
CLASSES
  0
CLASS
  1
LWPOLYLINE
  2
AcDbPolyline
  3
AutoCAD 2000
 90
        0
280
     0
281
     1
  0
CLASS
  1
IMAGE
  2
AcDbRasterImage
  3
ISM
 90
      127
280
     0
281
     1
  0
CLASS
  1
OLE2FRAME
  2
AcDbOle2Frame
  3
AutoCAD 2000
 90
        0
280
     0
281
     1
  0
CLASS
  1
HATCH
  2
AcDbHatch
  3
AutoCAD 2000
 90
        0
280
     0
281
     1
  0
CLASS
  1
DICTIONARYVAR
  2
AcDbDictionaryVar
  3
AutoCAD 2000
 90
        0
280
     0
281
     0
  0
CLASS
  1
RASTERVARIABLES
  2
AcDbRasterVariables
  3
ISM
 90
        0
280
     0
281
     0
  0
CLASS
  1
IMAGEDEF
  2
AcDbRasterImageDef
  3
ISM
 90
        0
280
     0
281
     0
  0
CLASS
  1
IMAGEDEF_REACTOR
  2
AcDbRasterImageDefReactor
  3
ISM
 90
        1
280
     0
281
     0
  0
CLASS
  1
IDBUFFER
  2
AcDbIdBuffer
  3
AutoCAD 2000
 90
        0
280
     0
281
     0
  0
CLASS
  1
SPATIAL_FILTER
  2
AcDbSpatialFilter
  3
AutoCAD 2000
 90
        0
280
     0
281
     0
  0
CLASS
  1
XRECORD
  2
AcDbXrecord
  3
AutoCAD 2000
 90
        0
280
     0
281
     0
  0
CLASS
  1
SORTENTSTABLE
  2
AcDbSortentsTable
  3
AutoCAD 2000
 90
        0
280
     0
281
     0
  0
CLASS
  1
LAYER_INDEX
  2
AcDbLayerIndex
  3
AutoCAD 2000
 90
        0
280
     0
281
     0
  0
CLASS
  1
SPATIAL_INDEX
  2
AcDbSpatialIndex
  3
AutoCAD 2000
 90
        0
280
     0
281
     0
  0
CLASS
  1
OBJECT_PTR
  2
CAseDLPNTableRecord
  3
"ASE-LPNTableRecord"
 90
        1
280
     0
281
     0
  0
CLASS
  1
LAYOUT
  2
AcDbLayout
  3
AutoCAD 2000
 90
        0
280
     0
281
     0
  0
CLASS
  1
PLOTSETTINGS
  2
AcDbPlotSettings
  3
AutoCAD 2000
 90
        0
280
     0
281
     0
  0
CLASS
  1
ACDBDICTIONARYWDFLT
  2
AcDbDictionaryWithDefault
  3
AutoCAD 2000
 90
        0
280
     0
281
     0
  0
CLASS
  1
ACDBPLACEHOLDER
  2
AcDbPlaceHolder
  3
AutoCAD 2000
 90
        0
280
     0
281
     0
  0
CLASS
  1
VBA_PROJECT
  2
AcDbVbaProject
  3
acadvba
 90
        0
280
     0
281
     0
  0
CLASS
  1
WIPEOUT
  2
AcDbWipeout
  3
WipeOut|AutoCAD Express Tool|expresstools@autodesk.com
 90
      127
280
     0
281
     1
  0
CLASS
  1
WIPEOUTVARIABLES
  2
AcDbWipeoutVariables
  3
WipeOut|AutoCAD Express Tool|expresstools@autodesk.com
 90
        0
280
     0
281
     0
  0
CLASS
  1
RTEXT
  2
RText
  3
RText|AutoCAD Express Tool|expresstools@autodesk.com
 90
        0
280
     0
281
     1
  0
CLASS
  1
ARCALIGNEDTEXT
  2
AcDbArcAlignedText
  3
ATEXT|AutoCAD Express Tool|expresstools@autodesk.com
 90
        0
280
     0
281
     1
  0
ENDSEC
  0
SECTION
  2
TABLES
  0
TABLE
  2
VPORT
  5
7
100
AcDbSymbolTable
 70
     1
  0
VPORT
  5
15
100
AcDbSymbolTableRecord
100
AcDbViewportTableRecord
  2
*ACTIVE
 70
     0
 10
0.0
 20
0.0
 11
1.0
 21
1.0
 12
6.591288
 22
4.579184
 13
0.0
 23
0.0
 14
1.0
 24
1.0
 15
0.0
 25
0.0
 16
0.0
 26
0.0
 36
1.0
 17
0.0
 27
0.0
 37
0.0
 40
9.158369
 41
0.688564
 42
50.0
 43
0.0
 44
0.0
 50
0.0
 51
0.0
 71
     0
 72
   100
 73
     1
 74
     1
 75
     0
 76
     0
 77
     0
 78
     0
281
     0
 65
     0
110
0.0
120
0.0
130
0.0
111
1.0
121
0.0
131
0.0
112
0.0
122
1.0
132
0.0
345
0
346
0
 79
     0
146
0.0
  0
ENDTAB
  0
TABLE
  2
LTYPE
  5
4
100
AcDbSymbolTable
 70
     7
  0
LTYPE
  5
11
100
AcDbSymbolTableRecord
100
AcDbLinetypeTableRecord
  2
ByBlock
 70
    64
  3

 72
    65
 73
     0
 40
0.0
  0
LTYPE
  5
12
100
AcDbSymbolTableRecord
100
AcDbLinetypeTableRecord
  2
ByLayer
 70
    64
  3

 72
    65
 73
     0
 40
0.0
  0
LTYPE
  5
13
100
AcDbSymbolTableRecord
100
AcDbLinetypeTableRecord
  2
Continuous
 70
    64
  3
Solid line
 72
    65
 73
     0
 40
0.0
  0
LTYPE
  5
24
100
AcDbSymbolTableRecord
100
AcDbLinetypeTableRecord
  2
DASHED
 70
     0
  3
__ __ __ __ __ __ __ __ __ __ __ __ __ __ __ __
 72
    65
 73
     2
 40
15.0
 49
12.0
 74
     0
 49
-3.0
 74
     0
  0
LTYPE
  5
25
100
AcDbSymbolTableRecord
100
AcDbLinetypeTableRecord
  2
PHANTOM
 70
     0
  3
____________    ____    ____   _
 72
    65
 73
     6
 40
20.0
 49
10.0
 74
     0
 49
-2.0
 74
     0
 49
2.0
 74
     0
 49
-2.0
 74
     0
 49
2.0
 74
     0
 49
-2.0
 74
     0
  0
LTYPE
  5
26
100
AcDbSymbolTableRecord
100
AcDbLinetypeTableRecord
  2
DASHSPACE
 70
     0
  3
__    __    __    __    __   
 72
    65
 73
     2
 40
30.0
 49
12.0
 74
     0
 49
-18.0
 74
     0
  0
LTYPE
  5
27
100
AcDbSymbolTableRecord
100
AcDbLinetypeTableRecord
  2
DASHDOT
 70
     0
  3
 __ . __ . __ . __ . __ . __ . __ . 
 72
    65
 73
     4
 40
18.5
 49
12.0
 74
     0
 49
-3.0
 74
     0
 49
0.5
 74
     0
 49
-3.0
 74
     0
  0
ENDTAB
  0
TABLE
  2
LAYER
  5
2
100
AcDbSymbolTable
 70
     1
  0
LAYER
  5
14
100
AcDbSymbolTableRecord
100
AcDbLayerTableRecord
  2
0
 70
     0
 62
     7
  6
Continuous
290
     1
370
    13
390
1D
  0
ENDTAB
  0
TABLE
  2
STYLE
  5
3
100
AcDbSymbolTable
 70
     2
  0
STYLE
  5
17
100
AcDbSymbolTableRecord
100
AcDbTextStyleTableRecord
  2
STANDARD
 70
     0
 40
0.0
 41
1.0
 50
0.0
 71
     0
 42
0.0
  3
isocp.shx
  4

  0
STYLE
  5
28
100
AcDbSymbolTableRecord
100
AcDbTextStyleTableRecord
  2
GDT
 70
     0
 40
0.0
 41
1.0
 50
0.0
 71
     0
 42
0.0
  3
gdt.shx
  4

  0
ENDTAB
  0
TABLE
  2
VIEW
  5
5
100
AcDbSymbolTable
 70
     0
  0
ENDTAB
  0
TABLE
  2
UCS
  5
6
100
AcDbSymbolTable
 70
     0
  0
ENDTAB
  0
TABLE
  2
APPID
  5
8
100
AcDbSymbolTable
 70
     1
  0
APPID
  5
16
100
AcDbSymbolTableRecord
100
AcDbRegAppTableRecord
  2
ACAD
 70
     0
  0
ENDTAB
  0
TABLE
  2
DIMSTYLE
  5
9
100
AcDbSymbolTable
 70
     1
100
AcDbDimStyleTable
 71
     0
  0
DIMSTYLE
105
18
100
AcDbSymbolTableRecord
100
AcDbDimStyleTableRecord
  2
STANDARD
 70
     0
  3

  4

 40
1.0
 41
2.5
 42
0.625
 43
3.75
 44
1.25
 45
0.0
 46
0.0
 47
0.0
 48
0.0
 71
     0
 72
     0
 73
     0
 74
     0
 75
     0
 76
     0
 77
     1
 78
     8
 79
     0
140
2.5
141
2.5
142
0.0
143
0.03937
144
1.0
145
0.0
146
1.0
147
0.625
148
0.0
170
     0
171
     3
172
     1
173
     0
174
     0
175
     0
176
     0
177
     0
178
     0
179
     0
271
     2
272
     2
273
     2
274
     3
275
     0
276
     0
277
     2
278
    44
279
     0
280
     0
281
     0
282
     0
283
     0
284
     8
285
     0
286
     0
288
     0
289
     0
340
0
341
0
342
0
343
0
344
0
371
    -2
372
    -2
  0
ENDTAB
  0
TABLE
  2
BLOCK_RECORD
  5
1
100
AcDbSymbolTable
 70
    16
  0
BLOCK_RECORD
  5
A
100
AcDbSymbolTableRecord
100
AcDbBlockTableRecord
  2
*MODEL_SPACE
340
20
  0
BLOCK_RECORD
  5
B
100
AcDbSymbolTableRecord
100
AcDbBlockTableRecord
  2
*PAPER_SPACE
340
21
  0
BLOCK_RECORD
  5
CB
100
AcDbSymbolTableRecord
100
AcDbBlockTableRecord
  2
BLOCK1
340
0
102
{BLKREFS
331
1C5
102
}
  0
BLOCK_RECORD
  5
CC
100
AcDbSymbolTableRecord
100
AcDbBlockTableRecord
  2
BLOCK2
340
0
102
{BLKREFS
331
1C6
102
}
  0
BLOCK_RECORD
  5
CD
100
AcDbSymbolTableRecord
100
AcDbBlockTableRecord
  2
BLOCK3
340
0
102
{BLKREFS
331
1C7
102
}
  0
BLOCK_RECORD
  5
CE
100
AcDbSymbolTableRecord
100
AcDbBlockTableRecord
  2
BLOCK4
340
0
102
{BLKREFS
331
1C8
102
}
  0
BLOCK_RECORD
  5
7F
100
AcDbSymbolTableRecord
100
AcDbBlockTableRecord
  2
*D4
340
0
  0
BLOCK_RECORD
  5
81
100
AcDbSymbolTableRecord
100
AcDbBlockTableRecord
  2
*D5
340
0
  0
BLOCK_RECORD
  5
83
100
AcDbSymbolTableRecord
100
AcDbBlockTableRecord
  2
*D6
340
0
  0
BLOCK_RECORD
  5
85
100
AcDbSymbolTableRecord
100
AcDbBlockTableRecord
  2
*D7
340
0
  0
BLOCK_RECORD
  5
87
100
AcDbSymbolTableRecord
100
AcDbBlockTableRecord
  2
*D8
340
0
  0
BLOCK_RECORD
  5
89
100
AcDbSymbolTableRecord
100
AcDbBlockTableRecord
  2
*D9
340
0
  0
BLOCK_RECORD
  5
8B
100
AcDbSymbolTableRecord
100
AcDbBlockTableRecord
  2
*D10
340
0
  0
BLOCK_RECORD
  5
8D
100
AcDbSymbolTableRecord
100
AcDbBlockTableRecord
  2
*D11
340
0
  0
BLOCK_RECORD
  5
8F
100
AcDbSymbolTableRecord
100
AcDbBlockTableRecord
  2
*D12
340
0
  0
BLOCK_RECORD
  5
91
100
AcDbSymbolTableRecord
100
AcDbBlockTableRecord
  2
*D13
340
0
  0
BLOCK_RECORD
  5
BC
100
AcDbSymbolTableRecord
100
AcDbBlockTableRecord
  2
*D14
340
0
  0
BLOCK_RECORD
  5
CF
100
AcDbSymbolTableRecord
100
AcDbBlockTableRecord
  2
BLOCK5
340
0
102
{BLKREFS
331
1C9
102
}
  0
ENDTAB
  0
ENDSEC
  0
SECTION
  2
BLOCKS
  0
BLOCK
  5
D
100
AcDbEntity
  8
0
390
0
100
AcDbBlockBegin
  2
*MODEL_SPACE
 70
     0
 10
0.0
 20
0.0
 30
0.0
  3
*MODEL_SPACE
  1

  0
ENDBLK
  5
E
100
AcDbEntity
  8
0
390
0
100
AcDbBlockEnd
  0
BLOCK
  5
F
100
AcDbEntity
 67
     1
  8
0
390
0
100
AcDbBlockBegin
  2
*PAPER_SPACE
 70
     0
 10
0.0
 20
0.0
 30
0.0
  3
*PAPER_SPACE
  1

  0
ENDBLK
  5
10
100
AcDbEntity
 67
     1
  8
0
390
0
100
AcDbBlockEnd
  0
BLOCK
  5
D0
100
AcDbEntity
  8
0
370
     0
390
0
100
AcDbBlockBegin
  2
BLOCK1
 70
     0
 10
0.0
 20
0.0
 30
0.0
  3
BLOCK1
  1

  0
TEXT
  5
D1
100
AcDbEntity
  8
0
370
    13
390
0
 62
     7
100
AcDbText
 10
24.147633
 20
-7.655337
 30
0.0
 40
2.5
  1
Junior 160/GP
 72
     5
 11
46.379898
 21
-7.655337
 31
0.0
100
AcDbText
  0
ENDBLK
  5
D2
100
AcDbEntity
  8
0
390
0
100
AcDbBlockEnd
  0
BLOCK
  5
D3
100
AcDbEntity
  8
0
370
     0
390
0
100
AcDbBlockBegin
  2
BLOCK2
 70
     0
 10
0.0
 20
0.0
 30
0.0
  3
BLOCK2
  1

  0
TEXT
  5
D4
100
AcDbEntity
  8
0
370
    13
390
0
 62
     7
100
AcDbText
 10
28.590618
 20
4.760969
 30
0.0
 40
2.5
  1
Junior 120/GP
 72
     5
 11
50.822884
 21
4.760969
 31
0.0
100
AcDbText
  0
ENDBLK
  5
D5
100
AcDbEntity
  8
0
390
0
100
AcDbBlockEnd
  0
BLOCK
  5
D6
100
AcDbEntity
  8
0
370
     0
390
0
100
AcDbBlockBegin
  2
BLOCK3
 70
     0
 10
0.0
 20
0.0
 30
0.0
  3
BLOCK3
  1

  0
TEXT
  5
D7
100
AcDbEntity
  8
0
370
    13
390
0
 62
     7
100
AcDbText
 10
38.108944
 20
17.370314
 30
0.0
 40
2.5
  1
Junior 80/GP
 72
     5
 11
58.432308
 21
17.370314
 31
0.0
100
AcDbText
  0
ENDBLK
  5
D8
100
AcDbEntity
  8
0
390
0
100
AcDbBlockEnd
  0
BLOCK
  5
D9
100
AcDbEntity
  8
0
370
     0
390
0
100
AcDbBlockBegin
  2
BLOCK4
 70
     0
 10
0.0
 20
0.0
 30
0.0
  3
BLOCK4
  1

  0
TEXT
  5
DA
100
AcDbEntity
  8
0
370
    13
390
0
 62
     7
100
AcDbText
 10
46.454205
 20
28.683712
 30
0.0
 40
2.5
  1
Junior 40/GP
 72
     5
 11
66.777573
 21
28.683712
 31
0.0
100
AcDbText
  0
ENDBLK
  5
DB
100
AcDbEntity
  8
0
390
0
100
AcDbBlockEnd
  0
BLOCK
  5
DC
100
AcDbEntity
  8
0
370
     0
390
0
100
AcDbBlockBegin
  2
*D4
 70
    65
 10
0.0
 20
0.0
 30
0.0
  3
*D4
  1

  0
SOLID
  5
DD
100
AcDbEntity
  8
0
370
    13
390
0
 62
     7
100
AcDbTrace
 10
90.157072
 20
225.899969
 30
0.0
 11
89.639434
 21
227.831816
 31
0.0
 12
90.157072
 22
225.899969
 32
0.0
 13
89.121796
 23
225.899969
 33
0.0
  0
SOLID
  5
DE
100
AcDbEntity
  8
0
370
    13
390
0
 62
     7
100
AcDbTrace
 10
89.121796
 20
158.263723
 30
0.0
 11
89.639434
 21
156.331871
 31
0.0
 12
89.121796
 22
158.263723
 32
0.0
 13
90.157072
 23
158.263723
 33
0.0
  0
TEXT
  5
DF
100
AcDbEntity
  8
0
370
    13
390
0
 62
     7
100
AcDbText
 10
88.639434
 20
176.591063
 30
0.0
 40
3.5
  1
71.5
 50
90.000003
 72
     5
 11
88.639434
 21
188.042246
 31
0.0
100
AcDbText
  0
TEXT
  5
E0
100
AcDbEntity
  8
0
370
    13
390
0
 62
     7
100
AcDbText
 10
87.764434
 20
190.142245
 30
0.0
 40
1.75
  1
%%p0.5
 50
90.000003
 72
     5
 11
87.764434
 21
196.559077
 31
0.0
100
AcDbText
  0
LINE
  5
E1
100
AcDbEntity
  8
0
370
    13
390
0
 62
     7
100
AcDbLine
 10
104.766382
 20
156.331871
 30
0.0
 11
88.639434
 21
156.331871
 31
0.0
210
0.0
220
0.0
230
1.0
  0
LINE
  5
E2
100
AcDbEntity
  8
0
370
    13
390
0
 62
     7
100
AcDbLine
 10
92.06491
 20
227.831816
 30
0.0
 11
88.639434
 21
227.831816
 31
0.0
210
0.0
220
0.0
230
1.0
  0
LINE
  5
E3
100
AcDbEntity
  8
0
370
    13
390
0
 62
     7
100
AcDbLine
 10
89.639434
 20
158.263723
 30
0.0
 11
89.639434
 21
225.899969
 31
0.0
210
0.0
220
0.0
230
1.0
  0
POLYLINE
  5
E4
100
AcDbEntity
  8
0
370
    13
390
0
 62
     7
100
AcDb2dPolyline
 66
     1
 10
0.0
 20
0.0
 30
0.0
 70
     1
 71
     3
  0
VERTEX
  5
E5
100
AcDbEntity
  8
0
370
     0
390
0
100
AcDbVertex
100
AcDb2dVertex
 10
90.157072
 20
225.899969
 30
0.0
  0
VERTEX
  5
E6
100
AcDbEntity
  8
0
370
     0
390
0
100
AcDbVertex
100
AcDb2dVertex
 10
89.639434
 20
227.831816
 30
0.0
  0
VERTEX
  5
E7
100
AcDbEntity
  8
0
370
     0
390
0
100
AcDbVertex
100
AcDb2dVertex
 10
89.121796
 20
225.899969
 30
0.0
  0
SEQEND
  5
E8
100
AcDbEntity
  8
0
370
     0
390
0
  0
POLYLINE
  5
E9
100
AcDbEntity
  8
0
370
    13
390
0
 62
     7
100
AcDb2dPolyline
 66
     1
 10
0.0
 20
0.0
 30
0.0
 70
     1
 71
     3
  0
VERTEX
  5
EA
100
AcDbEntity
  8
0
370
     0
390
0
100
AcDbVertex
100
AcDb2dVertex
 10
89.121796
 20
158.263723
 30
0.0
  0
VERTEX
  5
EB
100
AcDbEntity
  8
0
370
     0
390
0
100
AcDbVertex
100
AcDb2dVertex
 10
89.639434
 20
156.331871
 30
0.0
  0
VERTEX
  5
EC
100
AcDbEntity
  8
0
370
     0
390
0
100
AcDbVertex
100
AcDb2dVertex
 10
90.157072
 20
158.263723
 30
0.0
  0
SEQEND
  5
ED
100
AcDbEntity
  8
0
370
     0
390
0
  0
ENDBLK
  5
EE
100
AcDbEntity
  8
0
390
0
100
AcDbBlockEnd
  0
BLOCK
  5
EF
100
AcDbEntity
  8
0
370
     0
390
0
100
AcDbBlockBegin
  2
*D5
 70
    65
 10
0.0
 20
0.0
 30
0.0
  3
*D5
  1

  0
SOLID
  5
F0
100
AcDbEntity
  8
0
370
    13
390
0
 62
     7
100
AcDbTrace
 10
119.996737
 20
173.450102
 30
0.0
 11
118.064885
 21
172.932465
 31
0.0
 12
119.996737
 22
173.450102
 32
0.0
 13
119.996737
 23
172.414827
 33
0.0
  0
SOLID
  5
F1
100
AcDbEntity
  8
0
370
    13
390
0
 62
     7
100
AcDbTrace
 10
186.133144
 20
172.414827
 30
0.0
 11
188.064999
 21
172.932465
 31
0.0
 12
186.133144
 22
172.414827
 32
0.0
 13
186.133144
 23
173.450102
 33
0.0
  0
TEXT
  5
F2
100
AcDbEntity
  8
0
370
    13
390
0
 62
     7
100
AcDbText
 10
166.052807
 20
173.932465
 30
0.0
 40
3.5
  1
130
 72
     5
 11
175.470196
 21
173.932465
 31
0.0
100
AcDbText
  0
POLYLINE
  5
F3
100
AcDbEntity
  8
0
370
    13
390
0
 62
     7
100
AcDb2dPolyline
 66
     1
 10
0.0
 20
0.0
 30
0.0
 71
     3
  0
VERTEX
  5
F4
100
AcDbEntity
  8
0
370
     0
390
0
100
AcDbVertex
100
AcDb2dVertex
 10
162.952812
 20
176.499133
 30
0.0
  0
VERTEX
  5
F5
100
AcDbEntity
  8
0
370
     0
390
0
100
AcDbVertex
100
AcDb2dVertex
 10
165.052811
 20
175.565798
 30
0.0
  0
VERTEX
  5
F6
100
AcDbEntity
  8
0
370
     0
390
0
100
AcDbVertex
100
AcDb2dVertex
 10
162.952812
 20
174.632466
 30
0.0
  0
SEQEND
  5
F7
100
AcDbEntity
  8
0
370
     0
390
0
  0
POLYLINE
  5
F8
100
AcDbEntity
  8
0
370
    13
390
0
 62
     7
100
AcDb2dPolyline
 66
     1
 10
0.0
 20
0.0
 30
0.0
 71
     2
  0
VERTEX
  5
F9
100
AcDbEntity
  8
0
370
     0
390
0
100
AcDbVertex
100
AcDb2dVertex
 10
162.952812
 20
173.932465
 30
0.0
  0
VERTEX
  5
FA
100
AcDbEntity
  8
0
370
     0
390
0
100
AcDbVertex
100
AcDb2dVertex
 10
165.052811
 20
173.932465
 30
0.0
  0
SEQEND
  5
FB
100
AcDbEntity
  8
0
370
     0
390
0
  0
TEXT
  5
FC
100
AcDbEntity
  8
0
370
    13
390
0
 62
     7
100
AcDbText
 10
166.376076
 20
167.499014
 30
0.0
 40
3.5
  1
5
 72
     5
 11
169.048534
 21
167.499014
 31
0.0
100
AcDbText
  0
TEXT
  5
FD
100
AcDbEntity
  8
0
370
    13
390
0
 62
     7
100
AcDbText
 10
170.798542
 20
169.599015
 30
0.0
 40
2.33345
  1
1
 72
     5
 11
172.580265
 21
169.599015
 31
0.0
100
AcDbText
  0
TEXT
  5
FE
100
AcDbEntity
  8
0
370
    13
390
0
 62
     7
100
AcDbText
 10
170.798542
 20
166.565565
 30
0.0
 40
2.33345
  1
8
 72
     5
 11
172.580265
 21
166.565565
 31
0.0
100
AcDbText
  0
TEXT
  5
FF
100
AcDbEntity
  8
0
370
    13
390
0
 62
     7
100
AcDbText
 10
172.580265
 20
168.374014
 30
0.0
 40
3.5
  1
"
 72
     5
 11
175.146931
 21
168.374014
 31
0.0
100
AcDbText
  0
LINE
  5
100
100
AcDbEntity
  8
0
370
    13
390
0
 62
     7
100
AcDbLine
 10
170.798534
 20
169.249014
 30
0.0
 11
172.580265
 21
169.249014
 31
0.0
210
0.0
220
0.0
230
1.0
  0
LINE
  5
101
100
AcDbEntity
  8
0
370
    13
390
0
 62
     7
100
AcDbLine
 10
118.064885
 20
174.331864
 30
0.0
 11
118.064885
 21
171.932465
 31
0.0
210
0.0
220
0.0
230
1.0
  0
LINE
  5
102
100
AcDbEntity
  8
0
370
    13
390
0
 62
     7
100
AcDbLine
 10
119.996737
 20
172.932465
 30
0.0
 11
186.133144
 21
172.932465
 31
0.0
210
0.0
220
0.0
230
1.0
  0
POLYLINE
  5
103
100
AcDbEntity
  8
0
370
    13
390
0
 62
     7
100
AcDb2dPolyline
 66
     1
 10
0.0
 20
0.0
 30
0.0
 70
     1
 71
     3
  0
VERTEX
  5
104
100
AcDbEntity
  8
0
370
     0
390
0
100
AcDbVertex
100
AcDb2dVertex
 10
119.996737
 20
173.450102
 30
0.0
  0
VERTEX
  5
105
100
AcDbEntity
  8
0
370
     0
390
0
100
AcDbVertex
100
AcDb2dVertex
 10
118.064885
 20
172.932465
 30
0.0
  0
VERTEX
  5
106
100
AcDbEntity
  8
0
370
     0
390
0
100
AcDbVertex
100
AcDb2dVertex
 10
119.996737
 20
172.414827
 30
0.0
  0
SEQEND
  5
107
100
AcDbEntity
  8
0
370
     0
390
0
  0
POLYLINE
  5
108
100
AcDbEntity
  8
0
370
    13
390
0
 62
     7
100
AcDb2dPolyline
 66
     1
 10
0.0
 20
0.0
 30
0.0
 70
     1
 71
     3
  0
VERTEX
  5
109
100
AcDbEntity
  8
0
370
     0
390
0
100
AcDbVertex
100
AcDb2dVertex
 10
186.133144
 20
172.414827
 30
0.0
  0
VERTEX
  5
10A
100
AcDbEntity
  8
0
370
     0
390
0
100
AcDbVertex
100
AcDb2dVertex
 10
188.064999
 20
172.932465
 30
0.0
  0
VERTEX
  5
10B
100
AcDbEntity
  8
0
370
     0
390
0
100
AcDbVertex
100
AcDb2dVertex
 10
186.133144
 20
173.450102
 30
0.0
  0
SEQEND
  5
10C
100
AcDbEntity
  8
0
370
     0
390
0
  0
ENDBLK
  5
10D
100
AcDbEntity
  8
0
390
0
100
AcDbBlockEnd
  0
BLOCK
  5
10E
100
AcDbEntity
  8
0
370
     0
390
0
100
AcDbBlockBegin
  2
*D6
 70
    65
 10
0.0
 20
0.0
 30
0.0
  3
*D6
  1

  0
SOLID
  5
10F
100
AcDbEntity
  8
0
370
    13
390
0
 62
     7
100
AcDbTrace
 10
114.133052
 20
187.39436
 30
0.0
 11
116.064903
 21
187.911999
 31
0.0
 12
114.133052
 22
187.39436
 32
0.0
 13
114.133052
 23
188.429636
 33
0.0
  0
SOLID
  5
110
100
AcDbEntity
  8
0
370
    13
390
0
 62
     7
100
AcDbTrace
 10
121.996777
 20
188.429636
 30
0.0
 11
120.064924
 21
187.911999
 31
0.0
 12
121.996777
 22
188.429636
 32
0.0
 13
121.996777
 23
187.39436
 33
0.0
  0
TEXT
  5
111
100
AcDbEntity
  8
0
370
    13
390
0
 62
     7
100
AcDbText
 10
123.508633
 20
189.611998
 30
0.0
 40
3.5
  1
4
 72
     5
 11
126.181095
 21
189.611998
 31
0.0
100
AcDbText
  0
TEXT
  5
112
100
AcDbEntity
  8
0
370
    13
390
0
 62
     7
100
AcDbText
 10
128.281094
 20
192.061999
 30
0.0
 40
1.75
  1
+3
 72
     5
 11
131.994793
 21
192.061999
 31
0.0
100
AcDbText
  0
TEXT
  5
113
100
AcDbEntity
  8
0
370
    13
390
0
 62
     7
100
AcDbText
 10
128.281094
 20
188.911997
 30
0.0
 40
1.75
  1
 0
 72
     5
 11
130.634224
 21
188.911997
 31
0.0
100
AcDbText
  0
LINE
  5
114
100
AcDbEntity
  8
0
370
    13
390
0
 62
     7
100
AcDbLine
 10
116.064903
 20
179.411988
 30
0.0
 11
116.064903
 21
188.911999
 31
0.0
210
0.0
220
0.0
230
1.0
  0
LINE
  5
115
100
AcDbEntity
  8
0
370
    13
390
0
 62
     7
100
AcDbLine
 10
120.064924
 20
179.411992
 30
0.0
 11
120.064924
 21
188.911999
 31
0.0
210
0.0
220
0.0
230
1.0
  0
LINE
  5
116
100
AcDbEntity
  8
0
370
    13
390
0
 62
     7
100
AcDbLine
 10
111.064903
 20
187.911999
 30
0.0
 11
114.133052
 21
187.911999
 31
0.0
210
0.0
220
0.0
230
1.0
  0
LINE
  5
117
100
AcDbEntity
  8
0
370
    13
390
0
 62
     7
100
AcDbLine
 10
116.064903
 20
187.911999
 30
0.0
 11
120.064924
 21
187.911999
 31
0.0
210
0.0
220
0.0
230
1.0
  0
LINE
  5
118
100
AcDbEntity
  8
0
370
    13
390
0
 62
     7
100
AcDbLine
 10
121.996777
 20
187.911999
 30
0.0
 11
131.994793
 21
187.911999
 31
0.0
210
0.0
220
0.0
230
1.0
  0
POLYLINE
  5
119
100
AcDbEntity
  8
0
370
    13
390
0
 62
     7
100
AcDb2dPolyline
 66
     1
 10
0.0
 20
0.0
 30
0.0
 70
     1
 71
     3
  0
VERTEX
  5
11A
100
AcDbEntity
  8
0
370
     0
390
0
100
AcDbVertex
100
AcDb2dVertex
 10
114.133052
 20
187.39436
 30
0.0
  0
VERTEX
  5
11B
100
AcDbEntity
  8
0
370
     0
390
0
100
AcDbVertex
100
AcDb2dVertex
 10
116.064903
 20
187.911999
 30
0.0
  0
VERTEX
  5
11C
100
AcDbEntity
  8
0
370
     0
390
0
100
AcDbVertex
100
AcDb2dVertex
 10
114.133052
 20
188.429636
 30
0.0
  0
SEQEND
  5
11D
100
AcDbEntity
  8
0
370
     0
390
0
  0
POLYLINE
  5
11E
100
AcDbEntity
  8
0
370
    13
390
0
 62
     7
100
AcDb2dPolyline
 66
     1
 10
0.0
 20
0.0
 30
0.0
 70
     1
 71
     3
  0
VERTEX
  5
11F
100
AcDbEntity
  8
0
370
     0
390
0
100
AcDbVertex
100
AcDb2dVertex
 10
121.996777
 20
188.429636
 30
0.0
  0
VERTEX
  5
120
100
AcDbEntity
  8
0
370
     0
390
0
100
AcDbVertex
100
AcDb2dVertex
 10
120.064924
 20
187.911999
 30
0.0
  0
VERTEX
  5
121
100
AcDbEntity
  8
0
370
     0
390
0
100
AcDbVertex
100
AcDb2dVertex
 10
121.996777
 20
187.39436
 30
0.0
  0
SEQEND
  5
122
100
AcDbEntity
  8
0
370
     0
390
0
  0
ENDBLK
  5
123
100
AcDbEntity
  8
0
390
0
100
AcDbBlockEnd
  0
BLOCK
  5
124
100
AcDbEntity
  8
0
370
     0
390
0
100
AcDbBlockBegin
  2
*D7
 70
    65
 10
0.0
 20
0.0
 30
0.0
  3
*D7
  1

  0
SOLID
  5
125
100
AcDbEntity
  8
0
370
    13
390
0
 62
     7
100
AcDbTrace
 10
108.473807
 20
161.602977
 30
0.0
 11
110.391412
 21
161.034829
 31
0.0
 12
108.473807
 22
161.602977
 32
0.0
 13
109.014792
 23
162.485662
 33
0.0
  0
TEXT
  5
126
100
AcDbEntity
  8
0
370
    13
390
0
 62
     7
100
AcDbText
 10
100.166616
 20
169.295336
 30
0.0
 40
3.5
  1
9
 50
328.4965
 72
     5
 11
102.445179
 21
167.89884
 31
0.0
100
AcDbText
  0
TEXT
  5
127
100
AcDbEntity
  8
0
370
    13
390
0
 62
     7
100
AcDbText
 10
105.515904
 20
168.890372
 30
0.0
 40
1.75
  1
+0.25
 50
328.4965
 72
     5
 11
112.42464
 21
164.656113
 31
0.0
100
AcDbText
  0
TEXT
  5
128
100
AcDbEntity
  8
0
370
    13
390
0
 62
     7
100
AcDbText
 10
103.86987
 20
166.204657
 30
0.0
 40
1.75
  1
 0
 50
328.4965
 72
     5
 11
105.876167
 21
164.975027
 31
0.0
100
AcDbText
  0
TEXT
  5
129
100
AcDbEntity
  8
0
370
    13
390
0
 62
     7
100
AcDbText
 10
96.55815
 20
171.506912
 30
0.0
 40
3.5
  1
R
 50
328.4965
 72
     5
 11
99.314008
 21
169.817888
 31
0.0
100
AcDbText
  0
ARC
  5
12A
100
AcDbEntity
  8
0
370
    13
390
0
 62
     7
100
AcDbCircle
 10
118.064885
 20
156.331871
 30
0.0
 40
9.0
210
0.0
220
0.0
230
1.0
100
AcDbArc
 50
142.130294
 51
190.098115
  0
LINE
  5
12B
100
AcDbEntity
  8
0
370
    13
390
0
 62
     7
100
AcDbLine
 10
118.064885
 20
156.331871
 30
0.0
 11
110.391412
 21
161.034829
 31
0.0
210
0.0
220
0.0
230
1.0
  0
LINE
  5
12C
100
AcDbEntity
  8
0
370
    13
390
0
 62
     7
100
AcDbLine
 10
108.744299
 20
162.04432
 30
0.0
 11
95.669814
 21
170.057477
 31
0.0
210
0.0
220
0.0
230
1.0
  0
POLYLINE
  5
12D
100
AcDbEntity
  8
0
370
    13
390
0
 62
     7
100
AcDb2dPolyline
 66
     1
 10
0.0
 20
0.0
 30
0.0
 70
     1
 71
     3
  0
VERTEX
  5
12E
100
AcDbEntity
  8
0
370
     0
390
0
100
AcDbVertex
100
AcDb2dVertex
 10
108.473807
 20
161.602977
 30
0.0
  0
VERTEX
  5
12F
100
AcDbEntity
  8
0
370
     0
390
0
100
AcDbVertex
100
AcDb2dVertex
 10
110.391412
 20
161.034829
 30
0.0
  0
VERTEX
  5
130
100
AcDbEntity
  8
0
370
     0
390
0
100
AcDbVertex
100
AcDb2dVertex
 10
109.014792
 20
162.485662
 30
0.0
  0
SEQEND
  5
131
100
AcDbEntity
  8
0
370
     0
390
0
  0
ENDBLK
  5
132
100
AcDbEntity
  8
0
390
0
100
AcDbBlockEnd
  0
BLOCK
  5
133
100
AcDbEntity
  8
0
370
     0
390
0
100
AcDbBlockBegin
  2
*D8
 70
    65
 10
0.0
 20
0.0
 30
0.0
  3
*D8
  1

  0
TEXT
  5
134
100
AcDbEntity
  8
0
370
    13
390
0
 62
     7
100
AcDbText
 10
173.630695
 20
185.34607
 30
0.0
 40
3.5
  1
95
 72
     5
 11
179.675617
 21
185.34607
 31
0.0
100
AcDbText
  0
POLYLINE
  5
135
100
AcDbEntity
  8
0
370
    13
390
0
 62
     7
100
AcDb2dPolyline
 66
     1
 10
0.0
 20
0.0
 30
0.0
 71
     3
  0
VERTEX
  5
136
100
AcDbEntity
  8
0
370
     0
390
0
100
AcDbVertex
100
AcDb2dVertex
 10
170.530689
 20
187.912737
 30
0.0
  0
VERTEX
  5
137
100
AcDbEntity
  8
0
370
     0
390
0
100
AcDbVertex
100
AcDb2dVertex
 10
172.630695
 20
186.979403
 30
0.0
  0
VERTEX
  5
138
100
AcDbEntity
  8
0
370
     0
390
0
100
AcDbVertex
100
AcDb2dVertex
 10
170.530689
 20
186.04607
 30
0.0
  0
SEQEND
  5
139
100
AcDbEntity
  8
0
370
     0
390
0
  0
POLYLINE
  5
13A
100
AcDbEntity
  8
0
370
    13
390
0
 62
     7
100
AcDb2dPolyline
 66
     1
 10
0.0
 20
0.0
 30
0.0
 71
     2
  0
VERTEX
  5
13B
100
AcDbEntity
  8
0
370
     0
390
0
100
AcDbVertex
100
AcDb2dVertex
 10
170.530689
 20
185.34607
 30
0.0
  0
VERTEX
  5
13C
100
AcDbEntity
  8
0
370
     0
390
0
100
AcDbVertex
100
AcDb2dVertex
 10
172.630695
 20
185.34607
 30
0.0
  0
SEQEND
  5
13D
100
AcDbEntity
  8
0
370
     0
390
0
  0
TEXT
  5
13E
100
AcDbEntity
  8
0
370
    13
390
0
 62
     7
100
AcDbText
 10
172.267735
 20
178.912619
 30
0.0
 40
3.5
  1
3
 72
     5
 11
174.940189
 21
178.912619
 31
0.0
100
AcDbText
  0
TEXT
  5
13F
100
AcDbEntity
  8
0
370
    13
390
0
 62
     7
100
AcDbText
 10
176.690197
 20
181.012619
 30
0.0
 40
2.33345
  1
3
 72
     5
 11
178.47192
 21
181.012619
 31
0.0
100
AcDbText
  0
TEXT
  5
140
100
AcDbEntity
  8
0
370
    13
390
0
 62
     7
100
AcDbText
 10
176.690197
 20
177.97917
 30
0.0
 40
2.33345
  1
4
 72
     5
 11
178.47192
 21
177.97917
 31
0.0
100
AcDbText
  0
TEXT
  5
141
100
AcDbEntity
  8
0
370
    13
390
0
 62
     7
100
AcDbText
 10
178.47192
 20
179.787619
 30
0.0
 40
3.5
  1
"
 72
     5
 11
181.038586
 21
179.787619
 31
0.0
100
AcDbText
  0
LINE
  5
142
100
AcDbEntity
  8
0
370
    13
390
0
 62
     7
100
AcDbLine
 10
176.690189
 20
180.662619
 30
0.0
 11
178.47192
 21
180.662619
 31
0.0
210
0.0
220
0.0
230
1.0
  0
LINE
  5
143
100
AcDbEntity
  8
0
370
    13
390
0
 62
     7
100
AcDbLine
 10
170.451817
 20
184.34607
 30
0.0
 11
181.117466
 21
184.34607
 31
0.0
210
0.0
220
0.0
230
1.0
  0
ENDBLK
  5
144
100
AcDbEntity
  8
0
390
0
100
AcDbBlockEnd
  0
BLOCK
  5
145
100
AcDbEntity
  8
0
370
     0
390
0
100
AcDbBlockBegin
  2
*D9
 70
    65
 10
0.0
 20
0.0
 30
0.0
  3
*D9
  1

  0
TEXT
  5
146
100
AcDbEntity
  8
0
370
    13
390
0
 62
     7
100
AcDbText
 10
158.80917
 20
161.221375
 30
0.0
 40
3.5
  1
165
 72
     5
 11
168.226551
 21
161.221375
 31
0.0
100
AcDbText
  0
POLYLINE
  5
147
100
AcDbEntity
  8
0
370
    13
390
0
 62
     7
100
AcDb2dPolyline
 66
     1
 10
0.0
 20
0.0
 30
0.0
 71
     3
  0
VERTEX
  5
148
100
AcDbEntity
  8
0
370
     0
390
0
100
AcDbVertex
100
AcDb2dVertex
 10
155.709167
 20
163.788041
 30
0.0
  0
VERTEX
  5
149
100
AcDbEntity
  8
0
370
     0
390
0
100
AcDbVertex
100
AcDb2dVertex
 10
157.809166
 20
162.854708
 30
0.0
  0
VERTEX
  5
14A
100
AcDbEntity
  8
0
370
     0
390
0
100
AcDbVertex
100
AcDb2dVertex
 10
155.709167
 20
161.921375
 30
0.0
  0
SEQEND
  5
14B
100
AcDbEntity
  8
0
370
     0
390
0
  0
POLYLINE
  5
14C
100
AcDbEntity
  8
0
370
    13
390
0
 62
     7
100
AcDb2dPolyline
 66
     1
 10
0.0
 20
0.0
 30
0.0
 71
     2
  0
VERTEX
  5
14D
100
AcDbEntity
  8
0
370
     0
390
0
100
AcDbVertex
100
AcDb2dVertex
 10
155.709167
 20
161.221375
 30
0.0
  0
VERTEX
  5
14E
100
AcDbEntity
  8
0
370
     0
390
0
100
AcDbVertex
100
AcDb2dVertex
 10
157.809166
 20
161.221375
 30
0.0
  0
SEQEND
  5
14F
100
AcDbEntity
  8
0
370
     0
390
0
  0
TEXT
  5
150
100
AcDbEntity
  8
0
370
    13
390
0
 62
     7
100
AcDbText
 10
159.132431
 20
154.787925
 30
0.0
 40
3.5
  1
6
 72
     5
 11
161.804893
 21
154.787925
 31
0.0
100
AcDbText
  0
TEXT
  5
151
100
AcDbEntity
  8
0
370
    13
390
0
 62
     7
100
AcDbText
 10
163.554893
 20
156.887925
 30
0.0
 40
2.33345
  1
1
 72
     5
 11
165.336624
 21
156.887925
 31
0.0
100
AcDbText
  0
TEXT
  5
152
100
AcDbEntity
  8
0
370
    13
390
0
 62
     7
100
AcDbText
 10
163.554893
 20
153.854475
 30
0.0
 40
2.33345
  1
2
 72
     5
 11
165.336624
 21
153.854475
 31
0.0
100
AcDbText
  0
TEXT
  5
153
100
AcDbEntity
  8
0
370
    13
390
0
 62
     7
100
AcDbText
 10
165.336624
 20
155.662925
 30
0.0
 40
3.5
  1
"
 72
     5
 11
167.903294
 21
155.662925
 31
0.0
100
AcDbText
  0
LINE
  5
154
100
AcDbEntity
  8
0
370
    13
390
0
 62
     7
100
AcDbLine
 10
163.554893
 20
156.537925
 30
0.0
 11
165.336624
 21
156.537925
 31
0.0
210
0.0
220
0.0
230
1.0
  0
LINE
  5
155
100
AcDbEntity
  8
0
370
    13
390
0
 62
     7
100
AcDbLine
 10
155.709167
 20
160.221375
 30
0.0
 11
168.226551
 21
160.221375
 31
0.0
210
0.0
220
0.0
230
1.0
  0
ENDBLK
  5
156
100
AcDbEntity
  8
0
390
0
100
AcDbBlockEnd
  0
BLOCK
  5
157
100
AcDbEntity
  8
0
370
     0
390
0
100
AcDbBlockBegin
  2
*D10
 70
    65
 10
0.0
 20
0.0
 30
0.0
  3
*D10
  1

  0
TEXT
  5
158
100
AcDbEntity
  8
0
370
    13
390
0
 62
     7
100
AcDbText
 10
153.851696
 20
149.159027
 30
0.0
 40
3.5
  1
190
 72
     5
 11
163.269077
 21
149.159027
 31
0.0
100
AcDbText
  0
POLYLINE
  5
159
100
AcDbEntity
  8
0
370
    13
390
0
 62
     7
100
AcDb2dPolyline
 66
     1
 10
0.0
 20
0.0
 30
0.0
 71
     3
  0
VERTEX
  5
15A
100
AcDbEntity
  8
0
370
     0
390
0
100
AcDbVertex
100
AcDb2dVertex
 10
150.751698
 20
151.725694
 30
0.0
  0
VERTEX
  5
15B
100
AcDbEntity
  8
0
370
     0
390
0
100
AcDbVertex
100
AcDb2dVertex
 10
152.851696
 20
150.792361
 30
0.0
  0
VERTEX
  5
15C
100
AcDbEntity
  8
0
370
     0
390
0
100
AcDbVertex
100
AcDb2dVertex
 10
150.751698
 20
149.859027
 30
0.0
  0
SEQEND
  5
15D
100
AcDbEntity
  8
0
370
     0
390
0
  0
POLYLINE
  5
15E
100
AcDbEntity
  8
0
370
    13
390
0
 62
     7
100
AcDb2dPolyline
 66
     1
 10
0.0
 20
0.0
 30
0.0
 71
     2
  0
VERTEX
  5
15F
100
AcDbEntity
  8
0
370
     0
390
0
100
AcDbVertex
100
AcDb2dVertex
 10
150.751698
 20
149.159027
 30
0.0
  0
VERTEX
  5
160
100
AcDbEntity
  8
0
370
     0
390
0
100
AcDbVertex
100
AcDb2dVertex
 10
152.851696
 20
149.159027
 30
0.0
  0
SEQEND
  5
161
100
AcDbEntity
  8
0
370
     0
390
0
  0
TEXT
  5
162
100
AcDbEntity
  8
0
370
    13
390
0
 62
     7
100
AcDbText
 10
153.050747
 20
142.725578
 30
0.0
 40
3.5
  1
7
 72
     5
 11
155.723209
 21
142.725578
 31
0.0
100
AcDbText
  0
TEXT
  5
163
100
AcDbEntity
  8
0
370
    13
390
0
 62
     7
100
AcDbText
 10
157.473209
 20
144.825577
 30
0.0
 40
2.33345
  1
15
 72
     5
 11
161.503361
 21
144.825577
 31
0.0
100
AcDbText
  0
TEXT
  5
164
100
AcDbEntity
  8
0
370
    13
390
0
 62
     7
100
AcDbText
 10
157.473209
 20
141.792127
 30
0.0
 40
2.33345
  1
32
 72
     5
 11
161.503361
 21
141.792127
 31
0.0
100
AcDbText
  0
TEXT
  5
165
100
AcDbEntity
  8
0
370
    13
390
0
 62
     7
100
AcDbText
 10
161.503361
 20
143.600578
 30
0.0
 40
3.5
  1
"
 72
     5
 11
164.070026
 21
143.600578
 31
0.0
100
AcDbText
  0
LINE
  5
166
100
AcDbEntity
  8
0
370
    13
390
0
 62
     7
100
AcDbLine
 10
157.473209
 20
144.475578
 30
0.0
 11
161.503361
 21
144.475578
 31
0.0
210
0.0
220
0.0
230
1.0
  0
LINE
  5
167
100
AcDbEntity
  8
0
370
    13
390
0
 62
     7
100
AcDbLine
 10
150.751698
 20
148.159027
 30
0.0
 11
164.070026
 21
148.159027
 31
0.0
210
0.0
220
0.0
230
1.0
  0
ENDBLK
  5
168
100
AcDbEntity
  8
0
390
0
100
AcDbBlockEnd
  0
BLOCK
  5
169
100
AcDbEntity
  8
0
370
     0
390
0
100
AcDbBlockBegin
  2
*D11
 70
    65
 10
0.0
 20
0.0
 30
0.0
  3
*D11
  1

  0
SOLID
  5
16A
100
AcDbEntity
  8
0
370
    13
390
0
 62
     7
100
AcDbTrace
 10
142.133068
 20
234.712546
 30
0.0
 11
144.064922
 21
235.230185
 31
0.0
 12
142.133068
 22
234.712546
 32
0.0
 13
142.133068
 23
235.747824
 33
0.0
  0
SOLID
  5
16B
100
AcDbEntity
  8
0
370
    13
390
0
 62
     7
100
AcDbTrace
 10
93.996775
 20
235.747824
 30
0.0
 11
92.064923
 21
235.230185
 31
0.0
 12
93.996775
 22
235.747824
 32
0.0
 13
93.996775
 23
234.712546
 33
0.0
  0
TEXT
  5
16C
100
AcDbEntity
  8
0
370
    13
390
0
 62
     7
100
AcDbText
 10
112.135611
 20
236.93019
 30
0.0
 40
3.5
  1
52
 72
     5
 11
118.180534
 21
236.93019
 31
0.0
100
AcDbText
  0
TEXT
  5
16D
100
AcDbEntity
  8
0
370
    13
390
0
 62
     7
100
AcDbText
 10
120.280535
 20
239.380186
 30
0.0
 40
1.75
  1
+1
 72
     5
 11
123.994234
 21
239.380186
 31
0.0
100
AcDbText
  0
TEXT
  5
16E
100
AcDbEntity
  8
0
370
    13
390
0
 62
     7
100
AcDbText
 10
120.280535
 20
236.230185
 30
0.0
 40
1.75
  1
 0
 72
     5
 11
122.633665
 21
236.230185
 31
0.0
100
AcDbText
  0
LINE
  5
16F
100
AcDbEntity
  8
0
370
    13
390
0
 62
     7
100
AcDbLine
 10
92.064923
 20
227.831824
 30
0.0
 11
92.064923
 21
236.230185
 31
0.0
210
0.0
220
0.0
230
1.0
  0
LINE
  5
170
100
AcDbEntity
  8
0
370
    13
390
0
 62
     7
100
AcDbLine
 10
144.064922
 20
227.831831
 30
0.0
 11
144.064922
 21
236.230185
 31
0.0
210
0.0
220
0.0
230
1.0
  0
LINE
  5
171
100
AcDbEntity
  8
0
370
    13
390
0
 62
     7
100
AcDbLine
 10
93.996775
 20
235.230185
 30
0.0
 11
142.133068
 21
235.230185
 31
0.0
210
0.0
220
0.0
230
1.0
  0
POLYLINE
  5
172
100
AcDbEntity
  8
0
370
    13
390
0
 62
     7
100
AcDb2dPolyline
 66
     1
 10
0.0
 20
0.0
 30
0.0
 70
     1
 71
     3
  0
VERTEX
  5
173
100
AcDbEntity
  8
0
370
     0
390
0
100
AcDbVertex
100
AcDb2dVertex
 10
142.133068
 20
234.712546
 30
0.0
  0
VERTEX
  5
174
100
AcDbEntity
  8
0
370
     0
390
0
100
AcDbVertex
100
AcDb2dVertex
 10
144.064922
 20
235.230185
 30
0.0
  0
VERTEX
  5
175
100
AcDbEntity
  8
0
370
     0
390
0
100
AcDbVertex
100
AcDb2dVertex
 10
142.133068
 20
235.747824
 30
0.0
  0
SEQEND
  5
176
100
AcDbEntity
  8
0
370
     0
390
0
  0
POLYLINE
  5
177
100
AcDbEntity
  8
0
370
    13
390
0
 62
     7
100
AcDb2dPolyline
 66
     1
 10
0.0
 20
0.0
 30
0.0
 70
     1
 71
     3
  0
VERTEX
  5
178
100
AcDbEntity
  8
0
370
     0
390
0
100
AcDbVertex
100
AcDb2dVertex
 10
93.996775
 20
235.747824
 30
0.0
  0
VERTEX
  5
179
100
AcDbEntity
  8
0
370
     0
390
0
100
AcDbVertex
100
AcDb2dVertex
 10
92.064923
 20
235.230185
 30
0.0
  0
VERTEX
  5
17A
100
AcDbEntity
  8
0
370
     0
390
0
100
AcDbVertex
100
AcDb2dVertex
 10
93.996775
 20
234.712546
 30
0.0
  0
SEQEND
  5
17B
100
AcDbEntity
  8
0
370
     0
390
0
  0
ENDBLK
  5
17C
100
AcDbEntity
  8
0
390
0
100
AcDbBlockEnd
  0
BLOCK
  5
17D
100
AcDbEntity
  8
0
370
     0
390
0
100
AcDbBlockBegin
  2
*D12
 70
    65
 10
0.0
 20
0.0
 30
0.0
  3
*D12
  1

  0
SOLID
  5
17E
100
AcDbEntity
  8
0
370
    13
390
0
 62
     7
100
AcDbTrace
 10
104.09944
 20
204.763712
 30
0.0
 11
104.617078
 21
202.831858
 31
0.0
 12
104.09944
 22
204.763712
 32
0.0
 13
105.134716
 23
204.763712
 33
0.0
  0
SOLID
  5
17F
100
AcDbEntity
  8
0
370
    13
390
0
 62
     7
100
AcDbTrace
 10
105.134716
 20
225.899969
 30
0.0
 11
104.617078
 21
227.831824
 31
0.0
 12
105.134716
 22
225.899969
 32
0.0
 13
104.09944
 23
225.899969
 33
0.0
  0
TEXT
  5
180
100
AcDbEntity
  8
0
370
    13
390
0
 62
     7
100
AcDbText
 10
103.617078
 20
208.050963
 30
0.0
 40
3.5
  1
25
 50
90.000003
 72
     5
 11
103.617078
 21
214.095885
 31
0.0
100
AcDbText
  0
TEXT
  5
181
100
AcDbEntity
  8
0
370
    13
390
0
 62
     7
100
AcDbText
 10
102.742078
 20
216.195887
 30
0.0
 40
1.75
  1
%%p0.5
 50
90.000003
 72
     5
 11
102.742078
 21
222.612715
 31
0.0
100
AcDbText
  0
LINE
  5
182
100
AcDbEntity
  8
0
370
    13
390
0
 62
     7
100
AcDbLine
 10
115.564886
 20
202.831858
 30
0.0
 11
103.617078
 21
202.831858
 31
0.0
210
0.0
220
0.0
230
1.0
  0
LINE
  5
183
100
AcDbEntity
  8
0
370
    13
390
0
 62
     7
100
AcDbLine
 10
92.064909
 20
227.831824
 30
0.0
 11
105.617078
 21
227.831824
 31
0.0
210
0.0
220
0.0
230
1.0
  0
LINE
  5
184
100
AcDbEntity
  8
0
370
    13
390
0
 62
     7
100
AcDbLine
 10
104.617078
 20
204.763712
 30
0.0
 11
104.617078
 21
225.899969
 31
0.0
210
0.0
220
0.0
230
1.0
  0
POLYLINE
  5
185
100
AcDbEntity
  8
0
370
    13
390
0
 62
     7
100
AcDb2dPolyline
 66
     1
 10
0.0
 20
0.0
 30
0.0
 70
     1
 71
     3
  0
VERTEX
  5
186
100
AcDbEntity
  8
0
370
     0
390
0
100
AcDbVertex
100
AcDb2dVertex
 10
104.09944
 20
204.763712
 30
0.0
  0
VERTEX
  5
187
100
AcDbEntity
  8
0
370
     0
390
0
100
AcDbVertex
100
AcDb2dVertex
 10
104.617078
 20
202.831858
 30
0.0
  0
VERTEX
  5
188
100
AcDbEntity
  8
0
370
     0
390
0
100
AcDbVertex
100
AcDb2dVertex
 10
105.134716
 20
204.763712
 30
0.0
  0
SEQEND
  5
189
100
AcDbEntity
  8
0
370
     0
390
0
  0
POLYLINE
  5
18A
100
AcDbEntity
  8
0
370
    13
390
0
 62
     7
100
AcDb2dPolyline
 66
     1
 10
0.0
 20
0.0
 30
0.0
 70
     1
 71
     3
  0
VERTEX
  5
18B
100
AcDbEntity
  8
0
370
     0
390
0
100
AcDbVertex
100
AcDb2dVertex
 10
105.134716
 20
225.899969
 30
0.0
  0
VERTEX
  5
18C
100
AcDbEntity
  8
0
370
     0
390
0
100
AcDbVertex
100
AcDb2dVertex
 10
104.617078
 20
227.831824
 30
0.0
  0
VERTEX
  5
18D
100
AcDbEntity
  8
0
370
     0
390
0
100
AcDbVertex
100
AcDb2dVertex
 10
104.09944
 20
225.899969
 30
0.0
  0
SEQEND
  5
18E
100
AcDbEntity
  8
0
370
     0
390
0
  0
ENDBLK
  5
18F
100
AcDbEntity
  8
0
390
0
100
AcDbBlockEnd
  0
BLOCK
  5
190
100
AcDbEntity
  8
0
370
     0
390
0
100
AcDbBlockBegin
  2
*D13
 70
    65
 10
0.0
 20
0.0
 30
0.0
  3
*D13
  1

  0
SOLID
  5
191
100
AcDbEntity
  8
0
370
    13
390
0
 62
     7
100
AcDbTrace
 10
141.904572
 20
199.547072
 30
0.0
 11
143.883945
 21
199.833563
 31
0.0
 12
141.904572
 22
199.547072
 32
0.0
 13
142.026512
 23
200.575144
 33
0.0
  0
TEXT
  5
192
100
AcDbEntity
  8
0
370
    13
390
0
 62
     7
100
AcDbText
 10
125.871944
 20
203.681898
 30
0.0
 40
3.5
  1
26
 50
353.235691
 72
     5
 11
131.87479
 21
202.969893
 31
0.0
100
AcDbText
  0
TEXT
  5
193
100
AcDbEntity
  8
0
370
    13
390
0
 62
     7
100
AcDbText
 10
134.248749
 20
205.155497
 30
0.0
 40
1.75
  1
+0.25
 50
353.235691
 72
     5
 11
142.295403
 21
204.201075
 31
0.0
100
AcDbText
  0
TEXT
  5
194
100
AcDbEntity
  8
0
370
    13
390
0
 62
     7
100
AcDbText
 10
133.877726
 20
202.027419
 30
0.0
 40
1.75
  1
 0
 50
353.235691
 72
     5
 11
136.214474
 21
201.750258
 31
0.0
100
AcDbText
  0
TEXT
  5
195
100
AcDbEntity
  8
0
370
    13
390
0
 62
     7
100
AcDbText
 10
121.669138
 20
204.180399
 30
0.0
 40
3.5
  1
R
 50
353.235691
 72
     5
 11
124.878904
 21
203.799685
 31
0.0
100
AcDbText
  0
LINE
  5
196
100
AcDbEntity
  8
0
370
    13
390
0
 62
     7
100
AcDbLine
 10
141.965542
 20
200.061106
 30
0.0
 11
121.468904
 21
202.492232
 31
0.0
210
0.0
220
0.0
230
1.0
  0
POLYLINE
  5
197
100
AcDbEntity
  8
0
370
    13
390
0
 62
     7
100
AcDb2dPolyline
 66
     1
 10
0.0
 20
0.0
 30
0.0
 70
     1
 71
     3
  0
VERTEX
  5
198
100
AcDbEntity
  8
0
370
     0
390
0
100
AcDbVertex
100
AcDb2dVertex
 10
141.904572
 20
199.547072
 30
0.0
  0
VERTEX
  5
199
100
AcDbEntity
  8
0
370
     0
390
0
100
AcDbVertex
100
AcDb2dVertex
 10
143.883945
 20
199.833563
 30
0.0
  0
VERTEX
  5
19A
100
AcDbEntity
  8
0
370
     0
390
0
100
AcDbVertex
100
AcDb2dVertex
 10
142.026512
 20
200.575144
 30
0.0
  0
SEQEND
  5
19B
100
AcDbEntity
  8
0
370
     0
390
0
  0
ENDBLK
  5
19C
100
AcDbEntity
  8
0
390
0
100
AcDbBlockEnd
  0
BLOCK
  5
19D
100
AcDbEntity
  8
0
370
     0
390
0
100
AcDbBlockBegin
  2
*D14
 70
    65
 10
0.0
 20
0.0
 30
0.0
  3
*D14
  1

  0
SOLID
  5
19E
100
AcDbEntity
  8
0
370
    13
390
0
 62
     7
100
AcDbTrace
 10
46.966193
 20
76.210127
 30
0.0
 11
48.898045
 21
76.727765
 31
0.0
 12
46.966193
 22
76.210127
 32
0.0
 13
46.966193
 23
77.245403
 33
0.0
  0
SOLID
  5
19F
100
AcDbEntity
  8
0
370
    13
390
0
 62
     7
100
AcDbTrace
 10
52.829896
 20
77.245403
 30
0.0
 11
50.898045
 21
76.727765
 31
0.0
 12
52.829896
 22
77.245403
 32
0.0
 13
52.829896
 23
76.210127
 33
0.0
  0
TEXT
  5
1A0
100
AcDbEntity
  8
0
370
    13
390
0
 62
     7
100
AcDbText
 10
42.206883
 20
77.727765
 30
0.0
 40
3.5
  1
4
 72
     5
 11
44.879344
 21
77.727765
 31
0.0
100
AcDbText
  0
TEXT
  5
1A1
100
AcDbEntity
  8
0
370
    13
390
0
 62
     7
100
AcDbText
 10
41.368915
 20
73.394315
 30
0.0
 40
2.33345
  1
5
 72
     5
 11
43.150646
 21
73.394315
 31
0.0
100
AcDbText
  0
TEXT
  5
1A2
100
AcDbEntity
  8
0
370
    13
390
0
 62
     7
100
AcDbText
 10
40.244705
 20
70.360865
 30
0.0
 40
2.33345
  1
32
 72
     5
 11
44.274856
 21
70.360865
 31
0.0
100
AcDbText
  0
TEXT
  5
1A3
100
AcDbEntity
  8
0
370
    13
390
0
 62
     7
100
AcDbText
 10
44.274856
 20
72.169315
 30
0.0
 40
3.5
  1
"
 72
     5
 11
46.841522
 21
72.169315
 31
0.0
100
AcDbText
  0
LINE
  5
1A4
100
AcDbEntity
  8
0
370
    13
390
0
 62
     7
100
AcDbLine
 10
40.244705
 20
73.044315
 30
0.0
 11
44.274856
 21
73.044315
 31
0.0
210
0.0
220
0.0
230
1.0
  0
LINE
  5
1A5
100
AcDbEntity
  8
0
370
    13
390
0
 62
     7
100
AcDbLine
 10
48.898045
 20
64.652474
 30
0.0
 11
48.898045
 21
77.727765
 31
0.0
210
0.0
220
0.0
230
1.0
  0
LINE
  5
1A6
100
AcDbEntity
  8
0
370
    13
390
0
 62
     7
100
AcDbLine
 10
50.898045
 20
64.652474
 30
0.0
 11
50.898045
 21
77.727765
 31
0.0
210
0.0
220
0.0
230
1.0
  0
LINE
  5
1A7
100
AcDbEntity
  8
0
370
    13
390
0
 62
     7
100
AcDbLine
 10
40.244705
 20
76.727765
 30
0.0
 11
46.966193
 21
76.727765
 31
0.0
210
0.0
220
0.0
230
1.0
  0
LINE
  5
1A8
100
AcDbEntity
  8
0
370
    13
390
0
 62
     7
100
AcDbLine
 10
48.898045
 20
76.727765
 30
0.0
 11
50.898045
 21
76.727765
 31
0.0
210
0.0
220
0.0
230
1.0
  0
LINE
  5
1A9
100
AcDbEntity
  8
0
370
    13
390
0
 62
     7
100
AcDbLine
 10
52.829896
 20
76.727765
 30
0.0
 11
55.898045
 21
76.727765
 31
0.0
210
0.0
220
0.0
230
1.0
  0
POLYLINE
  5
1AA
100
AcDbEntity
  8
0
370
    13
390
0
 62
     7
100
AcDb2dPolyline
 66
     1
 10
0.0
 20
0.0
 30
0.0
 70
     1
 71
     3
  0
VERTEX
  5
1AB
100
AcDbEntity
  8
0
370
     0
390
0
100
AcDbVertex
100
AcDb2dVertex
 10
46.966193
 20
76.210127
 30
0.0
  0
VERTEX
  5
1AC
100
AcDbEntity
  8
0
370
     0
390
0
100
AcDbVertex
100
AcDb2dVertex
 10
48.898045
 20
76.727765
 30
0.0
  0
VERTEX
  5
1AD
100
AcDbEntity
  8
0
370
     0
390
0
100
AcDbVertex
100
AcDb2dVertex
 10
46.966193
 20
77.245403
 30
0.0
  0
SEQEND
  5
1AE
100
AcDbEntity
  8
0
370
     0
390
0
  0
POLYLINE
  5
1AF
100
AcDbEntity
  8
0
370
    13
390
0
 62
     7
100
AcDb2dPolyline
 66
     1
 10
0.0
 20
0.0
 30
0.0
 70
     1
 71
     3
  0
VERTEX
  5
1B0
100
AcDbEntity
  8
0
370
     0
390
0
100
AcDbVertex
100
AcDb2dVertex
 10
52.829896
 20
77.245403
 30
0.0
  0
VERTEX
  5
1B1
100
AcDbEntity
  8
0
370
     0
390
0
100
AcDbVertex
100
AcDb2dVertex
 10
50.898045
 20
76.727765
 30
0.0
  0
VERTEX
  5
1B2
100
AcDbEntity
  8
0
370
     0
390
0
100
AcDbVertex
100
AcDb2dVertex
 10
52.829896
 20
76.210127
 30
0.0
  0
SEQEND
  5
1B3
100
AcDbEntity
  8
0
370
     0
390
0
  0
ENDBLK
  5
1B4
100
AcDbEntity
  8
0
390
0
100
AcDbBlockEnd
  0
BLOCK
  5
1B5
100
AcDbEntity
  8
0
370
     0
390
0
100
AcDbBlockBegin
  2
BLOCK5
 70
     0
 10
0.0
 20
0.0
 30
0.0
  3
BLOCK5
  1

  0
LINE
  5
1B6
100
AcDbEntity
  8
0
370
    13
390
0
 62
     7
100
AcDbLine
 10
0.000001
 20
2.8
 30
0.0
 11
0.0
 21
0.0
 31
0.0
210
0.0
220
0.0
230
1.0
  0
LINE
  5
1B7
100
AcDbEntity
  8
0
370
    13
390
0
 62
     7
100
AcDbLine
 10
-0.000001
 20
-2.8
 30
0.0
 11
0.0
 21
0.0
 31
0.0
210
0.0
220
0.0
230
1.0
  0
ARC
  5
1B8
100
AcDbEntity
  8
0
370
    13
390
0
 62
     7
100
AcDbCircle
 10
0.199999
 20
-2.8
 30
0.0
 40
0.2
210
0.0
220
0.0
230
1.0
100
AcDbArc
 50
179.999974
 51
269.999974
  0
LINE
  5
1B9
100
AcDbEntity
  8
0
370
    13
390
0
 62
     7
100
AcDbLine
 10
0.999999
 20
-3.0
 30
0.0
 11
0.199999
 21
-3.0
 31
0.0
210
0.0
220
0.0
230
1.0
  0
ARC
  5
1BA
100
AcDbEntity
  8
0
370
    13
390
0
 62
     7
100
AcDbCircle
 10
1.0
 20
0.0
 30
0.0
 40
3.0
210
0.0
220
0.0
230
1.0
100
AcDbArc
 50
269.999974
 51
449.999974
  0
LINE
  5
1BB
100
AcDbEntity
  8
0
370
    13
390
0
 62
     7
100
AcDbLine
 10
1.000001
 20
3.0
 30
0.0
 11
0.200001
 21
3.0
 31
0.0
210
0.0
220
0.0
230
1.0
  0
ARC
  5
1BC
100
AcDbEntity
  8
0
370
    13
390
0
 62
     7
100
AcDbCircle
 10
0.200001
 20
2.8
 30
0.0
 40
0.2
210
0.0
220
0.0
230
1.0
100
AcDbArc
 50
89.999974
 51
179.999974
  0
LINE
  5
1BD
100
AcDbEntity
  8
0
370
    13
390
0
 62
     7
100
AcDbLine
 10
1.2
 20
0.649999
 30
0.0
 11
0.798554
 21
2.14822
 31
0.0
210
0.0
220
0.0
230
1.0
  0
ARC
  5
1BE
100
AcDbEntity
  8
0
370
    13
390
0
 62
     7
100
AcDbCircle
 10
0.991739
 20
2.199984
 30
0.0
 40
0.2
210
0.0
220
0.0
230
1.0
100
AcDbArc
 50
90.215142
 51
194.999974
  0
ARC
  5
1BF
100
AcDbEntity
  8
0
370
    13
390
0
 62
     7
100
AcDbCircle
 10
1.0
 20
0.0
 30
0.0
 40
2.4
210
0.0
220
0.0
230
1.0
100
AcDbArc
 50
269.784806
 51
450.215142
  0
ARC
  5
1C0
100
AcDbEntity
  8
0
370
    13
390
0
 62
     7
100
AcDbCircle
 10
0.991737
 20
-2.199985
 30
0.0
 40
0.2
210
0.0
220
0.0
230
1.0
100
AcDbArc
 50
164.999974
 51
269.784806
  0
LINE
  5
1C1
100
AcDbEntity
  8
0
370
    13
390
0
 62
     7
100
AcDbLine
 10
1.2
 20
-0.650001
 30
0.0
 11
0.798552
 21
-2.148221
 31
0.0
210
0.0
220
0.0
230
1.0
  0
LINE
  5
1C2
100
AcDbEntity
  8
0
370
    13
390
0
 62
     7
100
AcDbLine
 10
1.2
 20
-0.650001
 30
0.0
 11
1.2
 21
-0.000001
 31
0.0
210
0.0
220
0.0
230
1.0
  0
LINE
  5
1C3
100
AcDbEntity
  8
0
370
    13
390
0
 62
     7
100
AcDbLine
 10
1.2
 20
0.649999
 30
0.0
 11
1.2
 21
-0.000001
 31
0.0
210
0.0
220
0.0
230
1.0
  0
ENDBLK
  5
1C4
100
AcDbEntity
  8
0
390
0
100
AcDbBlockEnd
  0
ENDSEC
  0
SECTION
  2
ENTITIES
  0
VIEWPORT
  5
CA
100
AcDbEntity
 67
     1
  8
0
370
     0
390
0
 62
     0
 48
0.0
100
AcDbViewport
 10
0.0
 20
0.0
 30
0.0
 40
1000.0
 41
1000.0
 68
     1
 69
     1
 12
0.0
 22
0.0
 13
0.0
 23
0.0
 14
1.0
 24
1.0
 15
1.0
 25
1.0
 16
0.0
 26
0.0
 36
1.0
 17
0.0
 27
0.0
 37
0.0
 42
50.0
 43
0.0
 44
0.0
 45
1000.0
 50
0.0
 51
0.0
 72
   100
 90
        0
340
0
  1

281
     0
 71
     0
 74
     1
110
0.0
120
0.0
130
0.0
111
1.0
121
0.0
131
0.0
112
0.0
122
1.0
132
0.0
345
0
346
0
 79
     0
146
0.0
  0
LINE
  5
29
100
AcDbEntity
  8
0
370
    13
390
0
 62
     7
100
AcDbLine
 10
22.041157
 20
227.176033
 30
0.0
 11
29.041157
 21
227.176033
 31
0.0
210
0.0
220
0.0
230
1.0
  0
LINE
  5
2A
100
AcDbEntity
  8
0
370
    13
390
0
 62
     7
100
AcDbLine
 10
22.041157
 20
227.176033
 30
0.0
 11
22.041157
 21
192.416889
 31
0.0
210
0.0
220
0.0
230
1.0
  0
LINE
  5
2B
100
AcDbEntity
  8
0
370
    13
390
0
 62
     7
100
AcDbLine
 10
68.707821
 20
227.176033
 30
0.0
 11
68.707821
 21
192.416889
 31
0.0
210
0.0
220
0.0
230
1.0
  0
LINE
  5
2C
100
AcDbEntity
  8
0
370
    13
390
0
 62
     7
100
AcDbLine
 10
34.041157
 20
227.176033
 30
0.0
 11
56.707825
 21
227.176033
 31
0.0
210
0.0
220
0.0
230
1.0
  0
LINE
  5
2D
100
AcDbEntity
  8
0
370
    13
390
0
 62
     7
100
AcDbLine
 10
61.707825
 20
227.176033
 30
0.0
 11
68.707821
 21
227.176033
 31
0.0
210
0.0
220
0.0
230
1.0
  0
LINE
  5
2E
100
AcDbEntity
  8
0
370
    13
390
0
 62
     7
100
AcDbLine
 10
22.111867
 20
135.509365
 30
0.0
 11
68.63711
 21
135.509365
 31
0.0
210
0.0
220
0.0
230
1.0
  0
LINE
  5
2F
100
AcDbEntity
  8
0
370
    13
390
0
 62
     7
100
AcDbLine
 10
42.017706
 20
205.509365
 30
0.0
 11
33.057756
 21
214.469334
 31
0.0
210
0.0
220
0.0
230
1.0
  0
LINE
  5
30
100
AcDbEntity
  8
0
370
    13
390
0
 62
     7
100
AcDbLine
 10
39.946226
 20
209.466493
 30
0.0
 11
37.048238
 21
212.36448
 31
0.0
210
0.0
220
0.0
230
1.0
  0
LINE
  5
31
100
AcDbEntity
  8
0
370
    13
390
0
 62
     7
100
AcDbLine
 10
38.067721
 20
207.573724
 30
0.0
 11
35.126499
 21
210.514955
 31
0.0
210
0.0
220
0.0
230
1.0
  0
LINE
  5
32
100
AcDbEntity
  8
0
370
    13
390
0
 62
     7
100
AcDbLine
 10
56.707821
 20
227.176035
 30
0.0
 11
56.707821
 21
224.826036
 31
0.0
210
0.0
220
0.0
230
1.0
  0
LINE
  5
33
100
AcDbEntity
  8
0
370
    13
390
0
 62
     7
100
AcDbLine
 10
61.707821
 20
227.176036
 30
0.0
 11
61.707821
 21
224.826037
 31
0.0
210
0.0
220
0.0
230
1.0
  0
LINE
  5
34
100
AcDbEntity
  8
0
370
    13
390
0
 62
     7
100
AcDbLine
 10
59.407826
 20
222.334055
 30
0.0
 11
59.407827
 21
220.903536
 31
0.0
210
0.0
220
0.0
230
1.0
  0
LINE
  5
35
100
AcDbEntity
  8
0
370
    13
390
0
 62
     7
100
AcDbLine
 10
59.007825
 20
222.334055
 30
0.0
 11
59.007825
 21
220.903536
 31
0.0
210
0.0
220
0.0
230
1.0
  0
LINE
  5
36
100
AcDbEntity
  8
0
370
    13
390
0
 62
     7
100
AcDbLine
 10
34.041153
 20
227.176033
 30
0.0
 11
34.041153
 21
224.826035
 31
0.0
210
0.0
220
0.0
230
1.0
  0
LINE
  5
37
100
AcDbEntity
  8
0
370
    13
390
0
 62
     7
100
AcDbLine
 10
29.041153
 20
227.176027
 30
0.0
 11
29.041153
 21
224.826028
 31
0.0
210
0.0
220
0.0
230
1.0
  0
LINE
  5
38
100
AcDbEntity
  8
0
370
    13
390
0
 62
     7
100
AcDbLine
 10
31.341155
 20
222.334054
 30
0.0
 11
31.341155
 21
220.903535
 31
0.0
210
0.0
220
0.0
230
1.0
  0
LINE
  5
39
100
AcDbEntity
  8
0
370
    13
390
0
 62
     7
100
AcDbLine
 10
31.741157
 20
222.334054
 30
0.0
 11
31.741156
 21
220.903535
 31
0.0
210
0.0
220
0.0
230
1.0
  0
LINE
  5
3A
100
AcDbEntity
  8
0
370
    13
390
0
  6
DASHED
 62
     7
 48
0.05875
100
AcDbLine
 10
56.707829
 20
135.509369
 30
0.0
 11
56.70783
 21
137.859364
 31
0.0
210
0.0
220
0.0
230
1.0
  0
LINE
  5
3B
100
AcDbEntity
  8
0
370
    13
390
0
  6
DASHED
 62
     7
 48
0.05875
100
AcDbLine
 10
61.707829
 20
135.509368
 30
0.0
 11
61.70783
 21
137.859367
 31
0.0
210
0.0
220
0.0
230
1.0
  0
LINE
  5
3C
100
AcDbEntity
  8
0
370
    13
390
0
  6
DASHED
 62
     7
 48
0.035763
100
AcDbLine
 10
59.407827
 20
140.351347
 30
0.0
 11
59.407827
 21
141.781864
 31
0.0
210
0.0
220
0.0
230
1.0
  0
LINE
  5
3D
100
AcDbEntity
  8
0
370
    13
390
0
  6
DASHED
 62
     7
 48
0.035763
100
AcDbLine
 10
59.007826
 20
140.351347
 30
0.0
 11
59.007826
 21
141.781864
 31
0.0
210
0.0
220
0.0
230
1.0
  0
LINE
  5
3E
100
AcDbEntity
  8
0
370
    13
390
0
  6
PHANTOM
 62
     7
100
AcDbLine
 10
19.041157
 20
170.268509
 30
0.0
 11
71.707821
 21
170.268509
 31
0.0
210
0.0
220
0.0
230
1.0
  0
LINE
  5
3F
100
AcDbEntity
  8
0
370
    13
390
0
  6
PHANTOM
 62
     7
100
AcDbLine
 10
19.041157
 20
192.416889
 30
0.0
 11
71.707821
 21
192.416889
 31
0.0
210
0.0
220
0.0
230
1.0
  0
LINE
  5
40
100
AcDbEntity
  8
0
370
    13
390
0
 62
     7
100
AcDbLine
 10
22.041157
 20
170.268509
 30
0.0
 11
22.041157
 21
135.580076
 31
0.0
210
0.0
220
0.0
230
1.0
  0
LINE
  5
41
100
AcDbEntity
  8
0
370
    13
390
0
 62
     7
100
AcDbLine
 10
68.707821
 20
170.268509
 30
0.0
 11
68.707821
 21
135.580076
 31
0.0
210
0.0
220
0.0
230
1.0
  0
ARC
  5
42
100
AcDbEntity
  8
0
370
    13
390
0
 62
     7
100
AcDbCircle
 10
59.207817
 20
224.826042
 30
0.0
 40
2.5
210
0.0
220
0.0
230
1.0
100
AcDbArc
 50
180.000009
 51
265.411442
  0
ARC
  5
43
100
AcDbEntity
  8
0
370
    13
390
0
 62
     7
100
AcDbCircle
 10
59.207817
 20
224.826042
 30
0.0
 40
2.5
210
0.0
220
0.0
230
1.0
100
AcDbArc
 50
274.58858
 51
360.00002
  0
ARC
  5
44
100
AcDbEntity
  8
0
370
    13
390
0
 62
     7
100
AcDbCircle
 10
59.207817
 20
220.026039
 30
0.0
 40
0.9
210
0.0
220
0.0
230
1.0
100
AcDbArc
 50
102.839638
 51
437.160466
  0
ARC
  5
45
100
AcDbEntity
  8
0
370
    13
390
0
 62
     7
100
AcDbCircle
 10
31.541157
 20
224.826042
 30
0.0
 40
2.5
210
0.0
220
0.0
230
1.0
100
AcDbArc
 50
274.58856
 51
359.999993
  0
ARC
  5
46
100
AcDbEntity
  8
0
370
    13
390
0
 62
     7
100
AcDbCircle
 10
31.541157
 20
224.826042
 30
0.0
 40
2.5
210
0.0
220
0.0
230
1.0
100
AcDbArc
 50
179.999978
 51
265.411425
  0
ARC
  5
47
100
AcDbEntity
  8
0
370
    13
390
0
 62
     7
100
AcDbCircle
 10
31.541157
 20
220.026039
 30
0.0
 40
0.9
210
0.0
220
0.0
230
1.0
100
AcDbArc
 50
102.839536
 51
437.160357
  0
ARC
  5
48
100
AcDbEntity
  8
0
370
    13
390
0
  6
DASHED
 62
     7
100
AcDbCircle
 10
59.207817
 20
137.85936
 30
0.0
 40
2.5
210
0.0
220
0.0
230
1.0
100
AcDbArc
 50
94.588558
 51
179.999991
  0
ARC
  5
49
100
AcDbEntity
  8
0
370
    13
390
0
  6
DASHED
 62
     7
100
AcDbCircle
 10
59.207817
 20
137.85936
 30
0.0
 40
2.5
210
0.0
220
0.0
230
1.0
100
AcDbArc
 50
359.99998
 51
445.41142
  0
ARC
  5
4A
100
AcDbEntity
  8
0
370
    13
390
0
  6
DASHED
 62
     7
100
AcDbCircle
 10
59.207817
 20
142.659359
 30
0.0
 40
0.9
210
0.0
220
0.0
230
1.0
100
AcDbArc
 50
282.839537
 51
617.160365
  0
CIRCLE
  5
4B
100
AcDbEntity
  8
0
370
    13
390
0
 62
     7
100
AcDbCircle
 10
60.708878
 20
223.455269
 30
0.0
 40
11.0
210
0.0
220
0.0
230
1.0
  0
LINE
  5
4C
100
AcDbEntity
  8
0
370
    13
390
0
 62
     7
100
AcDbLine
 10
61.807821
 20
227.076033
 30
0.0
 11
61.807821
 21
224.826037
 31
0.0
210
0.0
220
0.0
230
1.0
  0
ARC
  5
4D
100
AcDbEntity
  8
0
370
    13
390
0
 62
     7
100
AcDbCircle
 10
59.207821
 20
224.826042
 30
0.0
 40
2.6
210
0.0
220
0.0
230
1.0
100
AcDbArc
 50
276.626013
 51
359.999885
  0
LINE
  5
4E
100
AcDbEntity
  8
0
370
    13
390
0
 62
     7
100
AcDbLine
 10
59.50783
 20
222.243409
 30
0.0
 11
59.507831
 21
220.979976
 31
0.0
210
0.0
220
0.0
230
1.0
  0
ARC
  5
4F
100
AcDbEntity
  8
0
370
    13
390
0
 62
     7
100
AcDbCircle
 10
59.207821
 20
220.026039
 30
0.0
 40
1.0
210
0.0
220
0.0
230
1.0
100
AcDbArc
 50
107.457126
 51
432.541829
  0
LINE
  5
50
100
AcDbEntity
  8
0
370
    13
390
0
 62
     7
100
AcDbLine
 10
58.907829
 20
222.243407
 30
0.0
 11
58.907829
 21
220.979981
 31
0.0
210
0.0
220
0.0
230
1.0
  0
ARC
  5
51
100
AcDbEntity
  8
0
370
    13
390
0
 62
     7
100
AcDbCircle
 10
59.207821
 20
224.826042
 30
0.0
 40
2.6
210
0.0
220
0.0
230
1.0
100
AcDbArc
 50
180.000009
 51
263.37436
  0
LINE
  5
52
100
AcDbEntity
  8
0
370
    13
390
0
 62
     7
100
AcDbLine
 10
56.607821
 20
227.076033
 30
0.0
 11
56.607821
 21
224.826042
 31
0.0
210
0.0
220
0.0
230
1.0
  0
LINE
  5
53
100
AcDbEntity
  8
0
370
    13
390
0
 62
     7
100
AcDbLine
 10
22.141157
 20
227.076033
 30
0.0
 11
28.941153
 21
227.076033
 31
0.0
210
0.0
220
0.0
230
1.0
  0
LINE
  5
54
100
AcDbEntity
  8
0
370
    13
390
0
 62
     7
100
AcDbLine
 10
28.941153
 20
227.076033
 30
0.0
 11
28.941153
 21
224.826028
 31
0.0
210
0.0
220
0.0
230
1.0
  0
ARC
  5
55
100
AcDbEntity
  8
0
370
    13
390
0
 62
     7
100
AcDbCircle
 10
31.541153
 20
224.826042
 30
0.0
 40
2.6
210
0.0
220
0.0
230
1.0
100
AcDbArc
 50
180.000309
 51
263.374156
  0
LINE
  5
56
100
AcDbEntity
  8
0
370
    13
390
0
 62
     7
100
AcDbLine
 10
31.241151
 20
222.243408
 30
0.0
 11
31.241151
 21
220.979978
 31
0.0
210
0.0
220
0.0
230
1.0
  0
ARC
  5
57
100
AcDbEntity
  8
0
370
    13
390
0
 62
     7
100
AcDbCircle
 10
31.541153
 20
220.026039
 30
0.0
 40
1.0
210
0.0
220
0.0
230
1.0
100
AcDbArc
 50
107.457713
 51
432.542416
  0
LINE
  5
58
100
AcDbEntity
  8
0
370
    13
390
0
 62
     7
100
AcDbLine
 10
31.841153
 20
222.243408
 30
0.0
 11
31.841152
 21
220.979979
 31
0.0
210
0.0
220
0.0
230
1.0
  0
ARC
  5
59
100
AcDbEntity
  8
0
370
    13
390
0
 62
     7
100
AcDbCircle
 10
31.541153
 20
224.826042
 30
0.0
 40
2.6
210
0.0
220
0.0
230
1.0
100
AcDbArc
 50
276.625809
 51
359.999993
  0
LINE
  5
5A
100
AcDbEntity
  8
0
370
    13
390
0
 62
     7
100
AcDbLine
 10
34.141153
 20
227.076033
 30
0.0
 11
34.141153
 21
224.826042
 31
0.0
210
0.0
220
0.0
230
1.0
  0
LINE
  5
5B
100
AcDbEntity
  8
0
370
    13
390
0
 62
     7
100
AcDbLine
 10
34.141153
 20
227.076033
 30
0.0
 11
56.607821
 21
227.076033
 31
0.0
210
0.0
220
0.0
230
1.0
  0
LINE
  5
5C
100
AcDbEntity
  8
0
370
    13
390
0
 62
     7
100
AcDbLine
 10
61.807821
 20
227.076033
 30
0.0
 11
68.607821
 21
227.076033
 31
0.0
210
0.0
220
0.0
230
1.0
  0
LINE
  5
5D
100
AcDbEntity
  8
0
370
    13
390
0
 62
     7
100
AcDbLine
 10
68.607821
 20
227.076033
 30
0.0
 11
68.607821
 21
192.416889
 31
0.0
210
0.0
220
0.0
230
1.0
  0
LINE
  5
5E
100
AcDbEntity
  8
0
370
    13
390
0
 62
     7
100
AcDbLine
 10
22.141157
 20
227.076033
 30
0.0
 11
22.141157
 21
192.416889
 31
0.0
210
0.0
220
0.0
230
1.0
  0
LINE
  5
5F
100
AcDbEntity
  8
0
370
    13
390
0
 62
     7
100
AcDbLine
 10
68.707821
 20
227.176033
 30
0.0
 11
68.607821
 21
227.076033
 31
0.0
210
0.0
220
0.0
230
1.0
  0
LINE
  5
60
100
AcDbEntity
  8
0
370
    13
390
0
 62
     7
100
AcDbLine
 10
61.707821
 20
227.176036
 30
0.0
 11
61.807821
 21
227.076033
 31
0.0
210
0.0
220
0.0
230
1.0
  0
LINE
  5
61
100
AcDbEntity
  8
0
370
    13
390
0
 62
     7
100
AcDbLine
 10
56.707821
 20
227.176035
 30
0.0
 11
56.607821
 21
227.076033
 31
0.0
210
0.0
220
0.0
230
1.0
  0
LINE
  5
62
100
AcDbEntity
  8
0
370
    13
390
0
 62
     7
100
AcDbLine
 10
34.041153
 20
227.176033
 30
0.0
 11
34.141153
 21
227.076033
 31
0.0
210
0.0
220
0.0
230
1.0
  0
LINE
  5
63
100
AcDbEntity
  8
0
370
    13
390
0
 62
     7
100
AcDbLine
 10
29.041153
 20
227.176027
 30
0.0
 11
28.941153
 21
227.076033
 31
0.0
210
0.0
220
0.0
230
1.0
  0
LINE
  5
64
100
AcDbEntity
  8
0
370
    13
390
0
 62
     7
100
AcDbLine
 10
22.041157
 20
227.176033
 30
0.0
 11
22.141157
 21
227.076033
 31
0.0
210
0.0
220
0.0
230
1.0
  0
LINE
  5
65
100
AcDbEntity
  8
0
370
    13
390
0
 62
     7
100
AcDbLine
 10
31.341156
 20
222.334055
 30
0.0
 11
31.241151
 21
222.243408
 31
0.0
210
0.0
220
0.0
230
1.0
  0
LINE
  5
66
100
AcDbEntity
  8
0
370
    13
390
0
 62
     7
100
AcDbLine
 10
31.741156
 20
222.334055
 30
0.0
 11
31.841153
 21
222.243408
 31
0.0
210
0.0
220
0.0
230
1.0
  0
LINE
  5
67
100
AcDbEntity
  8
0
370
    13
390
0
 62
     7
100
AcDbLine
 10
31.841152
 20
220.979979
 30
0.0
 11
31.741158
 21
220.903536
 31
0.0
210
0.0
220
0.0
230
1.0
  0
LINE
  5
68
100
AcDbEntity
  8
0
370
    13
390
0
 62
     7
100
AcDbLine
 10
31.341158
 20
220.903536
 30
0.0
 11
31.241151
 21
220.979978
 31
0.0
210
0.0
220
0.0
230
1.0
  0
LINE
  5
69
100
AcDbEntity
  8
0
370
    13
390
0
 62
     7
100
AcDbLine
 10
59.007817
 20
222.334055
 30
0.0
 11
58.907829
 21
222.243407
 31
0.0
210
0.0
220
0.0
230
1.0
  0
LINE
  5
6A
100
AcDbEntity
  8
0
370
    13
390
0
 62
     7
100
AcDbLine
 10
59.407818
 20
222.334055
 30
0.0
 11
59.50783
 21
222.243409
 31
0.0
210
0.0
220
0.0
230
1.0
  0
LINE
  5
6B
100
AcDbEntity
  8
0
370
    13
390
0
 62
     7
100
AcDbLine
 10
59.507831
 20
220.979976
 30
0.0
 11
59.407827
 21
220.903536
 31
0.0
210
0.0
220
0.0
230
1.0
  0
LINE
  5
6C
100
AcDbEntity
  8
0
370
    13
390
0
 62
     7
100
AcDbLine
 10
58.907829
 20
220.979981
 30
0.0
 11
59.007816
 21
220.903536
 31
0.0
210
0.0
220
0.0
230
1.0
  0
LINE
  5
6D
100
AcDbEntity
  8
0
370
    13
390
0
 62
     7
100
AcDbLine
 10
21.941157
 20
170.268509
 30
0.0
 11
21.941157
 21
135.480076
 31
0.0
210
0.0
220
0.0
230
1.0
  0
LINE
  5
6E
100
AcDbEntity
  8
0
370
    13
390
0
 62
     7
100
AcDbLine
 10
22.011867
 20
135.409365
 30
0.0
 11
68.73711
 21
135.409365
 31
0.0
210
0.0
220
0.0
230
1.0
  0
LINE
  5
6F
100
AcDbEntity
  8
0
370
    13
390
0
 62
     7
100
AcDbLine
 10
68.807821
 20
170.268509
 30
0.0
 11
68.807821
 21
135.480076
 31
0.0
210
0.0
220
0.0
230
1.0
  0
LINE
  5
70
100
AcDbEntity
  8
0
370
    13
390
0
  6
DASHSPACE
 62
     7
 48
0.05875
100
AcDbLine
 10
56.607829
 20
135.509369
 30
0.0
 11
56.60783
 21
137.859364
 31
0.0
210
0.0
220
0.0
230
1.0
  0
ARC
  5
71
100
AcDbEntity
  8
0
370
    13
390
0
  6
DASHSPACE
 62
     7
100
AcDbCircle
 10
59.207817
 20
137.85936
 30
0.0
 40
2.6
210
0.0
220
0.0
230
1.0
100
AcDbArc
 50
96.625622
 51
179.999901
  0
LINE
  5
72
100
AcDbEntity
  8
0
370
    13
390
0
  6
DASHSPACE
 62
     7
 48
0.031586
100
AcDbLine
 10
58.907826
 20
140.441995
 30
0.0
 11
58.907826
 21
141.705417
 31
0.0
210
0.0
220
0.0
230
1.0
  0
ARC
  5
73
100
AcDbEntity
  8
0
370
    13
390
0
  6
DASHSPACE
 62
     7
100
AcDbCircle
 10
59.207817
 20
142.659359
 30
0.0
 40
1.0
210
0.0
220
0.0
230
1.0
100
AcDbArc
 50
287.45822
 51
612.542923
  0
LINE
  5
74
100
AcDbEntity
  8
0
370
    13
390
0
  6
DASHSPACE
 62
     7
 48
0.031586
100
AcDbLine
 10
59.507827
 20
140.441993
 30
0.0
 11
59.507827
 21
141.705423
 31
0.0
210
0.0
220
0.0
230
1.0
  0
ARC
  5
75
100
AcDbEntity
  8
0
370
    13
390
0
  6
DASHSPACE
 62
     7
100
AcDbCircle
 10
59.207817
 20
137.85936
 30
0.0
 40
2.6
210
0.0
220
0.0
230
1.0
100
AcDbArc
 50
359.99998
 51
443.373969
  0
LINE
  5
76
100
AcDbEntity
  8
0
370
    13
390
0
  6
DASHSPACE
 62
     7
 48
0.05875
100
AcDbLine
 10
61.807829
 20
135.509368
 30
0.0
 11
61.80783
 21
137.859359
 31
0.0
210
0.0
220
0.0
230
1.0
  0
LINE
  5
77
100
AcDbEntity
  8
0
370
    13
390
0
 62
     7
100
AcDbLine
 10
59.407816
 20
141.781862
 30
0.0
 11
59.507827
 21
141.705423
 31
0.0
210
0.0
220
0.0
230
1.0
  0
LINE
  5
78
100
AcDbEntity
  8
0
370
    13
390
0
 62
     7
100
AcDbLine
 10
59.007816
 20
141.781863
 30
0.0
 11
58.907826
 21
141.705417
 31
0.0
210
0.0
220
0.0
230
1.0
  0
LINE
  5
79
100
AcDbEntity
  8
0
370
    13
390
0
 62
     7
100
AcDbLine
 10
58.907826
 20
140.441995
 30
0.0
 11
59.007817
 21
140.351347
 31
0.0
210
0.0
220
0.0
230
1.0
  0
LINE
  5
7A
100
AcDbEntity
  8
0
370
    13
390
0
 62
     7
100
AcDbLine
 10
59.507827
 20
140.441993
 30
0.0
 11
59.407818
 21
140.351347
 31
0.0
210
0.0
220
0.0
230
1.0
  0
LINE
  5
7B
100
AcDbEntity
  8
0
370
    13
390
0
 62
     7
100
AcDbLine
 10
22.111867
 20
135.509365
 30
0.0
 11
22.041157
 21
135.580076
 31
0.0
210
0.0
220
0.0
230
1.0
  0
LINE
  5
7C
100
AcDbEntity
  8
0
370
    13
390
0
 62
     7
100
AcDbLine
 10
21.941157
 20
135.480076
 30
0.0
 11
22.011867
 21
135.409365
 31
0.0
210
0.0
220
0.0
230
1.0
  0
LINE
  5
7D
100
AcDbEntity
  8
0
370
    13
390
0
 62
     7
100
AcDbLine
 10
68.63711
 20
135.509365
 30
0.0
 11
68.707821
 21
135.580076
 31
0.0
210
0.0
220
0.0
230
1.0
  0
LINE
  5
7E
100
AcDbEntity
  8
0
370
    13
390
0
 62
     7
100
AcDbLine
 10
68.73711
 20
135.409365
 30
0.0
 11
68.807821
 21
135.480076
 31
0.0
210
0.0
220
0.0
230
1.0
  0
DIMENSION
  5
80
100
AcDbEntity
  8
0
370
     0
390
0
 62
     0
100
AcDbDimension
  2
*D4
 10
89.639434
 20
227.831818
 30
0.0
 11
89.639434
 21
186.575069
 31
0.0
 70
   160
 71
     5
 72
     1
 41
1.0
 42
0.0
210
0.0
220
0.0
230
1.0
 52
89.999523
  1
<>{}{%%p0.5}
  3
STANDARD
100
AcDbAlignedDimension
 13
104.766382
 23
156.331871
 33
0.0
 14
92.06491
 24
227.831818
 34
0.0
 50
89.999523
100
AcDbRotatedDimension
1001
ACAD
1000
DSTYLE
1002
{
1070
    71
1070
     0
1070
    72
1070
     0
1070
    47
1040
0.5
1070
    48
1040
0.5
1002
}
  0
DIMENSION
  5
82
100
AcDbEntity
  8
0
370
     0
390
0
 62
     0
100
AcDbDimension
  2
*D5
 10
118.064885
 20
172.932465
 30
0.0
 11
169.211503
 21
172.932465
 31
0.0
 70
   160
 71
     5
 72
     1
 41
1.0
 42
0.0
210
0.0
220
0.0
230
1.0
 52
89.999523
  1
<GREATEROREQUAL>130
  3
STANDARD
100
AcDbAlignedDimension
 13
188.064999
 23
173.331863
 33
0.0
 14
118.064885
 24
174.331863
 34
0.0
 50
179.999046
100
AcDbRotatedDimension
  0
DIMENSION
  5
84
100
AcDbEntity
  8
0
370
     0
390
0
 62
     0
100
AcDbDimension
  2
*D6
 10
116.064903
 20
187.911999
 30
0.0
 11
127.751713
 21
187.911999
 31
0.0
 70
   160
 71
     5
 72
     1
 41
1.0
 42
0.0
210
0.0
220
0.0
230
1.0
 52
89.999523
  1
<>{}{\S+3^ 0;}
  3
STANDARD
100
AcDbAlignedDimension
 13
120.064924
 23
179.411991
 33
0.0
 14
116.064903
 24
179.411987
 34
0.0
 50
179.999046
100
AcDbRotatedDimension
1001
ACAD
1000
DSTYLE
1002
{
1070
    71
1070
     0
1070
    72
1070
     0
1070
    47
1040
3.0
1070
    48
1040
0.0
1002
}
  0
DIMENSION
  5
86
100
AcDbEntity
  8
0
370
     0
390
0
 62
     0
100
AcDbDimension
  2
*D7
 10
118.064885
 20
156.331871
 30
0.0
 11
102.962934
 21
165.587633
 31
0.0
 70
   164
 71
     5
 72
     1
 41
1.0
 42
0.0
210
0.0
220
0.0
230
1.0
  1
<>{}{\S+0.25^ 0;}
  3
STANDARD
100
AcDbRadialDimension
 15
110.391412
 25
161.034829
 35
0.0
 40
0.0
1001
ACAD
1000
DSTYLE
1002
{
1070
    71
1070
     0
1070
    72
1070
     0
1070
    47
1040
0.25
1070
    48
1040
0.0
1002
}
  0
DIMENSION
  5
88
100
AcDbEntity
  8
0
370
     0
390
0
 62
     0
100
AcDbDimension
  2
*D8
 10
170.451817
 20
184.34607
 30
0.0
 11
175.784641
 21
184.34607
 31
0.0
 70
   161
 71
     5
 72
     1
 41
1.0
 42
0.0
210
0.0
220
0.0
230
1.0
 52
89.999523
  1
<GREATEROREQUAL>95
  3
STANDARD
100
AcDbAlignedDimension
 13
181.117466
 23
184.34607
 33
0.0
 14
170.451817
 24
184.34607
 34
0.0
  0
DIMENSION
  5
8A
100
AcDbEntity
  8
0
370
     0
390
0
 62
     0
100
AcDbDimension
  2
*D9
 10
160.36208
 20
160.221375
 30
0.0
 11
161.967861
 21
160.221375
 31
0.0
 70
   161
 71
     5
 72
     1
 41
1.0
 42
0.0
210
0.0
220
0.0
230
1.0
 52
89.999523
  1
<GREATEROREQUAL>165
  3
STANDARD
100
AcDbAlignedDimension
 13
162.494907
 23
160.221375
 33
0.0
 14
160.36208
 24
160.221375
 34
0.0
  0
DIMENSION
  5
8C
100
AcDbEntity
  8
0
370
     0
390
0
 62
     0
100
AcDbDimension
  2
*D10
 10
151.0508
 20
148.159027
 30
0.0
 11
157.410862
 21
148.159027
 31
0.0
 70
   161
 71
     5
 72
     1
 41
1.0
 42
0.0
210
0.0
220
0.0
230
1.0
 52
89.999523
  1
<GREATEROREQUAL>190
  3
STANDARD
100
AcDbAlignedDimension
 13
161.71645
 23
148.159027
 33
0.0
 14
151.0508
 24
148.159027
 34
0.0
  0
DIMENSION
  5
8E
100
AcDbEntity
  8
0
370
     0
390
0
 62
     0
100
AcDbDimension
  2
*D11
 10
144.064922
 20
235.230186
 30
0.0
 11
118.064922
 21
235.230186
 31
0.0
 70
   160
 71
     5
 72
     1
 41
1.0
 42
0.0
210
0.0
220
0.0
230
1.0
 52
89.999523
  1
<>{}{\S+1^ 0;}
  3
STANDARD
100
AcDbAlignedDimension
 13
92.064923
 23
227.831822
 33
0.0
 14
144.064922
 24
227.831834
 34
0.0
 50
359.998092
100
AcDbRotatedDimension
1001
ACAD
1000
DSTYLE
1002
{
1070
    71
1070
     0
1070
    72
1070
     0
1070
    47
1040
1.0
1070
    48
1040
0.0
1002
}
  0
DIMENSION
  5
90
100
AcDbEntity
  8
0
370
     0
390
0
 62
     0
100
AcDbDimension
  2
*D12
 10
104.617078
 20
202.83186
 30
0.0
 11
104.617078
 21
215.33184
 31
0.0
 70
   160
 71
     5
 72
     1
 41
1.0
 42
0.0
210
0.0
220
0.0
230
1.0
 52
89.999523
  1
<>{}{%%p0.5}
  3
STANDARD
100
AcDbAlignedDimension
 13
92.064909
 23
227.83182
 33
0.0
 14
115.564886
 24
202.83186
 34
0.0
 50
269.998569
100
AcDbRotatedDimension
1001
ACAD
1000
DSTYLE
1002
{
1070
    71
1070
     0
1070
    72
1070
     0
1070
    47
1040
0.5
1070
    48
1040
0.5
1002
}
  0
DIMENSION
  5
92
100
AcDbEntity
  8
0
370
     0
390
0
 62
     0
100
AcDbDimension
  2
*D13
 10
118.064929
 20
202.89598
 30
0.0
 11
131.637749
 21
201.286096
 31
0.0
 70
   164
 71
     5
 72
     1
 41
1.0
 42
0.0
210
0.0
220
0.0
230
1.0
  1
<>{}{\S+0.25^ 0;}
  3
STANDARD
100
AcDbRadialDimension
 15
143.883945
 25
199.833564
 35
0.0
 40
0.0
1001
ACAD
1000
DSTYLE
1002
{
1070
    71
1070
     0
1070
    72
1070
     0
1070
    47
1040
0.25
1070
    48
1040
0.0
1002
}
  0
LINE
  5
93
100
AcDbEntity
  8
0
370
    13
390
0
 62
     7
100
AcDbLine
 10
92.064909
 20
227.83182
 30
0.0
 11
83.064921
 21
227.831828
 31
0.0
210
0.0
220
0.0
230
1.0
  0
LINE
  5
94
100
AcDbEntity
  8
0
370
    13
390
0
 62
     7
100
AcDbLine
 10
83.064918
 20
226.831755
 30
0.0
 11
91.064924
 21
226.831741
 31
0.0
210
0.0
220
0.0
230
1.0
  0
LINE
  5
95
100
AcDbEntity
  8
0
370
    13
390
0
 62
     7
100
AcDbLine
 10
158.064911
 20
227.831802
 30
0.0
 11
187.064938
 21
227.831802
 31
0.0
210
0.0
220
0.0
230
1.0
  0
LINE
  5
96
100
AcDbEntity
  8
0
370
    13
390
0
 62
     7
100
AcDbLine
 10
92.064923
 20
227.831822
 30
0.0
 11
92.064929
 21
202.895974
 31
0.0
210
0.0
220
0.0
230
1.0
  0
LINE
  5
97
100
AcDbEntity
  8
0
370
    13
390
0
 62
     7
100
AcDbLine
 10
153.06491
 20
226.832001
 30
0.0
 11
145.064842
 21
226.831997
 31
0.0
210
0.0
220
0.0
230
1.0
  0
LINE
  5
98
100
AcDbEntity
  8
0
370
    13
390
0
 62
     7
100
AcDbLine
 10
144.064922
 20
227.831834
 30
0.0
 11
144.064927
 21
202.831891
 31
0.0
210
0.0
220
0.0
230
1.0
  0
LINE
  5
99
100
AcDbEntity
  8
0
370
    13
390
0
 62
     7
100
AcDbLine
 10
120.064925
 20
176.973017
 30
0.0
 11
120.064928
 21
165.106826
 31
0.0
210
0.0
220
0.0
230
1.0
  0
LINE
  5
9A
100
AcDbEntity
  8
0
370
    13
390
0
 62
     7
100
AcDbLine
 10
116.064904
 20
176.97302
 30
0.0
 11
116.064907
 21
165.106825
 31
0.0
210
0.0
220
0.0
230
1.0
  0
LINE
  5
9B
100
AcDbEntity
  8
0
370
    13
390
0
 62
     7
100
AcDbLine
 10
187.064776
 20
227.83162
 30
0.0
 11
188.064775
 21
226.831628
 31
0.0
210
0.0
220
0.0
230
1.0
  0
LINE
  5
9C
100
AcDbEntity
  8
0
370
    13
390
0
  6
PHANTOM
 62
     7
100
AcDbLine
 10
193.06499
 20
137.831819
 30
0.0
 11
83.064923
 21
137.831827
 31
0.0
210
0.0
220
0.0
230
1.0
  0
LINE
  5
9D
100
AcDbEntity
  8
0
370
    13
390
0
  6
PHANTOM
 62
     7
 48
0.274995
100
AcDbLine
 10
153.064903
 20
232.831818
 30
0.0
 11
153.064903
 21
221.832016
 31
0.0
210
0.0
220
0.0
230
1.0
  0
LINE
  5
9E
100
AcDbEntity
  8
0
370
    13
390
0
  6
PHANTOM
 62
     7
 48
0.274995
100
AcDbLine
 10
158.064911
 20
232.831818
 30
0.0
 11
158.064911
 21
221.832016
 31
0.0
210
0.0
220
0.0
230
1.0
  0
LINE
  5
9F
100
AcDbEntity
  8
0
370
    13
390
0
  6
PHANTOM
 62
     7
100
AcDbLine
 10
83.064926
 20
232.831818
 30
0.0
 11
83.064926
 21
137.831818
 31
0.0
210
0.0
220
0.0
230
1.0
  0
LINE
  5
A0
100
AcDbEntity
  8
0
370
    13
390
0
 62
     7
100
AcDbLine
 10
188.064999
 20
226.831985
 30
0.0
 11
188.064999
 21
137.831818
 31
0.0
210
0.0
220
0.0
230
1.0
  0
LINE
  5
A1
100
AcDbEntity
  8
0
370
    13
390
0
 62
     7
100
AcDbLine
 10
187.064999
 20
227.831802
 30
0.0
 11
187.064999
 21
137.831818
 31
0.0
210
0.0
220
0.0
230
1.0
  0
LINE
  5
A2
100
AcDbEntity
  8
0
370
    13
390
0
 62
     7
100
AcDbLine
 10
188.065039
 20
226.832019
 30
0.0
 11
158.06491
 21
226.832004
 31
0.0
210
0.0
220
0.0
230
1.0
  0
LINE
  5
A3
100
AcDbEntity
  8
0
370
    13
390
0
 62
     7
100
AcDbLine
 10
144.064888
 20
227.831802
 30
0.0
 11
153.064903
 21
227.831802
 31
0.0
210
0.0
220
0.0
230
1.0
  0
LINE
  5
A4
100
AcDbEntity
  8
0
370
    13
390
0
  6
DASHDOT
 62
     7
100
AcDbLine
 10
118.064885
 20
185.128448
 30
0.0
 11
118.064885
 21
142.977516
 31
0.0
210
0.0
220
0.0
230
1.0
  0
LINE
  5
A5
100
AcDbEntity
  8
0
370
    13
390
0
  6
DASHDOT
 62
     7
 48
0.125
100
AcDbLine
 10
115.564886
 20
202.83186
 30
0.0
 11
120.564885
 21
202.83186
 31
0.0
210
0.0
220
0.0
230
1.0
  0
LINE
  5
A6
100
AcDbEntity
  8
0
370
    13
390
0
  6
DASHDOT
 62
     7
 48
0.422796
100
AcDbLine
 10
103.653053
 20
156.331871
 30
0.0
 11
120.564885
 21
156.331871
 31
0.0
210
0.0
220
0.0
230
1.0
  0
LINE
  5
A7
100
AcDbEntity
  8
0
370
    13
390
0
 62
     7
100
AcDbLine
 10
169.772945
 20
192.013804
 30
0.0
 11
155.419371
 21
206.367409
 31
0.0
210
0.0
220
0.0
230
1.0
  0
LINE
  5
A8
100
AcDbEntity
  8
0
370
    13
390
0
 62
     7
100
AcDbLine
 10
166.963126
 20
198.444232
 30
0.0
 11
161.398981
 21
204.008375
 31
0.0
210
0.0
220
0.0
230
1.0
  0
LINE
  5
A9
100
AcDbEntity
  8
0
370
    13
390
0
 62
     7
100
AcDbLine
 10
163.356404
 20
194.81012
 30
0.0
 11
157.709255
 21
200.457287
 31
0.0
210
0.0
220
0.0
230
1.0
  0
LINE
  5
AA
100
AcDbEntity
  8
0
370
    13
390
0
  6
DASHDOT
 62
     7
 48
0.468955
100
AcDbLine
 10
118.064885
 20
206.711594
 30
0.0
 11
118.064885
 21
187.953407
 31
0.0
210
0.0
220
0.0
230
1.0
  0
ARC
  5
AB
100
AcDbEntity
  8
0
370
    13
390
0
 62
     7
100
AcDbCircle
 10
118.064929
 20
202.89598
 30
0.0
 40
26.0
210
0.0
220
0.0
230
1.0
100
AcDbArc
 50
180.000013
 51
265.58822
  0
ARC
  5
AC
100
AcDbEntity
  8
0
370
    13
390
0
 62
     7
100
AcDbCircle
 10
118.064885
 20
156.331871
 30
0.0
 40
9.0
210
0.0
220
0.0
230
1.0
100
AcDbArc
 50
102.839638
 51
168.582642
  0
ARC
  5
AD
100
AcDbEntity
  8
0
370
    13
390
0
 62
     7
100
AcDbCircle
 10
118.064885
 20
156.331871
 30
0.0
 40
9.0
210
0.0
220
0.0
230
1.0
100
AcDbArc
 50
190.098109
 51
437.160466
  0
ARC
  5
AE
100
AcDbEntity
  8
0
370
    13
390
0
 62
     7
100
AcDbCircle
 10
118.064929
 20
202.89598
 30
0.0
 40
26.0
210
0.0
220
0.0
230
1.0
100
AcDbArc
 50
274.411718
 51
359.858766
  0
ARC
  5
AF
100
AcDbEntity
  8
0
370
    13
390
0
 62
     7
100
AcDbCircle
 10
118.064929
 20
202.89598
 30
0.0
 40
27.0
210
0.0
220
0.0
230
1.0
100
AcDbArc
 50
180.000013
 51
263.620578
  0
ARC
  5
B0
100
AcDbEntity
  8
0
370
    13
390
0
 62
     7
100
AcDbCircle
 10
118.064929
 20
202.89598
 30
0.0
 40
27.0
210
0.0
220
0.0
230
1.0
100
AcDbArc
 50
276.379363
 51
359.858766
  0
ARC
  5
B1
100
AcDbEntity
  8
0
370
    13
390
0
 62
     7
100
AcDbCircle
 10
118.064885
 20
156.331871
 30
0.0
 40
10.0
210
0.0
220
0.0
230
1.0
100
AcDbArc
 50
107.457472
 51
432.54214
  0
LINE
  5
B2
100
AcDbEntity
  8
0
370
    13
390
0
 62
     7
100
AcDbLine
 10
121.064925
 20
176.063164
 30
0.0
 11
121.064928
 21
165.87125
 31
0.0
210
0.0
220
0.0
230
1.0
  0
LINE
  5
B3
100
AcDbEntity
  8
0
370
    13
390
0
 62
     7
100
AcDbLine
 10
115.064904
 20
176.063167
 30
0.0
 11
115.064907
 21
165.87127
 31
0.0
210
0.0
220
0.0
230
1.0
  0
LINE
  5
B4
100
AcDbEntity
  8
0
370
    13
390
0
 62
     7
100
AcDbLine
 10
91.064924
 20
226.831741
 30
0.0
 11
91.064929
 21
202.895974
 31
0.0
210
0.0
220
0.0
230
1.0
  0
LINE
  5
B5
100
AcDbEntity
  8
0
370
    13
390
0
 62
     7
100
AcDbLine
 10
145.064842
 20
226.831997
 30
0.0
 11
145.064847
 21
202.831891
 31
0.0
210
0.0
220
0.0
230
1.0
  0
LINE
  5
B6
100
AcDbEntity
  8
0
370
    13
390
0
 62
     7
100
AcDbLine
 10
144.064922
 20
227.831834
 30
0.0
 11
145.064842
 21
226.831997
 31
0.0
210
0.0
220
0.0
230
1.0
  0
LINE
  5
B7
100
AcDbEntity
  8
0
370
    13
390
0
 62
     7
100
AcDbLine
 10
92.064909
 20
227.83182
 30
0.0
 11
91.064924
 21
226.831741
 31
0.0
210
0.0
220
0.0
230
1.0
  0
LINE
  5
B8
100
AcDbEntity
  8
0
370
    13
390
0
 62
     7
100
AcDbLine
 10
116.064904
 20
176.97302
 30
0.0
 11
115.064904
 21
176.063167
 31
0.0
210
0.0
220
0.0
230
1.0
  0
LINE
  5
B9
100
AcDbEntity
  8
0
370
    13
390
0
 62
     7
100
AcDbLine
 10
120.064925
 20
176.973017
 30
0.0
 11
121.064925
 21
176.063164
 31
0.0
210
0.0
220
0.0
230
1.0
  0
LINE
  5
BA
100
AcDbEntity
  8
0
370
    13
390
0
 62
     7
100
AcDbLine
 10
121.064928
 20
165.87125
 30
0.0
 11
120.064877
 21
165.106837
 31
0.0
210
0.0
220
0.0
230
1.0
  0
LINE
  5
BB
100
AcDbEntity
  8
0
370
    13
390
0
 62
     7
100
AcDbLine
 10
115.064907
 20
165.87127
 30
0.0
 11
116.064878
 21
165.106834
 31
0.0
210
0.0
220
0.0
230
1.0
  0
DIMENSION
  5
BD
100
AcDbEntity
  8
0
370
     0
390
0
 62
     0
100
AcDbDimension
  2
*D14
 10
48.898045
 20
76.727765
 30
0.0
 11
43.543114
 21
76.727765
 31
0.0
 70
   161
 71
     5
 72
     1
 41
1.0
 42
0.0
210
0.0
220
0.0
230
1.0
 52
89.999523
  3
STANDARD
100
AcDbAlignedDimension
 13
50.898045
 23
64.652474
 33
0.0
 14
48.898045
 24
64.652474
 34
0.0
1001
ACAD
1000
DSTYLE
1002
{
1070
   144
1040
2.0
1002
}
  0
LINE
  5
BE
100
AcDbEntity
  8
0
370
    13
390
0
 62
     7
100
AcDbLine
 10
23.492764
 20
60.006028
 30
0.0
 11
48.544491
 21
60.006028
 31
0.0
210
0.0
220
0.0
230
1.0
  0
LINE
  5
BF
100
AcDbEntity
  8
0
370
    13
390
0
 62
     7
100
AcDbLine
 10
48.898045
 20
60.359581
 30
0.0
 11
48.898045
 21
64.652474
 31
0.0
210
0.0
220
0.0
230
1.0
  0
LINE
  5
C0
100
AcDbEntity
  8
0
370
    13
390
0
 62
     7
100
AcDbLine
 10
48.544491
 20
65.006028
 30
0.0
 11
23.492764
 21
65.006028
 31
0.0
210
0.0
220
0.0
230
1.0
  0
LINE
  5
C1
100
AcDbEntity
  8
0
370
    13
390
0
 62
     7
100
AcDbLine
 10
48.544491
 20
65.006028
 30
0.0
 11
48.898045
 21
64.652474
 31
0.0
210
0.0
220
0.0
230
1.0
  0
LINE
  5
C2
100
AcDbEntity
  8
0
370
    13
390
0
 62
     7
100
AcDbLine
 10
48.544491
 20
60.006028
 30
0.0
 11
48.898045
 21
60.359581
 31
0.0
210
0.0
220
0.0
230
1.0
  0
LINE
  5
C3
100
AcDbEntity
  8
0
370
    13
390
0
 62
     7
100
AcDbLine
 10
51.251598
 20
60.006028
 30
0.0
 11
50.898045
 21
60.359581
 31
0.0
210
0.0
220
0.0
230
1.0
  0
LINE
  5
C4
100
AcDbEntity
  8
0
370
    13
390
0
 62
     7
100
AcDbLine
 10
51.251598
 20
65.006028
 30
0.0
 11
50.898045
 21
64.652474
 31
0.0
210
0.0
220
0.0
230
1.0
  0
LINE
  5
C5
100
AcDbEntity
  8
0
370
    13
390
0
 62
     7
100
AcDbLine
 10
50.898045
 20
60.359581
 30
0.0
 11
50.898045
 21
64.652474
 31
0.0
210
0.0
220
0.0
230
1.0
  0
LINE
  5
C6
100
AcDbEntity
  8
0
370
    13
390
0
 62
     7
100
AcDbLine
 10
51.251598
 20
65.006028
 30
0.0
 11
75.898045
 21
65.006028
 31
0.0
210
0.0
220
0.0
230
1.0
  0
LINE
  5
C7
100
AcDbEntity
  8
0
370
    13
390
0
 62
     7
100
AcDbLine
 10
75.898045
 20
60.006028
 30
0.0
 11
51.251598
 21
60.006028
 31
0.0
210
0.0
220
0.0
230
1.0
  0
LINE
  5
C8
100
AcDbEntity
  8
0
370
    13
390
0
  6
PHANTOM
 62
     7
 48
0.125
100
AcDbLine
 10
23.492764
 20
65.006028
 30
0.0
 11
23.492764
 21
60.006028
 31
0.0
210
0.0
220
0.0
230
1.0
  0
LINE
  5
C9
100
AcDbEntity
  8
0
370
    13
390
0
  6
PHANTOM
 62
     7
 48
0.125
100
AcDbLine
 10
75.898045
 20
60.006028
 30
0.0
 11
75.898045
 21
65.006028
 31
0.0
210
0.0
220
0.0
230
1.0
  0
INSERT
  5
1C5
100
AcDbEntity
  8
0
370
     0
390
0
100
AcDbBlockReference
  2
BLOCK1
 10
102.707569
 20
156.972723
 30
0.0
210
0.0
220
0.0
230
1.0
  0
INSERT
  5
1C6
100
AcDbEntity
  8
0
370
     0
390
0
100
AcDbBlockReference
  2
BLOCK2
 10
102.707569
 20
156.972723
 30
0.0
210
0.0
220
0.0
230
1.0
  0
INSERT
  5
1C7
100
AcDbEntity
  8
0
370
     0
390
0
100
AcDbBlockReference
  2
BLOCK3
 10
102.707569
 20
156.972723
 30
0.0
210
0.0
220
0.0
230
1.0
  0
INSERT
  5
1C8
100
AcDbEntity
  8
0
370
     0
390
0
100
AcDbBlockReference
  2
BLOCK4
 10
102.707569
 20
156.972723
 30
0.0
210
0.0
220
0.0
230
1.0
  0
INSERT
  5
1C9
100
AcDbEntity
  8
0
370
     0
390
0
100
AcDbBlockReference
  2
BLOCK5
 10
48.898045
 20
62.506028
 30
0.0
 41
0.5
 42
0.5
 43
0.5
210
0.0
220
0.0
230
1.0
  0
ENDSEC
  0
SECTION
  2
OBJECTS
  0
DICTIONARY
  5
19
100
AcDbDictionary
280
     0
281
     1
  3
ACAD_GROUP
350
1A
  3
ACAD_MLINESTYLE
350
1B
  3
ACAD_LAYOUT
350
1E
  3
ACAD_PLOTSETTINGS
350
22
  3
ACAD_PLOTSTYLENAME
350
1F
  3
ACAD_WIPEOUT_VARS
350
23
  0
DICTIONARY
  5
1A
102
{ACAD_REACTORS
330
19
102
}
100
AcDbDictionary
280
     0
281
     1
  0
DICTIONARY
  5
1B
102
{ACAD_REACTORS
330
19
102
}
100
AcDbDictionary
280
     0
281
     1
  3
Standard
350
1C
  0
MLINESTYLE
  5
1C
102
{ACAD_REACTORS
330
1B
102
}
100
AcDbMlineStyle
  2
Standard
 70
     0
  3

 62
     0
 51
90.0
 52
90.0
 71
     2
 49
0.5
 62
   256
  6
ByLayer
 49
-0.5
 62
   256
  6
ByLayer
  0
ACDBDICTIONARYWDFLT
  5
1F
102
{ACAD_REACTORS
330
19
102
}
100
AcDbDictionary
281
     1
  3
Normal
350
1D
100
AcDbDictionaryWithDefault
340
1D
  0
ACDBPLACEHOLDER
  5
1D
102
{ACAD_REACTORS
330
1F
102
}
  0
LAYOUT
  5
20
102
{ACAD_REACTORS
330
1E
102
}
100
AcDbPlotSettings
  1

  2

  4

  6

 40
0.0
 41
0.0
 42
0.0
 43
0.0
 44
0.0
 45
0.0
 46
0.0
 47
0.0
 48
0.0
 49
0.0
140
0.0
141
0.0
142
1.0
143
1.0
 70
  1024
 72
     0
 73
     0
 74
     0
  7

 75
     0
147
1.0
148
0.0
149
0.0
100
AcDbLayout
  1
Model
 70
     0
 71
     0
 10
0.0
 20
0.0
 11
0.0
 21
0.0
 12
0.0
 22
0.0
 32
0.0
 14
0.0
 24
0.0
 34
0.0
 15
0.0
 25
0.0
 35
0.0
146
0.0
 13
0.0
 23
0.0
 33
0.0
 16
0.0
 26
0.0
 36
0.0
 17
0.0
 27
0.0
 37
0.0
 76
     0
330
A
331
0
345
0
346
0
  0
LAYOUT
  5
21
102
{ACAD_REACTORS
330
1E
102
}
100
AcDbPlotSettings
  1

  2

  4

  6

 40
0.0
 41
0.0
 42
0.0
 43
0.0
 44
0.0
 45
0.0
 46
0.0
 47
0.0
 48
0.0
 49
0.0
140
0.0
141
0.0
142
1.0
143
1.0
 70
     0
 72
     0
 73
     0
 74
     0
  7

 75
     0
147
1.0
148
0.0
149
0.0
100
AcDbLayout
  1
Layout1
 70
     0
 71
     0
 10
0.0
 20
0.0
 11
0.0
 21
0.0
 12
0.0
 22
0.0
 32
0.0
 14
0.0
 24
0.0
 34
0.0
 15
0.0
 25
0.0
 35
0.0
146
0.0
 13
0.0
 23
0.0
 33
0.0
 16
0.0
 26
0.0
 36
0.0
 17
0.0
 27
0.0
 37
0.0
 76
     0
330
B
331
0
345
0
346
0
  0
DICTIONARY
  5
1E
102
{ACAD_REACTORS
330
19
102
}
100
AcDbDictionary
280
     0
281
     1
  3
Layout1
350
21
  3
Model
350
20
  0
DICTIONARY
  5
22
102
{ACAD_REACTORS
330
19
102
}
100
AcDbDictionary
280
     0
281
     1
  0
WIPEOUTVARIABLES
  5
23
100
AcDbWipeoutVariables
 70
     1
  0
ENDSEC
  0
EOF
